#TITLE:PLÁSTICO AMOR;
#SUBTITLE:;
#ARTIST:MACROSS 82-99 feat. AnnieK;
#TITLETRANSLIT:;
#SUBTITLETRANSLIT:;
#ARTISTTRANSLIT:;
#GENRE:;
#CREDIT:;
#BANNER:PLASTICO AMOR.png;
#BACKGROUND:PLASTICO AMOR-bg.png;
#LYRICSPATH:;
#CDTITLE:;
#MUSIC:PLASTICO AMOR.ogg;
#OFFSET:0.486000;
#SAMPLESTART:89.256561;
#SAMPLELENGTH:12.000000;
#LASTBEATHINT:206.000885;
#SELECTABLE:YES;
#BPMS:0.000000=114.973000
;
#STOPS:
;
#BGCHANGES:19.750=PLASTICO AMOR.avi=1.000=1=0=0=StretchNoLoop==CrossFade==,
204.000=PLASTICO AMOR - bg.png=1.000=1=0=1===CrossFade==,
99999=-nosongbg-=1.000=0=0=0 // don't automatically add -songbackground-
;
#KEYSOUNDS:;
#ATTACKS:;

//---------------dance-single - ----------------
#NOTES:
     dance-single:
     :
     Hard:
     7:
     0.363161,0.411697,0.119912,0.119912,0.231829,318.000000,303.000000,15.000000,15.000000,0.000000,0.000000,0.363161,0.411697,0.119912,0.119912,0.231829,318.000000,303.000000,15.000000,15.000000,0.000000,0.000000:
0000
0000
0000
0000
,
0000
0000
0000
0000
,
0000
0000
0000
0000
,
0001
0010
0100
1000
0001
0100
0010
1000
,
0002
0000
0000
0003
,
0010
0000
0100
0000
1000
0010
0100
0000
,
0010
1000
0001
0000
0010
0000
0100
0000
,
1000
0100
0010
0000
0001
1000
0010
0200
,
0000
0300
0000
0001
1000
0100
1000
0001
,
1000
1010
0001
0011
,
0100
1000
0001
0000
0100
0000
1001
0000
,
0000
0010
0001
0100
0010
1000
0100
2000
,
0000
3000
0000
0000
0100
1000
0010
0100
,
0001
1000
0100
0010
,
0001
1000
0100
0000
0010
0001
0100
0000
,
0010
1000
0001
0100
,
0010
1000
0010
1000
0100
1000
0100
1000
,
0001
0000
0000
0010
0000
0001
0000
0100
0010
0000
0000
0000
1001
0000
0000
0000
,
1000
0000
0000
0010
0000
1000
0000
0100
0010
0000
0000
0000
1001
0000
0000
0000
,
0001
0100
0020
0000
0000
0000
0000
0030
,
2000
0000
0000
0000
3020
0000
0000
0000
0130
0000
0002
0000
0000
2003
0000
0000
,
3001
0010
0001
0010
0100
0010
0100
0010
,
0001
0000
0000
1000
0000
0000
0001
0000
0100
0000
0000
0010
0000
0000
0000
0000
,
1000
0010
1000
0010
0100
0010
0100
0010
,
1000
0000
0000
0001
0000
0000
1000
0000
0100
0000
0000
0010
0000
0000
0000
0000
,
0001
0100
0001
0100
1000
0100
1000
0100
,
0010
0000
0000
1000
0000
0000
0100
0000
1000
0000
0000
0001
0000
0000
0010
0000
,
0001
0100
0001
0010
0100
0000
1100
0000
,
0010
0000
1000
0000
0100
0000
1000
0000
0010
0000
0000
0010
1000
0000
0001
0000
,
0010
0100
0010
0100
1000
0001
1000
0001
,
0100
0000
0000
0001
0000
0000
0010
0000
0001
0000
0000
1000
0000
0000
0000
0000
,
0010
0100
0010
0100
0001
1000
0001
1000
,
0100
0000
0000
1000
0000
0000
0010
0000
1000
0000
0000
0001
0000
0000
0000
0000
,
1000
0100
0010
0001
1000
0010
0100
0001
,
2000
0000
0000
3000
,
0001
0000
0010
0000
0100
0000
0010
0001
1000
0000
0000
0000
1010
0000
0000
0000
,
0100
0010
1000
0000
0010
0100
0001
0000
,
0010
0100
0010
0100
1000
0010
0001
0010
,
1000
0100
1000
0100
0000
0010
0100
0010
0000
0001
0010
0001
0000
0000
0000
0000
,
1000
0000
0010
0000
0100
0000
0010
1000
0001
0000
0000
0000
0011
0000
0000
0000
,
0100
0010
0001
0000
0010
0100
1000
0000
,
0010
0100
0010
0100
0001
0010
1000
0010
,
0001
0100
0001
0100
0000
0010
0100
0010
0000
1000
0010
1000
0000
0000
0000
0000
,
0001
0000
0100
0000
0010
0000
0100
0001
1000
0000
0000
0000
1100
0000
0000
0000
,
0020
0000
0000
0001
0000
0031
0000
1000
0010
0000
0000
0000
0101
0000
0000
0000
,
0020
0000
0000
1000
0000
1030
0000
0001
0010
0000
0000
0000
1001
0000
0000
0000
,
1000
0010
1000
0010
0000
0100
0010
0100
0000
0001
0100
0001
0000
0000
0000
0000
,
1000
0000
0100
0000
0010
0000
0100
1000
0001
0000
0000
0000
0011
0000
0000
0000
,
0200
0000
0000
0001
0000
0301
0000
1000
0100
0000
0000
0000
1010
0000
0000
0000
,
0200
0000
0000
1000
0000
1300
0000
0001
0100
0000
0000
0000
1001
0000
0000
0000
,
0001
0010
0001
0010
0000
0100
0010
0100
0000
1000
0100
1000
0000
0000
0000
0000
,
0022
0000
0033
0000
;

//---------------dance-single - ----------------
#NOTES:
     dance-single:
     :
     Medium:
     4:
     0.266090,0.308773,0.079941,0.167876,0.000000,233.000000,223.000000,10.000000,21.000000,0.000000,0.000000,0.266090,0.308773,0.079941,0.167876,0.000000,233.000000,223.000000,10.000000,21.000000,0.000000,0.000000:
0000
0000
0000
0000
,
0000
0000
0000
0000
,
0000
0000
0000
0000
,
0002
0000
0023
0000
,
0230
0000
0000
0300
,
1000
0010
0100
0001
,
0010
0001
0100
0000
0010
0000
0100
0000
,
0001
0010
0100
1000
,
0010
1000
0100
0000
0110
0000
1001
0000
,
0110
0100
0001
1000
,
0100
1000
0001
0000
0100
0000
0010
0000
,
1000
0100
1000
0001
,
0100
0001
1000
0000
0001
0010
0100
1000
,
0001
0100
0010
1000
,
0001
0010
0100
1000
,
0020
0130
0002
1003
,
0100
1000
0100
1000
0001
1000
0001
1000
,
0100
0000
0010
0001
1000
0000
0001
0000
,
0100
0000
0010
1000
0001
0000
0100
0000
,
0020
2000
0000
3030
,
0002
2003
3020
0000
,
1030
0000
0100
0000
0010
0000
0001
1000
,
0200
0000
0310
0001
2000
0000
3000
0000
,
0001
0000
0100
0000
0010
0000
1000
0001
,
0200
0000
0310
1000
0002
0000
0003
0000
,
1000
0100
1000
0000
0001
0010
0001
0000
,
0100
1001
0010
1001
,
1000
0010
1000
0010
0100
0000
0000
0000
,
0001
0010
0001
0010
0100
0000
1000
0000
,
0001
0000
0010
0000
0100
0000
1000
0001
,
0020
0000
0130
1000
0002
0000
0003
0000
,
1000
0000
0010
0000
0100
0000
0001
1000
,
0020
0000
0130
0001
2000
0000
3000
0000
,
0001
0010
0100
1000
,
0002
0000
0000
0003
,
0100
0001
0100
0001
0100
0000
1001
0000
,
0001
0100
1000
0100
,
0001
0010
1000
0100
,
0001
0010
0001
1000
0001
0010
0001
0000
,
1000
0100
1000
0100
1000
0000
1001
0000
,
1000
0100
0001
0100
,
1000
0010
0001
0100
,
1000
0010
1000
0001
1000
0010
1000
0000
,
0001
0010
0001
0010
0001
0000
1001
0000
,
1000
0010
0001
0010
,
1000
0100
0001
0010
,
1000
0100
1000
0001
1000
0100
1000
0000
,
0010
1000
0010
1000
0010
0000
1001
0000
,
0001
0010
1000
0010
,
0001
0100
1000
0010
,
0001
0100
0001
1000
0001
0100
0001
0000
,
0202
0000
0303
0000
;

//---------------dance-single - ----------------
#NOTES:
     dance-single:
     :
     Easy:
     1:
     0.117628,0.164679,0.031976,0.135900,0.000000,103.000000,99.000000,4.000000,17.000000,0.000000,0.000000,0.117628,0.164679,0.031976,0.135900,0.000000,103.000000,99.000000,4.000000,17.000000,0.000000,0.000000:
// measure 0
0000
0000
0000
0000
,  // measure 1
0000
0000
0000
0000
,  // measure 2
0000
0000
0000
0000
,  // measure 3
0010
0000
0001
0000
,  // measure 4
0200
0000
0000
0300
,  // measure 5
0010
0000
0010
0000
,  // measure 6
1000
0000
0000
0000
,  // measure 7
0100
0000
0100
0000
,  // measure 8
1000
0000
0001
0001
,  // measure 9
0001
0000
0010
0000
,  // measure 10
0100
0000
0000
0000
,  // measure 11
1000
0000
0010
0000
,  // measure 12
0100
0000
0000
0000
,  // measure 13
1001
0000
0001
0000
,  // measure 14
1001
0000
1000
0000
,  // measure 15
1001
0000
1000
0000
,  // measure 16
0100
0100
0100
0000
,  // measure 17
1000
1000
1000
0000
,  // measure 18
0001
0001
0001
0000
,  // measure 19
0010
0020
0000
0030
,  // measure 20
0200
0000
2300
0000
,  // measure 21
3001
0001
0001
0000
,  // measure 22
0010
0000
0100
0000
,  // measure 23
1000
1000
1000
0000
,  // measure 24
0010
0000
0100
0000
,  // measure 25
0001
0001
0001
0000
,  // measure 26
0010
0000
0100
0000
,  // measure 27
1000
1000
1000
0000
,  // measure 28
0001
0001
0001
0000
,  // measure 29
0100
0100
0100
0000
,  // measure 30
0001
0000
1000
0000
,  // measure 31
0010
0010
0010
0000
,  // measure 32
1000
0000
0001
0000
,  // measure 33
0020
0030
0002
0003
,  // measure 34
0200
0000
0000
0300
,  // measure 35
0010
0010
0010
0000
,  // measure 36
1000
0000
0001
0000
,  // measure 37
0200
0000
0000
0000
,  // measure 38
0020
0000
0330
0000
,  // measure 39
0100
0100
0100
0000
,  // measure 40
0001
0000
1000
0000
,  // measure 41
0020
0000
0000
0000
,  // measure 42
0200
0000
0330
0000
,  // measure 43
0100
0100
0100
0000
,  // measure 44
0001
0000
1000
0000
,  // measure 45
0020
0000
0000
0000
,  // measure 46
0200
0000
0330
0000
,  // measure 47
0010
0010
0010
0000
,  // measure 48
1000
0000
0001
0000
,  // measure 49
0200
0000
0000
0000
,  // measure 50
0020
0000
0330
0000
,  // measure 51
2002
0000
3003
0000
;
