#VERSION:0.83;
#TITLE:PARTY;
#SUBTITLE:;
#ARTIST:BEYONCÉ featuring ANDRÉ 3000;
#TITLETRANSLIT:;
#SUBTITLETRANSLIT:;
#ARTISTTRANSLIT:;
#GENRE:;
#ORIGIN:;
#CREDIT:;
#BANNER:PARTY.png;
#BACKGROUND:PARTY - bg.png;
#PREVIEWVID:;
#JACKET:PARTY - jacket.png;
#CDIMAGE:;
#DISCIMAGE:;
#LYRICSPATH:;
#CDTITLE:;
#MUSIC:PARTY.ogg;
#OFFSET:-0.337000;
#SAMPLESTART:53.010307;
#SAMPLELENGTH:12.000000;
#SELECTABLE:YES;
#BPMS:0.000=80.484;
#STOPS:;
#DELAYS:;
#WARPS:;
#TIMESIGNATURES:0.000=4=4;
#TICKCOUNTS:0.000=4;
#COMBOS:0.000=1;
#SPEEDS:0.000=1.000=0.000=0;
#SCROLLS:0.000=1.000;
#FAKES:;
#LABELS:0.000=Song Start;
#LASTSECONDHINT:92.802055;
#BGCHANGES:-1.000=PARTY.avi=1.000=0=0=0=StretchNoLoop==CrossFade_Fastest==,
124.000=PARTY - bg.png=1.000=1=0=1===CrossFade==,
99999=-nosongbg-=1.000=0=0=0 // don't automatically add -songbackground-
;
#KEYSOUNDS:;
#ATTACKS:
;

//---------------dance-single - ----------------
#NOTEDATA:;
#CHARTNAME:;
#STEPSTYPE:dance-single;
#DESCRIPTION:;
#CHARTSTYLE:;
#DIFFICULTY:Hard;
#METER:7;
#RADARVALUES:0.370305,0.393589,0.271756,0.344921,0.282208,248.000000,222.000000,26.000000,33.000000,0.000000,0.000000,0.000000,0.000000,0.000000,0.370305,0.393589,0.271756,0.344921,0.282208,248.000000,222.000000,26.000000,33.000000,0.000000,0.000000,0.000000,0.000000,0.000000;
#CREDIT:Alchemy Jones;
#NOTES:
// measure 0
0000
0000
0000
0000
,  // measure 1
0000
0000
0000
0000
,  // measure 2
0000
0000
0000
0001
0010
0100
1000
0001
,  // measure 3
0100
0000
0010
0100
0002
0000
0000
0000
0010
0000
0013
0000
0000
0000
0100
0000
,  // measure 4
1000
0002
0000
1003
0010
0200
0000
0301
,  // measure 5
1000
0000
0020
0000
0000
0000
0130
0001
0200
0000
0020
0000
0330
0000
2000
0000
,  // measure 6
0000
3200
0000
0000
0310
0001
0100
0001
0000
0000
1000
0000
0000
0000
0010
0000
,  // measure 7
0100
0001
1000
0000
0010
1000
0100
1000
0000
0000
0001
0000
0000
0000
0100
0000
,  // measure 8
0010
2000
0000
3010
0100
0001
0000
0100
,  // measure 9
0010
0000
0100
0001
0010
0100
1000
0010
0000
0000
0100
0000
0000
0000
0101
0000
,  // measure 10
0000
1010
0000
0000
2002
0000
3000
0000
0010
0000
0013
0000
0000
0000
1000
0000
,  // measure 11
0001
0100
0000
0100
0010
0000
0010
1000
0000
1000
0200
0000
0020
0000
0000
0000
,  // measure 12
0330
0000
1000
0001
0100
0001
1000
0010
,  // measure 13
0100
0000
0002
0000
0000
0000
1003
0100
1000
0000
0001
0000
0000
0000
1100
0000
,  // measure 14
0000
0011
0000
0000
1001
0000
0001
0100
0010
0000
1000
0100
0010
0000
0001
0010
,  // measure 15
0100
0000
1000
0010
0100
0000
0010
0000
1000
0000
0100
0000
0010
0001
0100
0001
,  // measure 16
0010
0100
1000
1000
0001
0001
0100
0100
,  // measure 17
0010
0000
1000
0100
0020
0000
0030
0000
1001
0000
0000
0001
0100
0010
0000
0010
,  // measure 18
1000
0110
1001
0000
0100
1200
1300
0000
,  // measure 19
0001
0000
0102
0000
0103
0000
0000
0000
0010
0000
1010
1000
0100
0000
0000
0000
,  // measure 20
0010
0021
0031
0000
0100
2001
3010
0000
,  // measure 21
1000
0000
0220
0000
0330
0000
2002
0000
3003
0000
0000
1000
0010
0100
0000
0100
,  // measure 22
0001
0000
0011
0000
1001
0000
0001
0100
1000
0000
2002
0000
3003
0000
1000
0100
,  // measure 23
0001
0000
2002
0000
3003
0000
0001
0100
1000
0000
1001
0001
0010
0100
1000
0000
,  // measure 24
0000
0000
2002
0000
3003
0000
1000
0100
0001
0000
2002
0000
3003
0000
0001
0100
,  // measure 25
1000
0000
2002
0000
0000
0000
3003
0000
0000
0000
0000
0001
0010
0100
0000
0100
,  // measure 26
1000
0000
1010
0000
0100
0001
0010
0000
0010
0000
0100
1000
0001
0000
0001
0000
,  // measure 27
0100
0000
0100
0000
0000
0010
1000
0001
1000
0000
1000
0001
0100
0001
0010
0000
,  // measure 28
0010
0000
0000
0000
0100
1000
0010
0000
0010
0000
0100
0001
1000
0000
1000
0000
,  // measure 29
0100
0000
0100
0000
0000
0010
0001
1000
0001
0000
0001
1000
0100
1000
0010
0000
,  // measure 30
0010
0110
0000
0000
0000
0000
0000
0000
;

//---------------dance-single - ----------------
#NOTEDATA:;
#CHARTNAME:;
#STEPSTYPE:dance-single;
#DESCRIPTION:;
#CHARTSTYLE:;
#DIFFICULTY:Medium;
#METER:4;
#RADARVALUES:0.185153,0.235174,0.114974,0.365826,0.000000,124.000000,113.000000,11.000000,35.000000,0.000000,0.000000,0.000000,0.000000,0.000000,0.185153,0.235174,0.114974,0.365826,0.000000,124.000000,113.000000,11.000000,35.000000,0.000000,0.000000,0.000000,0.000000,0.000000;
#CREDIT:Alchemy Jones;
#NOTES:
0000
0000
0000
0000
,
0000
0000
0000
0000
,
0000
0010
1000
0100
,
0001
0100
1000
0000
0000
0000
0000
0000
,
0001
0020
0000
0000
0130
2000
0000
0000
,
3100
0020
0000
0002
0000
0033
0000
0200
,
0000
0300
1000
0100
1000
0010
1000
0001
,
0010
0002
0000
0003
0000
0000
0000
0000
,
1000
0200
0000
0000
0310
0002
0000
0000
,
0013
0200
0000
0000
1300
0001
0000
0020
,
0000
0200
0000
0000
,
0330
0001
0100
1000
,
0010
0000
0001
0010
0001
0010
0001
0100
,
0001
0200
0000
0002
0000
0303
0000
1001
,
0000
0110
1001
0000
1000
0000
0100
0000
,
0001
0000
0010
1000
0100
0010
0001
0100
,
0002
0023
2030
3200
,
0301
0002
0000
0000
0003
0000
0001
1000
,
0001
1000
0000
0000
0000
0202
0000
0303
,
0000
2200
0000
3300
0000
0202
0000
0303
,
0000
2200
0000
3300
0000
0202
0000
0303
,
0000
1100
0000
1100
0000
0000
1000
0001
,
1000
0001
0000
0000
1000
0020
0000
0030
,
0001
0020
0000
0030
0000
1000
0010
2000
,
0000
0002
0000
3003
0000
0210
0000
0300
,
0001
0020
0000
0000
0030
0000
0001
0100
,
1000
0020
0001
0000
0031
0000
1000
0100
,
1000
0000
0010
0000
0010
0000
0100
0001
,
0100
0000
1000
0000
1000
0000
0001
0010
,
0001
0000
0100
0000
0100
0000
0010
1000
,
0010
0000
0000
0000
;

//---------------dance-single - ----------------
#NOTEDATA:;
#CHARTNAME:;
#STEPSTYPE:dance-single;
#DESCRIPTION:;
#CHARTSTYLE:;
#DIFFICULTY:Easy;
#METER:1;
#RADARVALUES:0.107508,0.141104,0.114974,0.188139,0.000000,72.000000,61.000000,11.000000,18.000000,0.000000,0.000000,0.000000,0.000000,0.000000,0.107508,0.141104,0.114974,0.188139,0.000000,72.000000,61.000000,11.000000,18.000000,0.000000,0.000000,0.000000,0.000000,0.000000;
#CREDIT:Alchemy Jones;
#NOTES:
0000
0000
0000
0000
,
0000
0000
0000
0000
,
0000
1000
0000
0001
,
0000
2002
3003
0000
,
2000
0000
3200
0000
,
0302
0000
0000
0003
,
0000
0010
0000
0100
,
0000
0220
0330
0000
,
0002
0000
0203
0000
,
2300
0000
3020
0000
,
0030
2002
0000
0000
,
3003
1000
0000
0001
,
0000
0100
0000
0010
,
0000
0100
0000
0000
,
0000
0110
0000
1001
,
0000
1000
0001
1000
,
0001
0100
0010
0100
,
0020
0000
0030
1001
,
1001
0000
1000
0000
,
0001
0000
1000
0000
,
0001
0000
0100
0000
,
0010
0000
0100
0110
,
0110
0000
1000
0000
,
0100
0000
1000
0000
,
0100
0000
0001
0000
,
0100
0000
0001
1001
,
1001
2000
0000
0100
,
3100
0002
0000
0100
,
0103
2000
0000
0010
,
3010
0002
0000
0010
,
0013
0000
0000
0000
;
