#TITLE:ONE MORE;
#SUBTITLE:;
#ARTIST:SG LEWIS & NILE RODGERS;
#TITLETRANSLIT:;
#SUBTITLETRANSLIT:;
#ARTISTTRANSLIT:;
#GENRE:;
#CREDIT:;
#BANNER:ONE MORE.png;
#BACKGROUND:ONE MORE - bg.png;
#LYRICSPATH:;
#CDTITLE:;
#MUSIC:ONE MORE.ogg;
#OFFSET:-0.485000;
#SAMPLESTART:69.369141;
#SAMPLELENGTH:12.000000;
#LASTBEATHINT:212.000000;
#SELECTABLE:YES;
#BPMS:0.000000=120.000000
;
#STOPS:
;
#BGCHANGES:15.875=ONE MORE.avi=1.000=0=0=0=StretchNoLoop==CrossFade_Fastest==,
209.000=ONE MORE - bg.png=1.000=1=0=1===CrossFade==,
99999=-nosongbg-=1.000=0=0=0 // don't automatically add -songbackground-
;
#KEYSOUNDS:;
#ATTACKS:;

//---------------dance-single - ----------------
#NOTES:
     dance-single:
     :
     Hard:
     8:
     0.530365,0.585009,0.300005,0.112502,0.393756,396.000000,364.000000,32.000000,12.000000,0.000000,0.000000,0.530365,0.585009,0.300005,0.112502,0.393756,396.000000,364.000000,32.000000,12.000000,0.000000,0.000000:
// measure 0
0000
0000
0000
0000
,  // measure 1
0000
0000
0000
0000
,  // measure 2
0000
0000
0000
0000
,  // measure 3
0000
0000
0000
0000
,  // measure 4
0010
1000
0100
1000
0001
0001
0100
0010
,  // measure 5
0000
0010
1000
0001
1000
0000
0101
0000
,  // measure 6
0010
0100
0001
0010
0100
0100
1000
0001
,  // measure 7
0000
0001
1000
0100
1000
0000
0011
0000
,  // measure 8
0100
1000
0010
0100
1000
1000
0100
0010
,  // measure 9
0000
0100
0001
0100
0010
0000
0101
0000
,  // measure 10
1000
0010
0100
0001
0010
0010
0001
0100
,  // measure 11
0000
0100
0010
1000
0100
0000
0110
0000
,  // measure 12
1001
0000
0000
0001
0100
0000
0010
0000
0100
0000
0001
0000
1000
0000
0000
0000
,  // measure 13
0100
0000
0000
1000
0010
0000
0100
0000
0001
0000
0010
0000
0100
0000
0000
0000
,  // measure 14
0011
0000
0000
0100
1000
0000
0001
0000
0010
0000
0001
0000
1000
0000
0000
0000
,  // measure 15
0010
0000
0000
0100
0001
0000
1000
0000
0010
0000
1000
0000
0100
0000
0000
0000
,  // measure 16
0101
0000
0000
0001
1000
0000
0100
0000
1000
0000
0001
0000
0100
0000
0000
0000
,  // measure 17
0010
0000
0000
0100
0001
0000
0010
0000
0001
0000
1000
0000
0010
0000
0000
0000
,  // measure 18
1000
0010
1000
0001
0010
0100
0010
0001
,  // measure 19
0000
0001
0100
0010
0100
0000
0110
0000
,  // measure 20
1000
0000
0001
0100
0001
0000
1000
0000
0010
0000
1000
0000
0100
0000
0000
0000
,  // measure 21
1100
0000
1000
0002
0010
0000
0013
0000
,  // measure 22
0100
0000
1000
0010
1000
0000
0001
0000
0100
0000
0001
0000
0010
0000
0000
0000
,  // measure 23
0011
0000
0010
0100
1100
0000
1001
0000
,  // measure 24
0011
0000
0001
0100
0001
0000
1000
0000
0010
0000
1000
0000
0100
0000
0000
0000
,  // measure 25
1001
0000
0001
2000
0010
0000
3010
0000
,  // measure 26
0100
0000
0001
0010
0001
0000
1000
0000
0010
0000
1000
0000
0100
0000
0000
0000
,  // measure 27
1100
0000
0010
0001
0101
0000
1001
0000
,  // measure 28
1010
0000
1000
0100
0000
1000
0100
0000
1000
0000
0001
0000
0100
0000
0000
0000
,  // measure 29
0101
0000
0100
0002
0010
0000
0013
0000
,  // measure 30
0001
0000
0001
1000
0000
0001
1000
0000
0100
0000
1000
0000
0001
0000
0000
0000
,  // measure 31
0011
0000
1000
0200
0010
0000
0310
0000
,  // measure 32
0011
0000
0001
0100
0000
0001
0100
0000
0010
0000
1000
0000
0100
0000
0000
0000
,  // measure 33
1010
0000
0010
0200
0001
0000
0301
0000
,  // measure 34
1000
0000
1000
0001
0000
1000
0001
0000
0010
0000
0001
0000
0100
0000
0000
0000
,  // measure 35
0202
0303
1100
1001
,  // measure 36
0011
0000
0001
0100
0000
0001
0100
0000
0001
0100
0000
0010
1000
0100
1000
0000
,  // measure 37
0100
0000
1000
0010
0000
1000
0010
0000
1000
0010
0000
0100
0001
0010
0001
0000
,  // measure 38
0100
0000
0001
1000
0000
0001
1000
0000
0001
1000
0000
0010
1000
0001
0100
0001
,  // measure 39
0100
0000
0010
0100
0000
0010
0100
0000
0010
0100
0000
0001
0010
0001
1000
0000
,  // measure 40
0100
0000
0010
0001
0000
0010
0001
0000
0010
0001
0000
0100
0010
0100
0001
0000
,  // measure 41
0100
0000
0010
1000
0000
0010
1000
0000
0010
1000
0000
0001
2000
0000
0000
0000
,  // measure 42
3001
0000
0100
0010
0000
0100
0010
0000
0100
0010
0000
1000
0010
1000
0100
0000
,  // measure 43
0010
0000
0001
1000
0000
0001
1000
0000
0001
1000
0000
0001
0000
0000
0000
0000
,  // measure 44
1010
0000
1000
0100
0000
1000
0100
0000
1000
0000
0001
0000
0100
0000
0000
0000
,  // measure 45
0101
0000
0100
0002
0010
0000
0013
0000
,  // measure 46
0001
0000
1000
0010
0000
1000
0010
0000
1000
0010
0000
0100
0001
0010
0001
0000
,  // measure 47
0100
0000
0001
0010
0000
0001
0010
0000
0001
0010
0000
0100
1000
0100
0010
0000
,  // measure 48
0001
0000
0100
0010
0000
0100
0010
0000
0100
0010
0000
0100
0001
1000
0010
1000
,  // measure 49
0010
0000
1000
0100
0000
1000
0100
0000
1000
0100
0000
0010
0002
0000
0000
0000
,  // measure 50
1003
0000
0001
0100
0000
0001
0100
0000
0001
0100
0000
0010
1000
0100
1000
0000
,  // measure 51
2002
3003
1100
1001
,  // measure 52
0011
0000
0000
0000
;

//---------------dance-single - ----------------
#NOTES:
     dance-single:
     :
     Medium:
     5:
     0.302683,0.341255,0.243754,0.093751,0.000000,226.000000,200.000000,26.000000,10.000000,0.000000,0.000000,0.302683,0.341255,0.243754,0.093751,0.000000,226.000000,200.000000,26.000000,10.000000,0.000000,0.000000:
0000
0000
0000
0000
,
0000
0000
0000
0000
,
0000
0000
0000
0000
,
0000
0000
0000
0000
,
0001
0100
0010
0001
,
0100
0010
0001
0000
,
1000
0010
0100
1000
,
0010
0100
1000
0000
,
0010
1000
0100
0001
,
0010
1000
0100
0000
,
0010
0001
0100
1000
,
0010
0001
0100
0000
,
0010
0000
1000
0000
0100
0010
0100
0000
,
0010
0000
0001
0100
0001
0000
0000
0000
,
0010
0000
0001
0000
0100
0010
0100
0000
,
0010
1000
0100
0000
,
0001
0100
1000
0010
,
0001
0000
0100
0010
0100
0000
0000
0000
,
0001
0010
1000
0100
,
0001
0010
0001
0100
0001
0000
1001
0000
,
0000
0000
0000
0000
0100
0001
0100
0000
,
0010
0000
1000
0200
1000
0000
1300
0000
,
0000
0000
0000
0000
0010
0001
0100
0000
,
0010
0100
0101
1001
,
1010
0000
0000
0000
0010
1000
0010
0000
,
0100
0000
0001
0020
0001
0000
0031
0000
,
0000
0000
0000
0000
0010
1000
0100
0000
,
1000
0000
1100
1001
,
0011
0000
0000
0000
0010
1000
0010
0000
,
0100
0000
0001
0020
0001
0000
0031
0000
,
0000
0000
0000
0000
0100
1000
0010
0000
,
0100
0001
0101
1001
,
1010
0000
0000
0000
0100
0001
0100
0000
,
0010
0000
1000
0200
1000
0000
1300
0000
,
0000
0000
0000
0000
0100
0001
0010
0000
,
0001
0000
1100
1001
,
0011
0000
0010
0000
0100
0000
0010
0001
,
0100
0010
1001
0110
,
0100
0000
0010
0000
0100
1000
0010
0100
,
0010
0200
0001
0301
,
1010
0000
0101
0000
0010
0000
0100
0001
,
0010
0100
1100
0101
,
1000
0000
0100
0000
0010
0001
0100
0010
,
0100
0020
1000
1030
,
0202
0000
0303
0000
0010
2000
0100
0000
,
3100
0000
0010
0002
0100
0000
0103
0000
,
0010
0000
1000
0000
0001
0010
0001
0100
,
0001
1000
0110
1001
,
0100
0000
0001
0000
0010
0000
0100
1000
,
0001
0100
0001
0000
0010
0000
1000
0000
,
0100
0000
0001
0000
0010
0100
0010
0000
,
0110
0000
1100
1001
,
0011
0000
0000
0000
;

//---------------dance-single - ----------------
#NOTES:
     dance-single:
     :
     Easy:
     3:
     0.204914,0.292505,0.150002,0.196878,0.000000,153.000000,137.000000,16.000000,21.000000,0.000000,0.000000,0.204914,0.292505,0.150002,0.196878,0.000000,153.000000,137.000000,16.000000,21.000000,0.000000,0.000000:
0000
0000
0000
0000
,
0000
0000
0000
0000
,
0000
0000
0000
0000
,
0000
0000
0000
0000
,
1000
0000
0100
0000
,
0010
0001
0100
0000
,
0001
0000
0100
0000
,
0010
1000
0100
0000
,
1000
0000
0001
0000
,
0100
0001
0010
0000
,
0100
0000
1000
0000
,
0010
0001
0100
0000
,
0001
0001
0010
0010
,
0100
1000
0010
0000
,
0100
0100
0001
0001
,
0010
1000
0100
0000
,
0010
0010
0100
0100
,
1000
0010
0001
0000
,
0010
0000
0100
0000
,
2002
0000
0000
3003
,
1000
0100
0020
0000
,
0032
0000
0100
0103
,
0000
0000
0010
0000
,
1000
0000
1001
1001
,
1001
0000
0200
0000
,
2300
0000
0010
3010
,
0000
0000
0100
0001
,
0010
0000
0110
0110
,
0110
0000
0200
0000
,
2300
0000
0010
3010
,
0000
0000
0100
0000
,
0001
0000
1001
1001
,
1001
0000
0020
0000
,
0032
0000
0100
0103
,
0000
0000
0010
1000
,
0100
0000
0110
0110
,
0110
0100
0010
0100
,
0001
1000
0020
0000
,
1030
0100
1000
0020
,
0030
0100
0001
0020
,
0030
0100
1000
0001
,
0100
0001
0020
0030
,
0001
0100
0010
0100
,
0001
1000
0020
0000
,
1030
0100
1000
0010
,
0200
0000
0002
0303
,
1000
0100
1000
0001
,
0100
0001
2000
3000
,
0001
0010
0001
0100
,
0010
1000
0200
0300
,
1000
0001
0200
0000
,
0020
0330
1001
1001
,
1001
0000
0000
0000
;
