#TITLE:NEVER GIVE UP ON THE GOOD TIMES;
#SUBTITLE:;
#ARTIST:SPICE GIRLS;
#TITLETRANSLIT:;
#SUBTITLETRANSLIT:;
#ARTISTTRANSLIT:;
#GENRE:;
#CREDIT:;
#BANNER:NEVER GIVE UP ON THE GOOD TIMES.png;
#BACKGROUND:NEVER GIVE UP ON THE GOOD TIMES - bg.png;
#LYRICSPATH:;
#CDTITLE:;
#MUSIC:NEVER GIVE UP ON THE GOOD TIMES.ogg;
#OFFSET:-0.082000;
#SAMPLESTART:41.028389;
#SAMPLELENGTH:12.000000;
#LASTBEATHINT:209.976318;
#SELECTABLE:YES;
#BPMS:0.000000=117.000000
;
#STOPS:
;
#BGCHANGES:15.750=NEVER GIVE UP ON THE GOOD TIMES.avi=1.000=0=0=0=StretchNoLoop==CrossFade_Faster==,
204.000=NEVER GIVE UP ON THE GOOD TIMES - bg.png=1.000=1=0=1===CrossFade==,
99999=-nosongbg-=1.000=0=0=0 // don't automatically add -songbackground-
;
#KEYSOUNDS:;
#ATTACKS:;

//---------------dance-single - ----------------
#NOTES:
     dance-single:
     :
     Hard:
     8:
     0.483177,0.502504,0.316261,0.131775,0.272336,385.000000,349.000000,36.000000,15.000000,0.000000,0.000000,0.483177,0.502504,0.316261,0.131775,0.272336,385.000000,349.000000,36.000000,15.000000,0.000000,0.000000:
0000
0000
0000
0000
,
0000
0000
0000
0000
,
0001
0100
0001
0100
0000
0100
0000
0000
0110
0000
0000
0000
1010
0000
0000
0000
,
1000
0100
1000
0100
0000
0100
0000
0000
0110
0000
0000
0000
0001
0100
0001
1000
,
0020
0000
0000
0000
0030
0000
1000
0100
2000
0000
0000
0000
3001
0000
0000
0000
,
0100
0001
0010
0001
0000
1000
0100
0001
,
0000
1100
0110
0011
,
1000
0000
0001
0000
1000
0000
0010
0000
1000
0000
0001
0000
1000
0010
0000
0000
,
0100
0001
1000
0001
0010
0000
0100
0000
,
1000
0010
0100
0010
1000
0000
0100
0000
,
0020
0001
0031
0000
0200
0001
0301
0000
,
0100
0010
1000
0100
0010
0000
1001
0000
,
0100
1000
0001
1000
0010
0000
0100
0000
,
0001
0010
0100
0010
0001
0000
0100
0000
,
0020
1000
1030
0000
0200
1000
1300
0000
,
1001
0000
0000
1000
0010
0000
0100
0000
0001
0000
0000
0000
0110
0000
0000
0000
,
1001
0000
0100
1000
0010
0100
0010
1000
,
0200
0000
0000
0000
0300
0000
0000
0000
0011
0000
0000
0000
0110
0000
1000
0001
,
1000
0000
0000
0000
0101
0000
0001
1000
0001
0000
0000
0000
1100
0000
0000
0000
,
0001
0000
0100
0000
1000
0000
0100
0000
0001
1000
0001
0000
0110
0000
0000
0000
,
0001
0100
0001
0100
0000
0100
0000
0100
0010
0000
0010
0000
1001
0000
0000
0000
,
1000
0100
1000
0100
0000
0100
0000
0100
0010
0000
0010
0000
2001
0000
0000
0000
,
3100
0001
0100
1000
0100
0001
0100
1000
,
0001
0100
1000
0100
0001
0100
1000
0100
,
0001
0010
0001
0010
0000
0010
0000
0010
0100
0000
0100
0000
1001
0000
0000
0000
,
1000
0010
1000
0010
0000
0010
0000
0010
0100
0000
0100
0000
1002
0000
0000
0000
,
0103
1000
0100
0001
0100
1000
0100
0001
,
1000
0000
0100
0000
0001
0000
0100
0000
1000
0000
0100
0000
0001
0100
0010
0100
,
2000
0000
0000
0000
3000
0000
0001
0100
0002
0000
0000
0000
0013
0000
0000
0000
,
0100
1000
0010
1000
0000
0001
0100
1000
,
0000
0101
0110
1010
,
0001
0000
1000
0000
0001
0000
0010
0000
0001
0000
1000
0000
0001
0100
0000
0000
,
1100
0000
0011
0000
1000
0010
0100
0000
,
0001
0010
0001
0100
0010
1000
0010
0100
,
0101
0000
1010
0000
0001
0010
0100
0000
,
1000
0010
1000
0100
0010
0001
0010
0100
,
1000
0001
1000
0001
0000
0000
0000
0000
0100
0000
0010
0000
1000
0000
0000
0000
,
0001
0100
0010
0100
0001
0010
0100
0000
,
0001
1000
0001
1000
0000
0000
0000
0000
0101
0000
0000
0000
1001
0000
0000
0000
,
0001
0100
1000
0000
1001
0000
1100
0000
,
1000
0010
1000
0010
0000
0010
0000
0010
0100
0000
0100
0000
1001
0000
0000
0000
,
0001
0010
0001
0010
0000
0010
0000
0010
0100
0000
0100
0000
1002
0000
0000
0000
,
0013
1000
0010
0001
0010
1000
0010
0001
,
1000
0010
0001
0010
1000
0010
0001
0010
,
1000
0100
1000
0100
0000
0100
0000
0100
0010
0000
0010
0000
1001
0000
0000
0000
,
0001
0100
0001
0100
0000
0100
0000
0100
0010
0000
0010
0000
2001
0000
0000
0000
,
3010
0001
0010
1000
0010
0001
0010
1000
,
0001
0010
1000
0010
0001
0010
1000
0010
,
0001
1000
0001
1000
0000
1000
0000
1000
0100
0000
0100
0000
1001
0000
0000
0000
,
1000
0001
1000
0001
0000
0001
0000
0001
0100
0000
0100
0000
1002
0000
0000
0000
,
0103
1000
0100
0001
0020
0000
0000
0000
,
0000
0000
0000
0000
,
0030
0000
0000
0000
;

//---------------dance-single - ----------------
#NOTES:
     dance-single:
     :
     Medium:
     5:
     0.336341,0.365457,0.131775,0.140560,0.000000,268.000000,253.000000,15.000000,16.000000,0.000000,0.000000,0.336341,0.365457,0.131775,0.140560,0.000000,268.000000,253.000000,15.000000,16.000000,0.000000,0.000000:
// measure 0
0000
0000
0000
0000
,  // measure 1
0000
0000
0000
0000
,  // measure 2
0010
1000
0100
0100
,  // measure 3
0010
0000
0001
0000
0100
0000
0100
0001
,  // measure 4
2000
0000
0000
3001
0020
0000
0130
0000
,  // measure 5
1000
0010
1000
0001
0000
0000
1001
0000
,  // measure 6
0000
0020
2030
3002
,  // measure 7
0003
1000
1000
0001
0001
0100
0100
0000
,  // measure 8
0001
0010
1000
0100
,  // measure 9
0001
1000
0001
0000
1000
0000
0010
0000
,  // measure 10
0100
0001
0010
0000
0100
1000
0010
0000
,  // measure 11
0200
0000
0000
0020
0000
0330
0000
0000
,  // measure 12
1000
0100
0001
0010
,  // measure 13
1000
0001
1000
0000
0001
0000
0100
0000
,  // measure 14
0010
1000
0100
0000
0010
0001
0100
0000
,  // measure 15
0020
0000
0200
0330
,  // measure 16
1001
0000
0001
0100
0001
1000
0001
0100
,  // measure 17
0002
0003
1010
1100
,  // measure 18
0001
0000
1000
0000
,  // measure 19
0010
0100
0001
0020
0000
0200
0000
0330
,  // measure 20
1000
0010
1000
0010
0100
0000
0100
0000
,  // measure 21
0001
0010
0001
0010
0100
0000
0100
0000
,  // measure 22
1000
0010
0100
0010
1000
0000
1000
0000
,  // measure 23
0001
0010
0100
0010
0001
0000
0001
0000
,  // measure 24
0001
0010
0001
0010
0100
0000
0100
0000
,  // measure 25
1000
0010
1000
0010
0100
0000
0100
0000
,  // measure 26
0001
0010
0100
0010
0001
0000
0001
0000
,  // measure 27
1000
0010
0100
0010
1000
0000
1000
0100
,  // measure 28
0020
0000
0030
0001
2000
0000
3002
0000
,  // measure 29
0013
0100
1000
0001
0000
0010
0001
1000
,  // measure 30
0000
0110
1001
0110
,  // measure 31
0000
0001
0001
1000
1000
0100
0100
0000
,  // measure 32
1001
0110
0001
0100
,  // measure 33
1000
0100
0010
0000
0001
0100
0010
0000
,  // measure 34
1001
0110
1000
0100
,  // measure 35
0001
0100
0010
0000
1000
0100
0010
0000
,  // measure 36
1000
0001
1000
0000
0001
0000
0010
0000
,  // measure 37
1000
0001
0100
0000
0001
1000
0100
0000
,  // measure 38
1001
0110
1100
0101
,  // measure 39
0001
0100
0010
0000
1000
0100
0010
0000
,  // measure 40
0001
0100
0001
0100
0010
0000
0010
0000
,  // measure 41
1000
0100
1000
0100
0010
0000
0010
0000
,  // measure 42
0001
0100
0010
0100
0001
0000
0001
0000
,  // measure 43
1000
0100
0010
0100
1000
0000
1000
0000
,  // measure 44
1000
0100
1000
0100
0010
0000
0010
0000
,  // measure 45
0001
0100
0001
0100
0010
0000
0010
0000
,  // measure 46
1000
0100
0010
0100
1000
0000
1000
0000
,  // measure 47
0001
0100
0010
0100
0001
0000
0001
0000
,  // measure 48
1000
0001
1000
0001
0100
0000
0100
0000
,  // measure 49
0001
1000
0001
1000
0100
0000
0100
0000
,  // measure 50
0001
0010
0001
1000
0020
0000
0000
0000
,  // measure 51
0000
0000
0000
0000
,  // measure 52
0030
0000
0000
0000
;

//---------------dance-single - ----------------
#NOTES:
     dance-single:
     :
     Easy:
     3:
     0.210841,0.228411,0.061495,0.122990,0.000000,168.000000,161.000000,7.000000,14.000000,0.000000,0.000000,0.210841,0.228411,0.061495,0.122990,0.000000,168.000000,161.000000,7.000000,14.000000,0.000000,0.000000:
0000
0000
0000
0000
,
0000
0000
0000
0000
,
1000
0000
0001
0001
,
0100
0000
0010
0010
,
2000
3000
0002
0003
,
0100
1000
0010
0002
,
0003
0010
0001
0100
,
0000
0010
0010
0010
,
1001
0000
0100
0001
,
1000
0000
0010
1000
,
0100
0000
1000
0001
,
0200
0000
0020
0330
,
1001
0000
0100
1000
,
0001
0000
0010
0001
,
0100
0100
0010
0010
,
1001
0000
0001
0100
,
1000
0000
0100
0001
,
1000
0000
0010
0001
,
0100
0000
0110
0000
,
0010
0100
0010
0100
,
1000
1000
0001
0001
,
0010
0100
0010
0100
,
2000
0000
0010
3010
,
0002
0000
0010
0013
,
0001
0001
1000
1000
,
0010
0100
0010
0100
,
0002
0000
0010
0013
,
2000
0000
0010
3010
,
0002
0003
2000
3000
,
0010
0001
0100
2000
,
3000
0100
1000
0020
,
0000
0100
0100
0130
,
0001
0010
0001
1000
,
0010
0000
0100
0000
,
1000
0010
1000
0001
,
0010
0000
0100
0000
,
1001
0000
0110
0000
,
0001
0100
0001
1000
,
1001
0000
0010
1000
,
0100
0000
0010
0001
,
0100
0100
0010
0010
,
1000
0001
1000
0001
,
0001
0010
1000
0100
,
0001
0010
1000
0100
,
0010
0010
0100
0100
,
0001
1000
0001
1000
,
1000
0010
0001
0100
,
1000
0010
0001
0100
,
0010
0010
0100
0100
,
1000
0001
1000
0001
,
0100
1000
0020
0000
,
0000
0000
0000
0000
,
0030
0000
0000
0000
;
