#TITLE:MY LOVE;
#SUBTITLE:;
#ARTIST:FLORENCE + THE MACHINE;
#TITLETRANSLIT:;
#SUBTITLETRANSLIT:;
#ARTISTTRANSLIT:;
#GENRE:;
#CREDIT:;
#BANNER:MY LOVE.png;
#BACKGROUND:MY LOVE - bg.png;
#LYRICSPATH:;
#CDTITLE:;
#MUSIC:MY LOVE.ogg;
#OFFSET:-0.550000;
#SAMPLESTART:72.026527;
#SAMPLELENGTH:12.000000;
#LASTBEATHINT:216.000000;
#SELECTABLE:YES;
#BPMS:0.000000=122.000000
;
#STOPS:
;
#BGCHANGES:-1.250=MY LOVE.avi=1.000=1=0=0=StretchNoLoop==CrossFade==,
216.000=MY LOVE - bg.png=1.000=1=0=1===CrossFade==,
99999=-nosongbg-=1.000=0=0=0 // don't automatically add -songbackground-
;
#KEYSOUNDS:;
#ATTACKS:;

//---------------dance-single - ----------------
#NOTES:
     dance-single:
     :
     Hard:
     7:
     0.413547,0.438440,0.187368,0.215473,0.182683,309.000000,289.000000,20.000000,23.000000,0.000000,0.000000,0.413547,0.438440,0.187368,0.215473,0.182683,309.000000,289.000000,20.000000,23.000000,0.000000,0.000000:
0000
0000
0000
0000
,
0000
0000
0000
0000
,
0000
0000
0000
0000
,
0000
0000
0000
0000
,
1000
0000
0000
0001
0000
0000
0100
0000
0000
0000
0010
0000
0000
0100
0000
0000
,
0001
0000
0000
1000
0000
0000
0100
0000
0000
0000
0010
0000
0000
0100
0000
0000
,
1000
0000
0000
0010
0000
0000
1000
0000
0000
0000
0001
0000
0000
0100
0000
0000
,
0001
0000
0000
0010
0000
0000
0001
0000
0000
0000
1000
0000
0000
0100
0000
0000
,
0010
0000
0000
0001
0000
0000
1000
0000
0000
0000
0010
0000
0000
0100
0000
0000
,
0010
0000
0000
1000
0000
0000
0001
0000
0000
0000
0010
0000
0000
0100
0000
0000
,
1000
0000
0000
0001
0000
0000
0100
0000
0000
0000
0001
0000
0000
0010
0000
0000
,
0001
1000
0100
0010
0002
0000
0000
0000
,
0103
0000
0010
1000
0100
0000
0100
1000
,
0002
0000
0000
0000
0003
0000
0010
0001
,
0100
0000
0100
0001
1000
0000
0010
1000
,
0010
0000
0100
0000
0001
0000
0010
0000
0001
0100
0010
0000
1000
0000
1000
0000
,
0100
0000
0010
0001
1000
0000
0010
0100
,
0001
0000
0000
0000
0000
0010
0000
0000
0000
0001
0000
0000
0000
1000
0000
0000
0000
0000
0100
0000
0000
0000
0000
0000
,
2000
0000
0000
3000
,
0000
0001
0010
0100
0110
0000
1001
0001
,
0101
0000
0000
0001
0100
0010
1000
0002
,
0010
0013
0011
1200
,
1300
0000
1000
0010
0100
0000
0110
0000
,
1001
0000
0000
0000
0110
0000
0000
0000
0001
0010
0100
0000
1000
0000
1000
0000
,
0010
0000
1000
0001
0100
0010
1000
0002
,
0010
0013
0011
1200
,
1300
0000
0000
0001
0000
0000
1000
0000
0000
0000
0100
0000
0000
0010
0000
0000
,
0001
0000
0000
1000
0000
0000
0001
0000
0000
0000
0100
0000
0010
0000
1000
0001
,
0010
0000
0000
0000
0100
0000
0010
0000
0002
0000
0000
0000
0103
0000
0010
0100
,
0002
0000
0000
0000
0103
0000
0010
0000
2000
0000
0000
0000
3100
0000
0010
0100
,
2000
0000
0000
0000
3100
0000
0010
0000
0002
0000
0000
0000
0103
0000
0010
0100
,
0002
0000
1003
0000
0010
1000
0010
1000
,
0001
0000
0000
0000
0100
0000
0010
0000
2000
0000
0000
0000
3100
0000
0010
0100
,
2000
0000
0000
0000
3100
0000
0010
0000
0002
0000
0000
0000
0103
0000
0010
0100
,
0002
0000
0000
0000
0103
0000
0010
0000
2000
0000
0000
0000
3100
0000
0010
0100
,
2000
0000
3000
0000
0110
0000
1001
1000
,
1100
0000
0000
1000
0100
0010
0001
2000
,
0010
3010
1010
0201
,
0301
0000
0001
0010
0100
0000
0110
0000
,
1001
0000
0000
0000
0110
0000
0000
0000
1000
0010
0100
0000
0001
0000
0001
0000
,
0010
0000
0001
1000
0100
0010
0001
2000
,
0010
3010
1010
0201
,
0301
0000
0000
1000
0000
0000
0001
0000
0000
0000
0100
0000
0000
0010
0000
0000
,
0100
0000
0000
0001
0000
0000
1000
0000
0000
0000
0100
0000
0010
0000
0001
1000
,
0010
0000
0000
0000
0010
0000
1000
0000
0001
0000
0010
0000
0100
0000
1000
0100
,
0010
0000
0000
0000
0010
0000
0001
0000
1000
0000
0010
0000
0100
0000
0001
0100
,
0010
0000
0010
1000
0001
0010
0100
0010
,
0001
0000
0010
0000
0100
0000
1000
0000
0001
0000
0010
0000
0100
0000
1000
0001
,
0010
0000
0000
0000
0010
0000
0001
0000
1000
0000
0010
0000
0100
0000
0001
0100
,
0010
0000
0000
0000
0010
0000
1000
0000
0001
0000
0010
0000
0100
0000
1000
0100
,
0010
0000
0010
0001
1000
0010
0100
0010
,
1000
0000
0010
0000
0100
0000
0001
0000
1000
0000
0010
0000
0100
0000
0001
1000
,
0010
0000
0000
0000
;

//---------------dance-single - ----------------
#NOTES:
     dance-single:
     :
     Medium:
     5:
     0.315848,0.341009,0.131157,0.121789,0.000000,236.000000,222.000000,14.000000,13.000000,0.000000,0.000000,0.315848,0.341009,0.131157,0.121789,0.000000,236.000000,222.000000,14.000000,13.000000,0.000000,0.000000:
0000
0000
0000
0000
,
0000
0000
0000
0000
,
0000
0000
0000
0000
,
0000
0000
0000
0000
,
1000
0100
0001
0010
,
0001
0100
1000
0000
0010
0000
1000
0000
,
0001
0100
1000
0010
,
1000
0100
0001
0000
0010
0000
0001
0000
,
1000
0010
0001
0100
,
0001
0010
1000
0000
0100
0000
1000
0000
,
0001
0010
1000
0100
,
1000
0010
0001
0010
0200
0000
0000
0000
,
0300
0000
0001
0010
0100
0000
1000
0010
,
0200
0000
0000
0000
0300
0000
0001
0100
,
0020
0000
0000
0000
0030
0000
1000
0100
,
0010
0000
0001
0010
0001
0010
0001
0100
,
0002
0000
0000
0000
0003
0000
1000
0010
,
0100
0000
0001
0000
1000
0100
0010
0000
,
0002
0000
0000
0003
,
0000
1000
0100
0010
0001
0000
0110
0000
,
1001
0000
0000
0000
1000
0001
0100
0000
,
0010
0010
2000
0002
,
3003
0000
0001
1000
0100
0000
0100
0000
,
1000
0000
0010
0000
0100
0001
0100
0010
,
0100
0000
1001
0000
0010
0001
1000
0000
,
0010
0100
0110
1001
,
1000
0100
0001
0010
,
1000
0100
0001
0000
1000
0100
0001
0000
,
1001
0000
0000
0001
0010
0000
0000
0010
,
0100
0000
0000
0100
1000
0000
0000
1000
,
0010
0000
0000
0010
0100
0000
0000
0100
,
0002
0000
0000
0000
1003
0000
0010
0100
,
0001
0000
0000
1000
0010
0000
0000
0010
,
0100
0000
0000
0100
0001
0000
0000
0001
,
0010
0000
0000
0010
0100
0000
0000
0100
,
2000
3000
1001
0110
,
1001
0000
0000
0000
1000
0001
0100
0000
,
0010
0010
2000
0002
,
3003
0000
1000
0001
0100
0000
0100
0000
,
0001
0000
0010
0000
0100
1000
0100
0010
,
0100
0000
1001
0000
0010
1000
0001
0000
,
0010
0100
0110
1001
,
0001
0100
1000
0010
,
0001
0100
1000
0000
0001
0100
1000
0000
,
1001
0000
1000
0010
0100
0000
0100
0001
,
0010
0000
0010
0001
1000
0000
1000
0100
,
0010
0000
0010
0001
0100
0000
0100
0010
,
2000
0000
0001
0000
3001
0010
0100
1000
,
0001
0000
0001
0010
0100
0000
0100
1000
,
0010
0000
0010
1000
0001
0000
0001
0100
,
0010
0000
0010
1000
0100
0000
0100
0010
,
0002
0000
1000
0000
1003
0010
0100
0001
,
1001
0000
0000
0000
;

//---------------dance-single - ----------------
#NOTES:
     dance-single:
     :
     Easy:
     3:
     0.190044,0.267936,0.074947,0.177999,0.000000,142.000000,134.000000,8.000000,19.000000,0.000000,0.000000,0.190044,0.267936,0.074947,0.177999,0.000000,142.000000,134.000000,8.000000,19.000000,0.000000,0.000000:
// measure 0
0000
0000
0000
0000
,  // measure 1
0000
0000
0000
0000
,  // measure 2
0000
0000
0000
0000
,  // measure 3
0000
0000
0000
0000
,  // measure 4
0010
0000
1000
0000
,  // measure 5
0100
1000
0001
0000
,  // measure 6
0010
0000
0001
0000
,  // measure 7
0100
0001
1000
0000
,  // measure 8
0100
0000
1000
0000
,  // measure 9
0010
1000
0001
0000
,  // measure 10
0100
0000
0001
0000
,  // measure 11
0010
0001
2000
0000
,  // measure 12
3000
0001
1000
0001
,  // measure 13
0200
0000
0300
0000
,  // measure 14
0010
0000
0000
1000
,  // measure 15
0001
1000
0200
0000
,  // measure 16
0020
0330
0100
1000
,  // measure 17
0002
0000
0013
0100
,  // measure 18
0020
0000
0000
0000
,  // measure 19
0002
0000
0000
0033
,  // measure 20
1001
0000
0001
0001
,  // measure 21
1000
0100
0020
0002
,  // measure 22
0033
0010
0001
0100
,  // measure 23
0010
1000
0001
0010
,  // measure 24
0100
0000
1000
1000
,  // measure 25
0001
0010
0200
2000
,  // measure 26
3300
0000
1000
0000
,  // measure 27
0001
0000
0010
0000
,  // measure 28
1001
0000
0001
0001
,  // measure 29
0001
0000
1000
1000
,  // measure 30
1000
0000
0020
0000
,  // measure 31
0200
0330
0001
1000
,  // measure 32
0001
0000
1000
1000
,  // measure 33
1000
0000
0001
0001
,  // measure 34
0001
0000
0200
0000
,  // measure 35
0020
0330
1001
0110
,  // measure 36
1001
0000
1000
1000
,  // measure 37
0001
0010
0200
2000
,  // measure 38
3300
0100
1000
0010
,  // measure 39
0100
0001
1000
0100
,  // measure 40
0010
0000
0001
0001
,  // measure 41
1000
0100
0020
0002
,  // measure 42
0000
0000
0000
0033
,  // measure 43
0001
0000
0010
0100
,  // measure 44
0110
0000
0010
0001
,  // measure 45
0100
0000
0010
1000
,  // measure 46
0100
0000
0010
0001
,  // measure 47
0100
1000
0010
0001
,  // measure 48
1001
0000
0010
1000
,  // measure 49
0100
0000
0010
0001
,  // measure 50
0100
0000
0010
1000
,  // measure 51
0100
0001
0010
1000
,  // measure 52
1001
0000
0000
0000
;
