#TITLE:MAN! I FEEL LIKE A WOMAN!;
#SUBTITLE:;
#ARTIST:SHANIA TWAIN;
#TITLETRANSLIT:;
#SUBTITLETRANSLIT:;
#ARTISTTRANSLIT:;
#GENRE:;
#CREDIT:;
#BANNER:MAN! I FEEL LIKE A WOMAN!.png;
#BACKGROUND:MAN! I FEEL LIKE A WOMAN! - bg.png;
#LYRICSPATH:;
#CDTITLE:;
#MUSIC:MAN! I FEEL LIKE A WOMAN!.ogg;
#OFFSET:-0.322000;
#SAMPLESTART:46.641991;
#SAMPLELENGTH:12.000000;
#SELECTABLE:YES;
#BPMS:0.000000=124.999992
;
#STOPS:5.500000=0.960000,
59.500000=0.480000,
169.000000=2.480000
;
#BGCHANGES:-0.750=MAN! I FEEL LIKE A WOMAN!.avi=1.000=1=0=1===CrossFade==,
193.000=MAN! I FEEL LIKE A WOMAN! - bg.png=1.000=0=0=1===CrossFade_Faster==,
99999=-nosongbg-=1.000=0=0=0 // don't automatically add -songbackground-
;
#KEYSOUNDS:;
#ATTACKS:;

//---------------dance-single - ----------------
#NOTES:
     dance-single:
     :
     Hard:
     8:
     0.479214,0.488984,0.369303,0.153876,0.733476,327.000000,291.000000,36.000000,15.000000,0.000000,0.000000,0.479214,0.488984,0.369303,0.153876,0.733476,327.000000,291.000000,36.000000,15.000000,0.000000,0.000000:
// measure 0
0000
0000
0000
0000
,  // measure 1
0000
0000
0000
0000
0000
1000
0000
0000
1000
0000
0000
0010
,  // measure 2
0000
0000
0010
0000
0000
1000
0000
0000
1000
0000
0000
0001
,  // measure 3
0000
0000
0001
1000
0000
0000
0001
0000
0001
0100
0000
0000
,  // measure 4
0001
0000
0000
1001
0000
0000
1000
0000
1000
0100
0000
0000
,  // measure 5
1000
0000
0000
1001
0000
0000
0001
0000
0001
0010
0000
0010
,  // measure 6
0100
0000
0000
1001
0000
0000
1000
0000
1000
0010
0000
0010
,  // measure 7
0100
0000
0000
1001
0000
0000
0010
0000
0010
0100
0000
0100
,  // measure 8
1000
0000
1000
0000
0000
0002
0000
0000
0000
0013
0100
0010
,  // measure 9
0100
0000
0000
0011
0000
0000
0100
0000
0100
1000
0000
1000
,  // measure 10
0001
0000
0000
1010
0000
0000
0100
0000
0100
0001
0000
0001
,  // measure 11
1000
0000
0000
1001
0000
0000
0100
0000
0100
1000
0000
1000
,  // measure 12
0000
0000
0001
0100
0000
0200
0000
0000
0300
0001
1000
0001
,  // measure 13
1000
0000
0000
0000
0000
0011
0000
0000
0011
0000
0000
0001
,  // measure 14
0100
0000
0000
0100
0000
1001
0000
0000
1001
0000
0000
0100
,  // measure 15
0010
0000
1000
0000
0000
0001
0010
0000
0001
0010
0000
0100
,  // measure 16
0000
0000
1001
0000
0000
1000
0010
0000
1000
0010
0000
0100
,  // measure 17
0000
0000
1001
0000
0000
0100
1000
0000
0100
0000
0000
0010
,  // measure 18
0001
0000
0020
0000
0000
0030
0001
0100
0001
0100
0000
0000
,  // measure 19
0110
0000
0000
1000
0000
0100
1000
0000
0100
1000
0000
0000
,  // measure 20
1001
0000
0000
0001
0000
0100
0001
0000
0100
0001
0000
0000
,  // measure 21
1001
0000
0000
0100
0000
0100
0010
0000
0010
1000
0000
1000
,  // measure 22
0001
0000
0002
0000
0000
0000
0013
0100
0010
0100
0000
0000
,  // measure 23
1100
0000
0000
1000
0000
1000
0001
0000
0001
1000
0000
1000
,  // measure 24
0010
0000
0010
0100
0000
0100
0001
0000
0000
1010
0000
0000
,  // measure 25
0101
0000
0000
1000
0000
1000
0100
0000
0100
1000
0000
1000
,  // measure 26
0001
0000
0001
0010
0000
0010
0001
0000
0001
0100
0010
0100
,  // measure 27
0010
0100
0010
1000
0000
1000
0001
0000
0001
1000
0000
1000
,  // measure 28
0010
0000
0010
0100
0000
0100
0001
0010
0001
0010
0000
0000
,  // measure 29
0220
0000
0000
0330
0000
0100
1000
0010
1000
0010
0000
0000
,  // measure 30
0220
0330
1100
0101
,  // measure 31
1100
0000
0000
0101
0000
0000
1000
0000
1000
0001
0000
0001
,  // measure 32
0010
0000
0010
0001
0000
0001
1000
0010
1000
0010
0000
0000
,  // measure 33
0110
0000
0010
1000
0000
1000
0001
0000
0001
1000
0000
1000
,  // measure 34
0100
0000
0100
1000
0000
0000
1001
0000
1000
0010
0000
0010
,  // measure 35
0100
0000
0100
0001
0000
0001
1000
0010
1000
0010
0000
0000
,  // measure 36
0220
0000
0000
0330
0000
0000
0001
0010
0001
0010
0000
0000
,  // measure 37
0220
0000
0000
0330
0000
0000
1000
0001
1000
0001
0000
0000
,  // measure 38
0100
0001
0100
0001
0000
0000
1000
0000
1000
0010
0000
0010
,  // measure 39
1000
0000
1000
0001
0000
0001
0010
0100
0010
0200
0000
0000
,  // measure 40
1300
0000
1000
0100
0000
0100
0010
0000
0010
0001
0000
0001
,  // measure 41
0100
0000
0020
0000
0000
0200
0000
0000
0000
0000
0000
0000
,  // measure 42
0330
0000
0000
1001
0000
1010
0000
0000
1010
0000
0000
0100
,  // measure 43
0010
0000
0000
0010
0000
0011
0000
0000
0011
0000
0000
0001
,  // measure 44
0100
0000
0100
0001
0000
0001
1000
0000
1000
0010
0000
0010
,  // measure 45
1000
0000
1000
0001
0000
0001
0010
0000
0010
0001
0000
0001
,  // measure 46
1000
0000
1000
0100
0000
0100
1000
0000
1000
0001
0000
0001
,  // measure 47
0100
0010
0100
0010
0000
0110
0000
0000
0110
0000
0000
0000
;

//---------------dance-single - ----------------
#NOTES:
     dance-single:
     :
     Medium:
     4:
     0.301890,0.342887,0.543696,0.307752,0.000000,206.000000,153.000000,53.000000,30.000000,0.000000,0.000000,0.301890,0.342887,0.543696,0.307752,0.000000,206.000000,153.000000,53.000000,30.000000,0.000000,0.000000:
0000
0000
0000
0000
,
0000
0000
2000
0000
,
0100
3100
0002
0000
,
0100
0103
0001
0011
,
1000
1010
0001
0011
,
1000
1010
1000
2000
,
3001
0000
0100
0200
,
0310
0000
0001
0100
,
0001
1000
0020
0000
,
0200
0330
0001
0002
,
1003
0000
0010
0020
,
0130
0000
1000
0010
,
1000
0001
0200
0000
,
0020
0330
2002
3003
,
0220
0330
1001
1001
,
0000
0001
0002
0100
,
0100
1003
2000
0100
,
0100
3001
0010
0100
,
1000
1001
0110
1001
,
0000
1000
2000
0100
,
0100
3001
0002
0100
,
0100
1003
0100
0010
,
0001
1001
0110
2002
,
3003
1000
0100
0010
,
0001
0010
0100
0110
,
1001
0001
0100
0010
,
1000
1100
0011
1100
,
0011
0000
0000
0001
,
0010
0011
1000
1100
,
1001
0000
0001
0101
,
1001
0000
1100
0101
,
1100
0101
0000
1000
,
0001
1001
0001
0010
,
0100
1000
1000
0010
,
0100
2002
3003
1000
,
0001
1001
0001
0101
,
0101
0000
1000
1100
,
1100
0000
0101
1100
,
0101
1100
0000
0001
,
1000
1001
1000
0010
,
0100
0001
0001
0010
,
0100
2002
0000
0000
,
3003
0110
0002
0000
,
2000
3003
1001
1001
,
0110
0110
2000
0000
,
0002
3003
1001
1001
,
0110
0110
0002
0000
,
2000
3003
0110
0110
;

//---------------dance-single - ----------------
#NOTES:
     dance-single:
     :
     Easy:
     2:
     0.189048,0.269411,0.184651,0.297494,0.000000,129.000000,111.000000,18.000000,29.000000,0.000000,0.000000,0.189048,0.269411,0.184651,0.297494,0.000000,129.000000,111.000000,18.000000,29.000000,0.000000,0.000000:
0000
0000
0000
0000
,
0000
0000
2000
0000
,
3000
0000
0002
0000
,
0003
0000
1000
0100
,
0010
0000
0001
0100
,
0010
0000
1000
0000
,
0010
0000
1000
0000
,
0001
0000
0100
0100
,
0010
0010
2000
0000
,
3000
0000
0001
0000
,
0010
0000
0001
0000
,
1000
0000
0100
0100
,
0010
0010
0002
0000
,
0003
0000
0200
0300
,
0020
0030
0110
0110
,
0000
0001
0000
0100
,
0000
0001
0000
1000
,
0000
0010
0010
0100
,
0100
2002
0000
3003
,
0000
1000
0000
0100
,
0000
1000
0000
0001
,
0000
0010
0010
0100
,
0100
2002
0000
3003
,
0000
0010
0000
1000
,
0000
0100
0000
0001
,
0000
0010
0000
0001
,
0000
0100
1000
0010
,
1001
0000
0000
0001
,
1000
1001
0000
0200
,
0020
0330
0000
0020
,
0200
0330
1001
1001
,
0110
0110
0000
0002
,
0000
2000
3003
1000
,
0100
0010
0001
0100
,
0010
1000
0000
1000
,
0001
1001
0000
0020
,
0200
0330
0000
0200
,
0020
0330
1000
0100
,
0010
0001
0000
2000
,
0000
0002
3003
0001
,
0100
0010
1000
0100
,
0010
0002
0000
0003
,
0000
1001
2000
3000
,
0002
0003
1001
1001
,
0000
0000
0020
0030
,
0200
0300
0110
0110
,
0000
0000
0002
0003
,
2000
3000
1001
1001
;
