#TITLE:LIFETIME;
#SUBTITLE:;
#ARTIST:ROMY;
#TITLETRANSLIT:;
#SUBTITLETRANSLIT:;
#ARTISTTRANSLIT:;
#GENRE:;
#CREDIT:;
#BANNER:LIFETIME.png;
#BACKGROUND:LIFETIME - bg.png;
#LYRICSPATH:;
#CDTITLE:;
#MUSIC:LIFETIME.ogg;
#OFFSET:-0.318000;
#SAMPLESTART:59.294998;
#SAMPLELENGTH:12.000000;
#LASTBEATHINT:224.000000;
#SELECTABLE:YES;
#BPMS:0.000000=128.018005
;
#STOPS:
;
#BGCHANGES:-0.500=LIFETIME.avi=1.000=1=0=0=StretchNoLoop==CrossFade==,
222.000=LIFETIME - bg.png=1.000=1=0=1===CrossFade==,
99999=-nosongbg-=1.000=0=0=0 // don't automatically add -songbackground-
;
#KEYSOUNDS:;
#ATTACKS:;

//---------------dance-single - ----------------
#NOTES:
     dance-single:
     :
     Hard:
     8:
     0.482778,0.485099,0.037137,0.102126,0.297094,364.000000,360.000000,4.000000,11.000000,0.000000,0.000000,0.482778,0.485099,0.037137,0.102126,0.297094,364.000000,360.000000,4.000000,11.000000,0.000000,0.000000:
0000
0000
0000
0000
,
0000
0000
0000
0000
,
0010
0000
0010
1000
0001
0000
0001
0000
,
0010
0001
1000
0010
0100
0000
1001
0000
,
0010
0000
0010
0001
1000
0000
1000
0000
,
0010
1000
0001
0010
0200
0000
0000
0000
,
1300
0000
0000
0100
0000
0000
1000
0000
0001
0000
0000
0100
0000
0000
0001
0000
,
1000
0000
0000
0010
0000
0000
1000
0000
0001
0000
0000
0010
0000
0000
0001
0000
,
0100
0000
0100
0001
0010
0000
0010
0001
,
0100
0000
0010
0000
0110
0000
0010
1000
,
0001
0000
0010
0001
1000
0000
0100
0010
,
0002
0000
0023
0000
0230
0000
1300
0001
,
0010
0000
0000
0010
0100
0000
1000
0000
0010
0000
0000
0010
0100
0000
0001
0000
,
0010
0000
0000
0010
0100
0000
1000
0000
0010
0000
0000
0100
0000
0000
0010
0000
,
1000
0000
0000
1000
0010
0000
0100
0000
0001
0000
0000
0001
0010
0000
0100
0000
,
1000
0000
0000
1000
0010
0000
0100
0000
0001
0000
0000
0100
0000
0100
0001
0010
,
0100
0000
0100
1000
0010
0000
0010
1000
,
0100
0000
0010
0000
0110
0000
0010
0001
,
1000
0000
0010
1000
0001
0000
0010
0100
,
2000
0000
3200
0000
0320
0000
0031
1000
,
0010
0000
0000
0010
0100
0000
0001
0000
0010
0000
0000
0010
0100
0000
1000
0000
,
0010
0000
0000
0010
0100
0000
0001
0000
1000
0000
0000
0010
0000
0000
1000
0000
,
0001
0000
0000
0001
0100
0000
0010
0000
1000
0000
0000
1000
0100
0000
0010
0000
,
0001
0000
0000
0001
0100
0000
0010
0000
0200
0000
0000
0000
0000
0000
0000
0000
,
0301
0010
0001
0010
0001
0100
0001
0000
,
1000
0010
1000
0010
1000
0100
1000
0000
,
0010
0100
0010
0100
0010
0001
0010
1000
,
0010
0000
1001
0000
0010
0000
1000
0001
,
0010
0000
0000
0010
0100
0000
1000
0000
0010
0000
0000
0010
0100
0000
0001
0000
,
0010
0000
0000
0010
0100
0000
1000
0000
0010
0000
0000
0010
0100
0000
0001
0000
,
1000
0000
0000
0010
0000
0000
1000
0000
0001
0000
0000
0010
0000
0000
0001
0000
,
0200
0000
0000
0000
,
0301
0010
0100
1000
0001
0010
0100
1000
,
0010
0000
0000
0010
1000
0000
0000
1000
0001
0000
0000
0001
0100
0000
0000
0100
,
0001
0010
0100
1000
0001
0010
0100
1000
,
0001
0000
0000
0001
0100
0000
0000
0100
0010
0000
0000
0010
1000
0000
0000
1000
,
0001
0010
0100
1000
0001
0010
0100
1000
,
0010
0000
0000
0010
1000
0000
0000
1000
0001
0000
0000
0001
0100
0000
0000
0100
,
0001
0010
0100
1000
0001
0010
0100
1000
,
0001
0000
0000
0001
0100
0000
0000
0100
0010
0000
0000
0010
1000
0000
0000
1000
,
0001
0010
0100
1000
0001
0010
0100
1000
,
0001
0000
1000
0010
1000
0000
0100
0000
0010
0000
0001
0100
0001
0000
0010
0000
,
0001
0010
0100
1000
0001
0010
0100
1000
,
0001
0000
1000
0100
1000
0000
0010
0000
0100
0000
0001
0010
0001
0000
0100
0000
,
0001
0010
0100
1000
0001
0010
0100
1000
,
0001
0000
1000
0010
1000
0000
0100
0000
0010
0000
0001
0100
0001
0000
0010
0000
,
0001
0010
0100
1000
0001
0010
0100
1000
,
0001
0000
1000
0100
1000
0000
0010
0000
0100
0000
0001
0010
0001
0000
0100
0000
,
0001
0000
0000
0010
0000
0000
0001
0000
1000
0000
0000
0010
0000
0000
1000
0000
,
0001
0000
0000
0100
0000
0000
0001
0000
1000
0000
0000
0100
0000
0100
1000
0010
,
0100
0000
0000
0100
0000
0000
0100
0000
0010
0000
0000
0010
0000
0000
0010
0000
,
1000
0000
0000
1000
0000
0000
1000
0000
0001
0000
0000
0001
0000
0000
0001
0000
,
1000
0000
0000
0010
0000
0000
1000
0000
0001
0000
0000
0010
0000
0000
0001
0000
,
1000
0000
0000
0100
0000
0000
1000
0000
0002
0000
0000
0000
0000
0000
0000
0000
,
0000
0200
0000
0000
0000
0000
0000
0000
,
0303
0000
0000
0000
;

//---------------dance-single - ----------------
#NOTES:
     dance-single:
     :
     Medium:
     5:
     0.328926,0.382973,0.092842,0.129979,0.000000,248.000000,238.000000,10.000000,14.000000,0.000000,0.000000,0.328926,0.382973,0.092842,0.129979,0.000000,248.000000,238.000000,10.000000,14.000000,0.000000,0.000000:
0000
0000
0000
0000
,
0000
0000
0000
0000
,
1000
0000
1000
0100
0010
0000
0010
0000
,
0001
0000
0001
0100
0010
0000
0000
0000
,
1000
0000
1000
0010
0100
0000
0100
0000
,
0001
0000
0001
0010
0200
0000
0000
0000
,
0310
1001
0100
1001
,
0010
1001
0100
1001
,
0010
0000
1000
0100
0010
0000
0000
0001
,
0100
0000
0010
0000
0110
0000
0000
0010
,
0100
0000
0001
0010
0100
0000
0000
1000
,
0100
0000
0010
0000
0001
0000
0100
0010
,
1000
0000
0000
1000
0100
0000
0000
0100
,
0010
0000
0000
0010
0001
0000
0000
0001
,
0100
0000
0000
0100
0010
0000
0000
0010
,
1000
0000
0001
0000
0010
0000
0001
1000
,
0010
0000
0100
0001
0100
0000
0001
0010
,
0001
0000
1000
0000
1001
0000
0100
1000
,
0100
0000
1000
0010
1000
0000
0001
0000
,
1001
0000
0110
0000
1001
0000
0010
0100
,
0001
0000
0000
0001
0010
0000
0000
0010
,
0100
0000
0000
0100
1000
0000
0100
1000
,
0010
0000
0000
0010
0100
0000
0000
0100
,
0001
0000
0200
0000
,
0301
0000
0001
0010
0100
0000
0010
0000
,
0001
0100
0010
0000
1000
0100
0010
0000
,
0001
0010
0001
0000
1000
0100
1000
0100
,
0000
0000
0000
0000
0010
0000
0010
0100
,
0020
0000
0000
0200
0000
0000
0000
0000
,
0000
0330
1001
0000
,
1000
0000
0010
1000
0100
0000
0010
0001
,
0200
0000
0000
0000
,
0301
0010
0001
0100
0001
0000
0001
0000
,
1000
0010
1000
0100
1000
0000
1000
0000
,
0001
0010
0001
0100
0001
0000
0001
0000
,
1000
0010
1000
0100
1000
0000
1000
0000
,
0001
0010
0001
1000
0001
0000
0001
0000
,
1000
0010
1000
0001
1000
0000
1000
0000
,
0001
0100
0001
1000
0001
0000
0001
0000
,
1000
0010
1000
0001
1000
0000
1000
0000
,
0001
0010
0001
1000
0010
0000
0010
0000
,
1000
0010
1000
0001
0010
0000
0010
0000
,
0001
0010
0001
1000
0010
0000
0010
0000
,
1000
0010
1000
0001
0010
0000
0010
0000
,
0001
0100
0001
1000
0100
0000
0100
0000
,
1000
0100
1000
0001
0100
0000
0100
0000
,
0001
0010
0100
1000
0002
0000
0000
2000
,
0000
0000
3003
0000
0001
0000
0001
0010
,
0200
0000
0020
0000
,
0000
0330
2000
0000
,
3010
0010
0100
0100
,
0001
0000
0001
0000
1000
0000
1000
0010
,
0200
0000
0020
0000
,
0330
0000
2000
0000
,
0000
0200
0000
0000
0000
0000
0000
0000
,
3300
0000
0000
0000
;

//---------------dance-single - ----------------
#NOTES:
     dance-single:
     :
     Easy:
     2:
     0.184357,0.229784,0.055705,0.157831,0.000000,139.000000,133.000000,6.000000,17.000000,0.000000,0.000000,0.184357,0.229784,0.055705,0.157831,0.000000,139.000000,133.000000,6.000000,17.000000,0.000000,0.000000:
// measure 0
0000
0000
0000
0000
,  // measure 1
0000
0000
0000
0000
,  // measure 2
1000
0000
0001
0000
,  // measure 3
0100
0100
0100
0000
,  // measure 4
0001
0000
1000
0000
,  // measure 5
0100
0100
0200
0000
,  // measure 6
0310
0000
0010
0000
,  // measure 7
0100
0000
0100
0000
,  // measure 8
1000
1000
1000
0000
,  // measure 9
0001
0001
0001
0000
,  // measure 10
0010
0000
0100
0000
,  // measure 11
0010
0001
0100
0000
,  // measure 12
0010
0000
1000
0000
,  // measure 13
0100
0000
0001
0000
,  // measure 14
0010
0000
0001
0000
,  // measure 15
0100
0000
1000
0000
,  // measure 16
0001
0001
0001
0000
,  // measure 17
1000
1000
1000
0000
,  // measure 18
0010
0000
0100
0000
,  // measure 19
0010
1000
0100
0000
,  // measure 20
1001
0000
1001
0000
,  // measure 21
0001
0000
0000
0000
,  // measure 22
1001
0000
1001
0000
,  // measure 23
1000
0000
0200
0000
,  // measure 24
0310
0010
0010
0000
,  // measure 25
0001
0001
0001
0000
,  // measure 26
1000
1000
1000
0000
,  // measure 27
1001
0000
0200
0300
,  // measure 28
0020
0030
0200
0300
,  // measure 29
0020
0030
2002
3003
,  // measure 30
0001
0000
1000
0000
,  // measure 31
0200
0000
0000
0300
,  // measure 32
0010
0010
0001
0001
,  // measure 33
1000
0001
1000
0000
,  // measure 34
0010
0010
1000
1000
,  // measure 35
0001
1000
0001
0000
,  // measure 36
0010
0010
0001
0001
,  // measure 37
1000
0001
1000
0000
,  // measure 38
0010
0010
1000
1000
,  // measure 39
0001
1000
0001
0000
,  // measure 40
0100
0001
0100
0000
,  // measure 41
0010
1000
0010
0000
,  // measure 42
1000
0100
1000
0000
,  // measure 43
0001
0010
0001
0000
,  // measure 44
0100
0010
0100
0000
,  // measure 45
0001
1000
0001
0000
,  // measure 46
0010
0100
0010
0100
,  // measure 47
1000
0001
1000
0001
,  // measure 48
2000
0000
0002
0000
,  // measure 49
3003
0000
0200
0000
,  // measure 50
0020
0000
0000
0000
,  // measure 51
0330
0000
0001
1000
,  // measure 52
0002
0000
2000
0000
,  // measure 53
3003
0000
0200
0000
,  // measure 54
0020
0000
0000
0000
,  // measure 55
0330
0000
0000
0000
;
