#TITLE:LATE NIGHT TALKING;
#SUBTITLE:;
#ARTIST:HARRY STYLES;
#TITLETRANSLIT:;
#SUBTITLETRANSLIT:;
#ARTISTTRANSLIT:;
#GENRE:;
#CREDIT:;
#BANNER:LATE NIGHT TALKING.png;
#BACKGROUND:LATE NIGHT TALKING-bg.png;
#LYRICSPATH:;
#CDTITLE:;
#MUSIC:LATE NIGHT TALKING.ogg;
#OFFSET:-0.308000;
#SAMPLESTART:40.958385;
#SAMPLELENGTH:12.000000;
#SELECTABLE:YES;
#BPMS:0.000000=115.000000
;
#STOPS:
;
#BGCHANGES:-0.590=LATE NIGHT TALKING.avi=1.000=1=0=1===CrossFade==,
205.000=LATE NIGHT TALKING-bg.png=1.000=1=0=1===CrossFade==,
99999=-nosongbg-=1.000=0=0=0 // don't automatically add -songbackground-
;
#KEYSOUNDS:;
#ATTACKS:;

//---------------dance-single - ----------------
#NOTES:
     dance-single:
     :
     Hard:
     7:
     0.358360,0.399796,0.119453,0.266473,0.156208,273.000000,260.000000,13.000000,29.000000,0.000000,0.000000,0.358360,0.399796,0.119453,0.266473,0.156208,273.000000,260.000000,13.000000,29.000000,0.000000,0.000000:
0000
0000
0000
0000
,
0000
0000
0000
0000
,
0000
0000
0000
0000
,
0000
0000
0000
0000
,
0001
0000
1010
0000
1000
0100
0010
0100
,
1000
0001
2000
0000
0000
3010
0000
0010
,
1000
0000
0011
0000
0001
0100
0010
0100
,
0001
1000
0002
0000
0000
0013
0000
0010
,
0001
0000
1100
0000
1000
0010
0100
0010
,
1000
0001
1000
0000
0010
1000
0001
0010
,
0100
0100
0200
0000
0000
1300
0000
1000
,
1010
0000
1010
0000
0000
0011
0000
0011
,
1000
1000
0010
0010
0200
0000
0301
0001
,
0010
0010
0100
0100
1000
0001
0100
0001
,
0010
0000
0011
0000
0001
0100
0010
0100
,
0001
0000
0011
0000
1000
0001
0100
0000
,
0001
0001
0010
0010
0200
0000
1300
1000
,
0010
0010
0100
0100
0001
1000
0100
1000
,
0010
0000
1010
0000
1000
0100
0010
0100
,
1000
0000
1010
0000
0001
0010
0001
0100
,
0010
0000
0000
0000
0010
0000
0000
0000
2000
0000
0000
3001
0000
0000
0000
0000
,
0010
0000
0010
0000
0001
0100
0001
1000
0010
0000
0100
0000
0010
0000
1000
0000
,
0100
0000
0000
0000
0100
0000
0000
0000
2000
0000
0000
3001
0000
0000
0000
0000
,
0100
0000
0100
0000
0001
0010
0001
1000
0100
0000
0010
0000
0100
0000
1000
0000
,
0010
0000
0000
0000
0010
0000
0000
0000
2000
0000
0000
3001
0000
0000
0000
0000
,
1000
0000
0100
0000
0010
0000
0001
0000
1000
0000
0000
0001
0000
0000
0200
0000
,
0000
0000
0000
0000
,
0020
0000
0000
0330
,
0001
1000
0010
0000
1000
0001
0010
0000
,
0001
0000
1010
0000
0010
1000
0100
0000
,
1000
0001
0010
0000
0001
1000
0010
0000
,
1000
0000
0000
0100
0000
0000
0001
0000
0000
0100
0000
0000
2000
0000
0000
0000
,
3001
0000
0000
0100
0000
0000
1000
0000
0000
0100
0000
0000
0001
0000
0010
0000
,
0100
0000
0110
0000
1000
0100
0010
0001
,
2000
0000
0000
0000
0000
0000
0000
0000
3001
0000
0000
0001
0010
0000
0100
0000
,
1000
0010
1000
0010
1000
0100
0010
0001
,
0100
0000
0000
0000
0100
0000
0000
0000
0002
0000
0000
1003
0000
0000
0000
0000
,
0100
0000
0100
0000
1000
0010
1000
0001
0100
0000
0010
0000
0100
0000
0001
0000
,
0010
0000
0000
0000
0010
0000
0000
0000
0002
0000
0000
1003
0000
0000
0000
0000
,
0010
0000
0010
0000
1000
0100
1000
0001
0010
0000
0100
0000
0010
0000
0001
0000
,
0100
0000
0000
0000
0100
0000
0000
0000
0002
0000
0000
1003
0000
0000
0000
0000
,
0001
0000
0010
0000
0100
0000
1000
0000
0001
0000
0000
1000
0000
0000
0020
0000
,
0000
0000
0000
0000
,
0030
0000
0000
0000
,
2000
0000
0000
3010
0000
0000
0000
0000
0200
0000
0000
0301
0000
0000
0000
0000
,
0020
0000
0000
0130
0000
0000
1000
0000
0010
0000
0100
0000
0001
0000
0010
0000
,
0200
0000
0000
1300
0000
0000
0000
0000
0020
0000
0000
0130
0000
0000
0000
0000
,
0002
0000
0000
0013
0000
0000
1000
0000
0000
0010
0000
0000
0002
0000
0000
0000
,
0203
0000
0000
0310
0000
0000
0000
0000
2000
0000
0000
3100
0000
0000
0000
0000
,
0020
0000
0000
0031
0000
0000
1000
0000
0010
0000
0100
0000
0001
0000
0010
0000
,
0002
0000
0000
0103
0000
0000
0000
0000
0020
0000
0000
1030
0000
0000
0000
0000
,
0200
0000
0000
0310
0000
0000
0000
0000
0000
0000
0000
0000
0000
0000
0000
0000
;

//---------------dance-single - ----------------
#NOTES:
     dance-single:
     :
     Medium:
     5:
     0.296665,0.353192,0.110265,0.220529,0.000000,226.000000,214.000000,12.000000,24.000000,0.000000,0.000000,0.296665,0.353192,0.110265,0.220529,0.000000,226.000000,214.000000,12.000000,24.000000,0.000000,0.000000:
0000
0000
0000
0000
,
0000
0000
0000
0000
,
0000
0000
0000
0000
,
0000
0000
0000
0000
,
1000
0000
0100
0000
0010
0000
0001
0100
,
0001
0000
2000
0000
0000
0001
3000
0001
,
0100
0000
0100
0000
0010
0000
1000
0100
,
1000
0000
0002
0000
0003
1000
0000
1000
,
0010
0000
0010
0000
1000
0010
1000
0000
,
0100
1000
0100
0000
0010
0000
0001
0000
,
0100
0001
0020
0000
0000
0130
0000
1000
,
0001
0000
0001
0000
0000
0010
0000
0001
,
1000
0000
0010
1000
0100
0000
0010
0000
,
0001
1000
0100
0000
1000
0001
0100
0000
,
0002
0013
0100
1001
,
0010
0000
1001
0000
0020
0100
0130
0000
,
0001
0000
0010
0001
0100
0000
0010
0000
,
1000
0001
0100
0000
0001
1000
0100
0000
,
2000
3010
0100
1001
,
0010
0000
1001
0000
0100
0001
1000
0000
,
0010
0010
0200
0301
,
0010
0001
0100
0000
0010
1000
0010
1000
,
0100
0100
0020
0031
,
0100
0001
0010
0000
0100
1000
0100
1000
,
0020
1030
0002
0003
,
1000
0010
0100
0001
1000
0000
0100
0000
,
0020
0000
0000
0000
,
0200
0000
0000
0330
,
0001
0010
1000
0100
,
0001
0010
0100
0000
0010
0100
1000
0000
,
0001
0100
1000
0010
,
0001
0000
1000
0000
0001
0010
0200
0000
,
2000
0000
3300
0000
1000
0010
0100
0001
,
2000
0000
3001
0000
0001
0010
0100
1000
,
0002
0000
0013
0001
,
0110
0000
1001
0000
0100
1000
0001
0000
,
0010
0010
0200
1300
,
0010
1000
0100
0000
0010
0001
0010
0001
,
0100
0100
0020
1030
,
0100
1000
0010
0000
0100
0001
0100
0001
,
0020
0031
2000
3000
,
0001
0010
0100
1000
0001
0000
0100
0000
,
0020
0000
0000
0000
,
0030
0000
0000
0000
,
1000
0110
0001
0110
,
1000
0001
0100
0000
0001
0010
0100
1000
,
0001
0110
1000
0110
,
0001
0000
0010
0000
0100
1000
0001
0000
,
1000
0110
0001
0110
,
1000
0001
0010
0000
0001
0100
0010
1000
,
0200
0300
2000
3000
,
0002
0003
0000
0000
;

//---------------dance-single - ----------------
#NOTES:
     dance-single:
     :
     Easy:
     2:
     0.166710,0.235461,0.018377,0.220529,0.000000,127.000000,125.000000,2.000000,24.000000,0.000000,0.000000,0.166710,0.235461,0.018377,0.220529,0.000000,127.000000,125.000000,2.000000,24.000000,0.000000,0.000000:
// measure 0
0000
0000
0000
0000
,  // measure 1
0000
0000
0000
0000
,  // measure 2
0000
0000
0000
0000
,  // measure 3
0000
0000
0000
0000
,  // measure 4
1000
1000
0000
0000
,  // measure 5
0001
0001
0000
0000
,  // measure 6
0100
0100
0000
0000
,  // measure 7
0010
0010
0000
0000
,  // measure 8
1000
1000
0000
0000
,  // measure 9
0001
0001
0000
0000
,  // measure 10
1000
0100
0010
0001
,  // measure 11
1000
1000
0000
1001
,  // measure 12
0001
0001
0100
0100
,  // measure 13
0010
0010
1000
1000
,  // measure 14
0002
0003
0010
0000
,  // measure 15
0001
0000
0100
1001
,  // measure 16
1000
1000
0100
0100
,  // measure 17
0010
0010
0001
0001
,  // measure 18
2000
3000
0010
0000
,  // measure 19
1000
0000
0100
0000
,  // measure 20
0010
0010
0001
0001
,  // measure 21
2000
3000
0001
1000
,  // measure 22
0010
0010
1000
1000
,  // measure 23
0002
0003
0010
0010
,  // measure 24
0200
0000
0000
0300
,  // measure 25
1000
0100
0010
0001
,  // measure 26
0200
0000
0000
0000
,  // measure 27
0020
0000
0000
0330
,  // measure 28
0001
0000
0100
0000
,  // measure 29
1000
0000
0100
0000
,  // measure 30
0010
0000
1000
0100
,  // measure 31
0001
0100
1000
0010
,  // measure 32
0001
0000
0010
0000
,  // measure 33
1000
0000
0100
0000
,  // measure 34
0002
0000
1003
0010
,  // measure 35
0100
0001
0020
0000
,  // measure 36
0130
0100
1000
1000
,  // measure 37
0002
0003
1000
0001
,  // measure 38
0100
0100
0001
0001
,  // measure 39
2000
3000
0100
0100
,  // measure 40
0020
0000
0000
0030
,  // measure 41
0001
0010
0100
1000
,  // measure 42
0020
0000
0000
0000
,  // measure 43
0030
0000
0000
0000
,  // measure 44
2000
3000
0020
0030
,  // measure 45
0200
0300
0001
0010
,  // measure 46
0200
0300
0020
0030
,  // measure 47
0001
0010
0100
1000
,  // measure 48
0002
0003
0020
0030
,  // measure 49
0200
0300
1000
0010
,  // measure 50
0200
0300
0020
0030
,  // measure 51
2000
3000
0000
0000
;
