#TITLE:LADY;
#SUBTITLE:숙녀 (淑女);
#ARTIST:YUBIN;
#TITLETRANSLIT:;
#SUBTITLETRANSLIT:;
#ARTISTTRANSLIT:;
#GENRE:;
#CREDIT:;
#BANNER:LADY.png;
#BACKGROUND:LADY-bg.png;
#LYRICSPATH:;
#CDTITLE:;
#MUSIC:Lady.ogg;
#OFFSET:-0.012000;
#SAMPLESTART:8.038694;
#SAMPLELENGTH:12.000000;
#SELECTABLE:YES;
#BPMS:0.000000=119.984001
;
#STOPS:
;
#BGCHANGES:-0.025=Lady.avi=1.000=0=0=0=StretchNoLoop==CrossFade_Fastest==,
186.000=Lady - bg.png=1.000=0=0=1===CrossFade_Fastest==,
99999=-nosongbg-=1.000=0=0=0 // don't automatically add -songbackground-
;
#KEYSOUNDS:;
#ATTACKS:;

//---------------dance-single - ----------------
#NOTES:
     dance-single:
     :
     Hard:
     7:
     0.350455,0.446684,0.112438,0.306648,0.275983,240.000000,229.000000,11.000000,30.000000,0.000000,0.000000,0.350455,0.446684,0.112438,0.306648,0.275983,240.000000,229.000000,11.000000,30.000000,0.000000,0.000000:
0000
0000
0000
0000
,
0000
0000
0000
0000
,
0000
0000
0000
0000
,
1000
0010
0000
1000
0001
0000
0100
0001
0000
0000
0000
0000
1001
0000
0000
0000
,
0000
0000
0010
0000
0001
0000
1000
0000
0001
0000
0000
0101
0000
0000
0000
0000
,
0000
0000
0010
0000
1000
0000
0001
0000
2000
0000
0000
0200
0000
0000
3300
0000
,
0000
0000
0010
0000
0001
0000
0100
0000
0010
0000
0000
0001
0000
0000
0010
0000
,
1000
0000
0000
0100
0000
0000
0010
0000
1000
0000
0000
0000
1001
0000
0000
0000
,
0000
0000
0010
0000
1000
0000
0001
0000
1000
0000
0000
1100
0000
0000
0000
0000
,
0000
0000
0010
0000
0001
0000
1000
0000
0002
0000
0000
0200
0000
0000
0303
0000
,
0000
0000
0100
0000
0001
0000
0010
0000
0100
0000
0000
0001
0000
0000
0100
0000
,
1000
0000
0000
0010
0000
0000
0100
0000
1000
0000
0000
0000
1001
0000
0000
0000
,
1000
0000
0010
0000
0100
0000
0001
0010
0000
0001
0000
0100
0000
0000
0000
0000
,
0001
0000
0010
0000
0100
0000
1000
0010
0000
0000
0100
0000
0001
0000
0010
0000
,
0001
0000
0000
0100
0000
0000
1000
0000
0000
0100
0000
0001
0000
0000
0010
0000
,
0100
0000
0000
2000
0000
0000
0002
0000
0000
0000
0000
0000
3003
0000
0000
0000
,
0100
0000
0001
0000
1000
0000
0100
0010
0000
0001
0000
0100
0000
0000
0000
0000
,
0001
0000
0010
0000
0100
0000
1000
0010
0000
0000
0100
0000
0001
0000
0010
0000
,
0100
0000
0000
1000
0000
0000
0010
0000
0100
0000
0000
0000
1000
0000
0000
0000
,
0100
0000
0000
0002
0000
0000
2000
0000
0000
0000
3003
0000
0000
0000
0000
0000
,
2000
3020
0032
0203
,
2000
3000
0002
0303
,
0100
0000
1000
0000
0010
0000
1000
0000
0100
0000
0000
0001
0000
0000
0100
0000
,
1000
0000
0000
0001
0000
0000
0200
0000
0000
0000
0300
0000
0010
0000
1000
0000
,
0100
0000
1000
0001
0000
1000
0001
0000
0000
0000
0000
0000
0000
0000
0000
0000
,
1000
0010
1000
0010
0000
0000
0001
0010
0001
0010
0000
0000
1001
0000
0000
0000
,
1000
0100
0010
0100
1000
0010
0100
1000
,
0100
0000
0000
0001
0000
0000
1000
0000
0000
0000
0000
0000
0001
0000
0010
0000
,
0001
0000
0000
1000
0000
0000
0200
0000
0000
0000
0300
0000
0000
0000
0000
0000
,
1000
0000
0000
0010
0000
0000
0100
0000
0001
0000
0000
0000
1001
0000
0000
0000
,
0010
0100
0000
0001
0000
0000
1000
0000
0100
0010
0000
1000
0000
0000
0010
0000
,
0001
0000
0000
0100
0000
0000
0001
0000
0000
0000
1000
0000
0100
0000
0010
0000
,
0001
0000
0000
0100
0000
0000
0020
0000
0000
0000
0000
0000
0030
0000
1000
0000
,
0100
0000
0000
0001
0000
0000
0100
0000
2000
0000
0000
0000
3000
0000
0000
0000
,
0020
2030
3002
0023
,
0031
0000
0000
0100
0000
0000
1000
0000
0100
0000
0000
0001
0000
0000
0020
0000
,
0000
0000
0000
0000
0030
0000
0100
1000
0100
0000
0010
0000
0001
0000
1000
0000
,
0000
0000
0001
0000
1000
0000
0001
0000
0100
0000
0000
1010
0000
0000
0000
0000
,
0000
0000
1000
0000
0001
0000
1000
0000
0200
0000
0000
0020
0000
0000
0330
0000
,
0000
0000
0001
0000
0100
0000
0001
0000
0010
0000
0000
1000
0000
0000
0010
0000
,
0001
0000
0000
1000
0000
0000
0010
0000
0001
0000
0000
0000
1001
0000
0000
0000
,
0000
0000
0100
0000
1000
0000
0100
0000
0010
0000
0000
1010
0000
0000
0000
0000
,
0000
0000
0100
0000
0001
0000
1000
0000
0002
0000
0000
0020
0000
0000
0033
0000
,
0000
0000
0100
0000
1000
0000
0010
0000
0100
0000
0000
1000
0000
0000
0100
0000
,
0001
0000
0000
0010
0000
0000
0100
0000
0002
0000
0000
0000
0003
0000
0000
0000
,
2002
0000
0000
0000
,
3003
0000
0000
0000
;

//---------------dance-single - ----------------
#NOTES:
     dance-single:
     :
     Medium:
     5:
     0.246779,0.305626,0.122659,0.132881,0.000000,169.000000,157.000000,12.000000,13.000000,0.000000,0.000000,0.246779,0.305626,0.122659,0.132881,0.000000,169.000000,157.000000,12.000000,13.000000,0.000000,0.000000:
0000
0000
0000
0000
,
0000
0000
0000
0000
,
0000
0000
0000
0000
,
0020
0000
0030
1001
,
0000
0001
0100
1000
,
0000
0000
0100
0001
0010
0000
0010
0000
,
0000
1000
0100
0001
,
1000
0100
0001
1001
,
0000
0001
0010
1000
,
0000
0000
0100
1000
0010
0000
0010
0000
,
0000
1000
0010
0001
,
1000
0010
0001
1001
,
1000
0000
0001
0010
0100
0000
0000
0000
,
1000
0000
0001
0100
0010
0000
1000
0000
,
0100
0001
0010
0000
,
1000
0001
1001
0000
,
0001
0000
1000
0100
0010
0000
0000
0000
,
0001
0000
1000
0010
0100
0000
0001
0000
,
0010
0000
0001
0100
1000
0000
0100
0000
,
0001
0010
0002
0000
,
1003
0100
0001
0010
,
2000
0000
0002
3003
,
0001
0100
0010
0000
0100
0000
0010
1000
,
0200
0000
0000
0000
0000
0300
0010
0001
,
0100
0101
1100
0000
,
1000
0010
0000
1000
0001
0000
1001
0000
,
1000
0100
0010
0000
0001
0100
0010
0000
,
1000
0000
0001
0000
1001
0000
0010
0001
,
1000
0000
0001
0200
0000
0000
0300
0000
,
0010
0000
1000
0200
0000
0000
0300
0000
,
0010
0001
1000
0000
0010
1000
0001
0000
,
0100
0000
0010
0000
0110
0000
0001
0100
,
1000
0000
0100
0000
0002
0000
0003
1000
,
0010
0000
0100
0002
0000
0000
0003
0000
,
1000
0100
0001
0010
,
2000
0000
0000
0000
,
0000
0000
3000
0000
0001
0010
0100
0000
,
1001
1000
0100
0001
,
0000
0000
0100
1000
0010
0000
0010
0000
,
0000
0001
0100
1000
,
0001
0100
1000
1001
,
0000
1000
0010
0001
,
0000
0000
0100
0001
0010
0000
0010
0000
,
0000
0001
0010
1000
,
0001
0010
2000
3000
,
2002
0000
0000
0000
,
3003
0000
0000
0000
;

//---------------dance-single - ----------------
#NOTES:
     dance-single:
     :
     Easy:
     1:
     0.172307,0.211587,0.122659,0.122659,0.000000,118.000000,106.000000,12.000000,12.000000,0.000000,0.000000,0.172307,0.211587,0.122659,0.122659,0.000000,118.000000,106.000000,12.000000,12.000000,0.000000,0.000000:
// measure 0
0000
0000
0000
0000
,  // measure 1
0000
0000
0000
0000
,  // measure 2
0000
0000
0000
0000
,  // measure 3
0002
0000
0003
1001
,  // measure 4
0000
1000
1000
1000
,  // measure 5
0000
0001
0001
0001
,  // measure 6
0000
1000
1000
1000
,  // measure 7
0001
1000
0001
1001
,  // measure 8
0000
0100
0100
0100
,  // measure 9
0000
0010
0010
0010
,  // measure 10
0000
0100
0100
0100
,  // measure 11
0010
0100
0220
0330
,  // measure 12
1000
0000
1000
0000
,  // measure 13
0001
0000
0001
0000
,  // measure 14
0100
0100
0100
0000
,  // measure 15
0010
0010
0010
0000
,  // measure 16
0001
0000
1001
0000
,  // measure 17
1000
0000
1001
0000
,  // measure 18
0010
0010
0010
0000
,  // measure 19
0100
0100
0100
0000
,  // measure 20
0002
0000
0000
0003
,  // measure 21
2000
0000
0000
3000
,  // measure 22
0001
0000
1000
0000
,  // measure 23
2002
0000
3003
0000
,  // measure 24
0100
0010
0100
0000
,  // measure 25
0001
0000
1000
0000
,  // measure 26
0100
0100
0100
0000
,  // measure 27
0010
0010
0010
0000
,  // measure 28
1000
0000
1001
0000
,  // measure 29
0001
0000
1001
0000
,  // measure 30
0010
0010
0010
0000
,  // measure 31
0100
0100
0100
0000
,  // measure 32
0001
0000
1001
0000
,  // measure 33
1000
0000
1001
0000
,  // measure 34
0001
0001
0001
0000
,  // measure 35
2000
0000
0000
0000
,  // measure 36
0000
3000
0000
0000
,  // measure 37
0000
0100
0100
0100
,  // measure 38
0000
0010
0010
0010
,  // measure 39
0000
0100
0100
0100
,  // measure 40
0010
0100
0010
0110
,  // measure 41
0000
0001
0001
0001
,  // measure 42
0000
1000
1000
1000
,  // measure 43
0000
0001
0001
0001
,  // measure 44
0002
0000
2000
3003
,  // measure 45
2002
0000
0000
0000
,  // measure 46
3003
0000
0000
0000
;
