#TITLE:KISS ME MORE;
#SUBTITLE:;
#ARTIST:DOJA CAT ft. SZA;
#TITLETRANSLIT:;
#SUBTITLETRANSLIT:;
#ARTISTTRANSLIT:;
#GENRE:;
#CREDIT:;
#BANNER:KISS ME MORE - bn.png;
#BACKGROUND:KISS ME MORE - bg.png;
#LYRICSPATH:;
#CDTITLE:;
#MUSIC:KISS ME MORE.ogg;
#OFFSET:-0.540000;
#SAMPLESTART:8.023280;
#SAMPLELENGTH:12.000000;
#SELECTABLE:YES;
#BPMS:0.000000=110.989998
;
#STOPS:
;
#BGCHANGES:0.000=Kiss Me More.avi=1.000=0=0=0=StretchNoLoop==CrossFade_Fastest==,
207.000=KISS ME MORE - bg.png=1.000=0=0=1===CrossFade_Fastest==,
99999=-nosongbg-=1.000=0=0=0 // don't automatically add -songbackground-
;
#KEYSOUNDS:;
#ATTACKS:;

//---------------dance-single - ----------------
#NOTES:
     dance-single:
     :
     Hard:
     7:
     0.409880,0.399862,0.196987,0.102776,0.154164,335.000000,312.000000,23.000000,12.000000,0.000000,0.000000,0.409880,0.399862,0.196987,0.102776,0.154164,335.000000,312.000000,23.000000,12.000000,0.000000,0.000000:
// measure 0
0000
0000
0000
0000
,  // measure 1
0000
0000
0000
0000
,  // measure 2
0000
0000
0000
0000
,  // measure 3
0000
0000
1010
0101
,  // measure 4
0011
0001
0100
0000
0000
0010
1000
0001
,  // measure 5
0000
0010
0001
1000
0010
1000
0001
0100
,  // measure 6
0002
0000
1003
0100
0000
0101
0000
0202
,  // measure 7
0000
0303
0011
1100
,  // measure 8
1010
1000
0100
0000
0000
1000
0001
0100
,  // measure 9
0000
0001
1000
0100
1000
0010
0100
0001
,  // measure 10
0020
0000
0130
1000
0000
1010
0000
2020
,  // measure 11
0000
0030
0010
3001
,  // measure 12
1000
0000
0000
1000
0001
0000
0000
0001
0100
0000
0000
0000
0001
0000
0000
0001
,  // measure 13
1000
0000
0000
1000
0100
0000
0000
0000
0010
0000
0000
0010
0001
0000
0000
0001
,  // measure 14
1000
0000
0000
0000
0010
0000
0000
0010
1000
0000
0000
0000
0001
0000
0000
0001
,  // measure 15
0010
0000
0100
0010
0001
0001
1000
1000
,  // measure 16
0010
0000
0000
0010
1000
0000
0000
1000
0001
0000
0000
0000
0010
0000
0000
0010
,  // measure 17
0001
0000
0000
0001
1000
0000
0000
0000
0100
0000
0000
0100
1000
0000
0000
1000
,  // measure 18
0010
0000
0000
0000
1000
0000
0000
1000
0100
0000
0000
0000
0010
0000
0000
0010
,  // measure 19
0001
0000
1000
0100
0001
0001
0100
0100
,  // measure 20
1001
0000
0001
0100
1000
1000
0100
0100
,  // measure 21
0000
0001
0010
0001
0100
0100
0010
0010
,  // measure 22
1000
0100
0010
0100
1000
1000
0010
0010
,  // measure 23
0000
0000
0100
0001
0000
0100
0001
0000
0010
0000
0010
0000
0100
0000
0100
0000
,  // measure 24
1000
0010
0100
0001
0010
0010
0100
0100
,  // measure 25
0000
0010
0001
0100
0010
0010
1000
1000
,  // measure 26
0100
0010
1000
0010
0001
0001
0100
0100
,  // measure 27
0000
0000
0010
0100
0000
0010
0100
0000
0001
0000
0001
0000
1000
0000
1000
0000
,  // measure 28
0000
0001
0010
0100
0010
0001
0100
0010
,  // measure 29
0100
0001
0010
1000
0010
0100
1000
0010
,  // measure 30
0100
1000
0100
0001
0010
0100
0010
0001
,  // measure 31
1000
1000
0010
0010
0100
0100
0001
0001
,  // measure 32
0010
0100
1000
0010
0100
1000
0100
0001
,  // measure 33
0010
0010
1000
1000
0010
0001
0100
0010
,  // measure 34
0001
0001
0010
0010
1000
0100
1000
0001
,  // measure 35
0010
0010
0001
0001
0101
0000
1001
0000
,  // measure 36
1100
1000
0010
0000
0000
0100
0001
1000
,  // measure 37
0000
0001
0010
0100
0010
0001
0100
0010
,  // measure 38
0200
0000
0301
1000
0000
0110
0000
0220
,  // measure 39
0000
0330
1010
1001
,  // measure 40
0011
0001
0100
0000
0000
0010
1000
0001
,  // measure 41
0000
1000
0010
0100
1000
0100
0010
1000
,  // measure 42
0200
0000
0310
0001
0000
0101
0000
0202
,  // measure 43
0000
0303
1010
1100
,  // measure 44
0001
0000
0000
0001
1000
0000
0000
1000
0010
0000
0000
0000
1000
0000
0000
1000
,  // measure 45
0001
0000
0000
0001
0100
0000
0000
0000
0010
0000
0000
0010
1000
0000
0000
1000
,  // measure 46
0001
0000
0000
0000
1000
0000
0000
1000
0010
0000
0000
0000
0100
0000
0000
0100
,  // measure 47
0001
0000
1000
0100
0010
0010
0001
0001
,  // measure 48
0100
0000
0000
0100
0001
0000
0000
0001
1000
0000
0000
0000
0010
0000
0000
0010
,  // measure 49
1000
0000
0000
1000
0001
0000
0000
0000
1000
0000
0000
1000
0001
0000
0000
0001
,  // measure 50
0100
0000
0000
0000
0010
0000
0000
0010
1000
0000
0000
0000
0001
0000
0000
0001
,  // measure 51
0010
0000
0100
1000
0001
0001
0100
0100
;

//---------------dance-single - ----------------
#NOTES:
     dance-single:
     :
     Medium:
     4:
     0.282633,0.288789,0.231246,0.051388,0.000000,231.000000,204.000000,27.000000,6.000000,0.000000,0.000000,0.282633,0.288789,0.231246,0.051388,0.000000,231.000000,204.000000,27.000000,6.000000,0.000000,0.000000:
0000
0000
0000
0000
,
0000
0000
0000
0000
,
0000
0000
0000
0000
,
0000
0000
1100
1100
,
1000
0100
1000
0000
0000
0001
0100
0001
,
0000
1000
0100
0001
,
0010
1000
0100
0011
,
0022
0033
0101
0101
,
0001
0100
0001
0000
0000
1000
0100
1000
,
0000
0001
0100
1000
,
0010
0001
0100
1100
,
2100
0000
0001
3001
,
0100
0001
0010
0100
,
1000
0010
1000
0100
,
0001
1000
0100
0001
,
1001
0000
1001
0000
0001
0010
0001
1000
,
0010
1000
0100
0010
,
0001
0100
0001
0010
,
1000
0001
0010
1000
,
1001
0000
1001
0000
1000
0010
1000
0001
,
0000
0001
0100
1000
,
0000
0001
0100
1000
,
0010
0010
1001
1001
,
0000
1000
0100
0001
,
0100
0000
1000
0000
0010
0100
0010
0000
,
0000
1000
0010
0001
,
1000
0000
0010
0000
0001
0100
1000
0000
,
0000
0000
1001
0000
0001
0010
0001
1000
,
0000
1000
0010
0001
,
1000
0010
0001
0100
,
1000
0010
0100
1000
,
0010
1000
0010
1000
0010
0100
0010
0100
,
0010
0010
1000
1000
,
0100
0100
0001
0001
,
0010
0010
1000
1000
,
0100
0100
0110
0110
,
0100
1000
0100
0000
0000
0010
0001
0010
,
0000
0100
1000
0010
,
0001
0100
1000
1010
,
2020
3030
0101
0101
,
1000
0010
1000
0000
0000
0001
0010
0001
,
0000
1000
0010
0001
,
0100
1000
0010
0011
,
0012
0000
1000
1003
,
0010
1000
0100
0010
,
0001
0100
0001
0010
,
1000
0001
0010
1000
,
1001
0000
1001
0000
0001
0010
0001
1000
,
0100
1000
0010
0100
,
0001
0010
0001
0100
,
1000
0001
0100
1000
,
1001
0000
1001
0000
1000
0010
1000
0001
;

//---------------dance-single - ----------------
#NOTES:
     dance-single:
     :
     Easy:
     3:
     0.210446,0.221610,0.205552,0.119905,0.000000,172.000000,148.000000,24.000000,14.000000,0.000000,0.000000,0.210446,0.221610,0.205552,0.119905,0.000000,172.000000,148.000000,24.000000,14.000000,0.000000,0.000000:
0000
0000
0000
0000
,
0000
0000
0000
0000
,
0000
0000
0000
0000
,
0000
0000
0110
0110
,
0100
0100
0000
0001
,
0001
0000
1000
0000
,
0100
0010
0100
0000
,
1001
0000
0110
0110
,
0010
0010
0000
1000
,
1000
0000
0001
0000
,
0010
0100
0010
0000
,
2001
0000
0100
3100
,
0010
0001
0200
0000
,
0301
0100
2000
0000
,
3100
0001
0020
0000
,
0031
1000
1001
1001
,
0010
1000
0200
0000
,
1300
0100
0002
0000
,
0103
1000
0020
0000
,
1030
0001
1001
1001
,
0000
0001
0100
1000
,
0000
0001
0010
1000
,
0010
1000
0100
0001
,
0000
1000
0010
0001
,
0100
1000
0100
0001
,
0000
1000
0100
0001
,
0100
0010
0100
0010
,
0000
0000
1001
1001
,
0000
1000
0100
1000
,
0001
0100
0001
0000
,
0001
0100
1000
0000
,
0100
0001
1001
0110
,
0100
0100
0010
0000
,
1000
1000
0001
0000
,
1000
0100
0001
0000
,
0000
0000
1001
1001
,
1000
1000
0000
0100
,
0100
0000
0010
0000
,
0001
1000
0001
0000
,
0110
0000
1001
1001
,
0001
0001
0000
0010
,
0010
0000
0100
0000
,
1000
0001
1000
0000
,
0120
0000
0100
0130
,
0010
1000
0200
0000
,
1300
0100
0002
0000
,
0103
1000
0020
0000
,
1030
0001
1001
1001
,
0010
0001
0200
0000
,
0301
0100
2000
0000
,
3100
0001
0020
0000
,
0031
1000
1001
1001
;
