#TITLE:IN YOUR EYES;
#SUBTITLE:;
#ARTIST:KYLIE MINOGUE;
#TITLETRANSLIT:;
#SUBTITLETRANSLIT:;
#ARTISTTRANSLIT:;
#GENRE:;
#CREDIT:;
#BANNER:in your eyes-bn.png;
#BACKGROUND:in your eyes-bg.png;
#LYRICSPATH:;
#CDTITLE:;
#MUSIC:In Your Eyes.ogg;
#OFFSET:-0.483000;
#SAMPLESTART:37.205002;
#SAMPLELENGTH:12.000000;
#SELECTABLE:YES;
#BPMS:0.000000=124.000000
;
#STOPS:
;
#BGCHANGES:-1.000=In Your Eyes.avi=1.000=1=0=0=StretchNoLoop==CrossFade==,
182.000=in your eyes-bg.png=1.000=0=0=1===CrossFade_Faster==,
99999=-nosongbg-=1.000=0=0=0 // don't automatically add -songbackground-
;
#KEYSOUNDS:;
#ATTACKS:;

//---------------dance-single - ----------------
#NOTES:
     dance-single:
     :
     Hard:
     8:
     0.468621,0.579152,0.110079,0.132095,0.324733,298.000000,288.000000,10.000000,12.000000,0.000000,0.000000,0.468621,0.579152,0.110079,0.132095,0.324733,298.000000,288.000000,10.000000,12.000000,0.000000,0.000000:
// measure 0
0000
0000
0000
0000
,  // measure 1
0000
0000
0000
0000
,  // measure 2
0000
0000
0000
0000
,  // measure 3
0000
0000
0000
0000
0000
0000
0000
1000
,  // measure 4
0000
0001
0000
0000
0100
0000
0000
0000
0001
0000
1000
0000
0000
0000
0100
0000
,  // measure 5
0000
1000
0000
0000
0010
0000
0000
0000
1000
0000
0001
0000
0000
0000
1000
0000
,  // measure 6
0000
0001
0000
0000
0010
0000
0000
0001
0000
0000
1000
0000
0000
0000
0010
0000
,  // measure 7
0000
1000
0000
0000
0001
0000
0000
0000
1001
0000
0000
0000
0001
0000
0100
0000
,  // measure 8
0001
1000
0010
1000
0001
0000
0000
0000
0010
0000
0100
0000
0000
0000
1000
0000
,  // measure 9
0010
0100
0010
1000
0001
0000
0000
0000
0100
0000
0010
0000
1000
0000
0001
0000
,  // measure 10
0000
1000
0000
0000
0010
0000
0000
0100
0000
0000
0010
0000
1000
0000
0100
0000
,  // measure 11
1000
0100
0010
0100
0010
0100
0002
0000
,  // measure 12
0000
0000
0003
0100
1000
0010
0200
0000
,  // measure 13
0301
1000
0002
0000
0000
0000
0003
0000
0010
0000
0001
0000
0200
0000
0000
0000
,  // measure 14
1300
0000
0100
0001
0010
2000
0000
0000
,  // measure 15
0000
3000
0010
0100
0001
0020
1000
0000
,  // measure 16
0100
0000
0031
0010
1000
0100
0002
0000
,  // measure 17
0103
1000
0200
0000
0000
0000
0000
0000
0300
0000
0000
0000
1010
0000
0000
0000
,  // measure 18
1100
0101
0011
2002
,  // measure 19
0000
0000
0000
0000
0000
0000
0000
0000
0000
0000
3003
0000
0001
0100
0000
0010
,  // measure 20
0000
0000
1000
0000
0100
0000
0000
0010
0000
0000
0001
0000
0100
0001
0000
1000
,  // measure 21
0000
0000
0100
0000
1000
0000
0000
0010
0000
0000
1000
0000
0100
1000
0000
0010
,  // measure 22
0000
0000
0100
0000
0001
0000
0000
0010
0000
0000
0100
0000
0010
0001
0000
0000
,  // measure 23
1100
0000
0000
0000
0101
0000
0000
0000
1010
0000
0000
0000
0001
0010
0000
0100
,  // measure 24
0000
0000
0010
0000
0001
0000
0000
0100
0000
0000
0010
0000
1000
0100
0000
0010
,  // measure 25
0000
0000
0100
0000
1000
0000
0000
0001
0000
0000
0010
0000
0001
0100
0000
0001
,  // measure 26
0100
0000
0010
0000
1000
0100
0000
1000
0100
0000
0010
0000
0100
0000
0000
0000
,  // measure 27
0010
0000
0100
0000
1000
0000
0010
0000
0100
0000
1000
0000
0100
0010
0100
0000
,  // measure 28
0001
0000
0010
0000
0100
0000
0010
0000
0001
0000
0100
0000
0010
1000
0000
0000
,  // measure 29
0100
0000
1000
0000
0010
0000
0100
0000
1000
0000
0100
0000
0001
0010
0000
0000
,  // measure 30
0100
0000
1000
0000
0001
0000
0010
0000
0100
0000
0001
0000
0100
1000
0000
0000
,  // measure 31
0010
0000
0100
0000
1000
0000
0100
0000
0010
0000
1000
0000
0100
1000
0000
0000
,  // measure 32
0100
0000
0010
0000
0001
0000
0100
0000
0010
0000
0001
0000
0010
1000
0000
0000
,  // measure 33
0100
0000
0010
0000
0100
0000
1000
0000
0010
0000
0100
0000
0001
0010
0000
0001
,  // measure 34
0010
0000
0100
0000
1000
0010
0000
1000
0010
0000
1000
0000
0100
0000
0010
0000
,  // measure 35
0001
0000
0100
0000
0010
0000
1000
0000
0100
0000
0010
0000
0001
0100
0001
0100
,  // measure 36
0001
0000
0100
0000
0010
0000
1000
0000
0100
0000
0010
0000
0100
1000
0100
0000
,  // measure 37
1000
0000
0010
0000
1000
0000
0100
0000
0010
0000
0001
0000
1000
0010
1000
0010
,  // measure 38
1000
0000
0001
0000
0100
0000
0010
0000
1000
0000
0100
0000
0010
0001
0010
0000
,  // measure 39
0100
0000
1000
0000
0010
0000
0100
0000
0001
0000
0010
0000
0001
0100
0001
0100
,  // measure 40
0001
0000
0100
0000
0010
0000
1000
0000
0100
0000
1000
0000
0010
0000
1000
0001
,  // measure 41
1000
0001
1000
0000
0001
0100
0001
0000
1000
0100
1000
0000
0010
0100
0000
0010
,  // measure 42
0100
0000
0001
0000
1000
0001
0000
1000
0001
0000
0100
0000
0010
0000
1000
0000
,  // measure 43
0100
0010
0001
0100
0010
0100
2002
0000
,  // measure 44
0000
0000
0000
0000
,  // measure 45
0000
0000
0000
3003
;

//---------------dance-single - ----------------
#NOTES:
     dance-single:
     :
     Medium:
     5:
     0.306648,0.402888,0.275197,0.418299,0.011008,195.000000,170.000000,25.000000,38.000000,0.000000,0.000000,0.306648,0.402888,0.275197,0.418299,0.011008,195.000000,170.000000,25.000000,38.000000,0.000000,0.000000:
0000
0000
0000
0000
,
0000
0000
0000
0000
,
0000
0000
0000
0000
,
0000
0000
0000
0000
,
0001
0100
0001
0000
0010
0000
0000
0000
,
1001
0110
1001
0000
,
1000
0010
1000
0000
0100
0000
0000
2000
,
0000
0000
0200
0000
0000
3300
0000
0000
,
0001
0010
0001
0000
0011
0000
0000
0000
,
0001
0100
0001
0000
0101
0000
0000
1000
,
0000
0001
0000
0000
1000
0000
0000
0001
0000
0000
1000
0000
0010
0000
0000
0000
,
0020
0100
0100
0200
,
0000
0330
0000
0001
0100
0001
0020
0000
,
0031
0200
0000
0300
0010
1000
0100
0000
,
0100
0000
1000
0010
0001
0200
0000
0000
,
0300
0000
0100
0001
0010
2000
0000
0000
,
0000
0000
3000
0001
0100
0001
0020
0000
,
0031
2000
0000
3000
0100
0010
0100
0000
,
0100
1000
1000
1100
,
0002
0023
0230
2300
,
0000
0000
3000
0000
0001
0010
0001
0000
,
1000
0100
1000
0000
1100
0000
0001
0000
,
0100
0001
0100
0000
0010
0000
0100
0000
,
0110
1001
0110
2002
,
0000
0000
3003
0000
0001
0010
0001
0000
,
0001
0200
0001
0000
0301
0000
1001
0000
,
1000
0100
1000
0000
1000
0001
1000
0000
,
0002
2003
3020
0230
,
0000
0000
0300
0000
0001
1000
0001
0000
,
1000
0002
1000
0000
1003
0000
0100
0000
,
0100
0010
0200
0000
1000
0000
1300
0000
,
1001
0110
1001
0220
,
0000
0000
0330
0000
1000
0100
1000
0000
,
0001
0200
0001
0000
0301
0000
0101
0000
,
0001
1000
0001
0000
1000
0010
1000
0000
,
0020
2030
3002
0203
,
0000
0000
0300
0000
0010
1000
0100
0000
,
0100
1000
0020
0000
0030
0000
1001
0000
,
0001
0100
0002
0000
0010
0000
0013
0000
,
0012
0013
2010
0020
,
0000
0000
3030
0000
0001
0100
0001
0000
,
0100
0020
0100
0000
0130
0000
0110
0000
,
0100
0001
0100
0000
0010
1000
0010
0000
,
1001
0110
1001
0220
,
0000
0000
0000
0000
,
0000
0000
0000
0330
;

//---------------dance-single - ----------------
#NOTES:
     dance-single:
     :
     Easy:
     2:
     0.168263,0.251805,0.121087,0.198142,0.000000,107.000000,96.000000,11.000000,18.000000,0.000000,0.000000,0.168263,0.251805,0.121087,0.198142,0.000000,107.000000,96.000000,11.000000,18.000000,0.000000,0.000000:
0000
0000
0000
0000
,
0000
0000
0000
0000
,
0000
0000
0000
0000
,
0000
0000
0000
0000
,
0001
0001
0100
0000
,
0010
0010
1000
0000
,
0001
1000
0001
0000
,
2002
0000
3003
0000
,
1000
2000
0000
3000
,
0001
0002
0000
0003
,
0010
0010
0000
0100
,
1000
0020
0000
0200
,
0000
0330
1000
2000
,
0000
0000
3000
0010
,
1000
0100
0000
1001
,
0000
0100
0001
0020
,
0000
0030
0000
1001
,
0000
1001
0000
0010
,
0001
0100
0000
0200
,
0000
0000
0300
0002
,
0000
0003
1000
1000
,
0000
0001
0000
0010
,
0100
0010
0000
0100
,
0000
1000
0010
2000
,
0000
3000
0001
0001
,
0000
0010
0000
0100
,
1000
0010
0000
1000
,
0000
0001
0100
0002
,
0000
0003
1000
1000
,
0000
0100
0000
0010
,
0001
0100
0000
0001
,
0000
0100
0001
0020
,
0000
0030
0100
0100
,
0000
1000
0000
0010
,
1000
0100
0000
1000
,
0000
1001
1001
2002
,
0000
3003
0010
0010
,
0000
0100
0000
0010
,
1000
0100
0000
1001
,
0000
0010
0001
0200
,
0000
0300
0001
0001
,
0000
1000
0000
0010
,
1000
0100
0000
0100
,
0000
0110
0110
0220
,
0000
0000
0000
0000
,
0000
0000
0000
0330
;
