#VERSION:0.83;
#TITLE:IN THE DARK;
#SUBTITLE:(Oliver Heldens Remix);
#ARTIST:PURPLE DISCO MACHINE + SOPHIE AND THE GIANTS;
#TITLETRANSLIT:;
#SUBTITLETRANSLIT:;
#ARTISTTRANSLIT:;
#GENRE:;
#ORIGIN:;
#CREDIT:;
#BANNER:IN THE DARK (Oliver Heldens Remix).png;
#BACKGROUND:IN THE DARK (Oliver Heldens Remix) - bg.png;
#PREVIEWVID:;
#JACKET:IN THE DARK (Oliver Heldens Remix) - jacket.png;
#CDIMAGE:IN THE DARK (Oliver Heldens Remix) - jacket.jpg;
#DISCIMAGE:;
#LYRICSPATH:;
#CDTITLE:;
#MUSIC:IN THE DARK (Oliver Heldens Remix).ogg;
#OFFSET:-0.172000;
#SAMPLESTART:45.135578;
#SAMPLELENGTH:12.000000;
#SELECTABLE:YES;
#BPMS:0.000=124.000;
#STOPS:;
#DELAYS:;
#WARPS:;
#TIMESIGNATURES:0.000=4=4;
#TICKCOUNTS:0.000=4;
#COMBOS:0.000=1;
#SPEEDS:0.000=1.000=0.000=0;
#SCROLLS:0.000=1.000;
#FAKES:;
#LABELS:0.000=Song Start;
#LASTSECONDHINT:93.111694;
#BGCHANGES:-0.500=IN THE DARK (Oliver Heldens Remix).avi=1.000=1=0=0=StretchNoLoop==CrossFade==,
196.000=IN THE DARK (Oliver Heldens Remix) - bg.png=1.000=1=0=1===CrossFade==,
99999=-nosongbg-=1.000=0=0=0 // don't automatically add -songbackground-
;
#KEYSOUNDS:;
#ATTACKS:
;

//---------------dance-single - ----------------
#NOTEDATA:;
#CHARTNAME:;
#STEPSTYPE:dance-single;
#DESCRIPTION:;
#CHARTSTYLE:;
#DIFFICULTY:Hard;
#METER:9;
#RADARVALUES:0.590767,0.597217,0.020523,0.092353,0.733694,403.000000,401.000000,2.000000,9.000000,0.000000,0.000000,0.000000,0.000000,0.000000,0.590767,0.597217,0.020523,0.092353,0.733694,403.000000,401.000000,2.000000,9.000000,0.000000,0.000000,0.000000,0.000000,0.000000;
#CREDIT:Alchemy Jones;
#NOTES:
0000
0000
0000
0000
,
0000
0000
0000
0000
,
0000
0000
0000
0000
,
0000
0000
0000
0000
,
2000
0000
0000
0000
3000
0010
0100
0002
,
0000
0000
0010
1003
,
0020
0000
0000
0000
0030
0100
0001
2000
,
0000
0000
0000
0000
0000
0000
0000
0000
3000
0000
0001
0010
0001
1000
0100
1000
,
0010
0000
0100
0000
0010
0000
1000
0000
0010
0000
0100
0001
0000
0010
0100
1000
,
0000
0000
0001
0000
0100
0000
0000
0000
0010
0000
1000
0100
0000
0010
0100
1000
,
0001
0000
0100
0000
0010
0000
0100
0000
0001
0000
1000
0001
0000
0010
0001
1000
,
0000
0001
0100
0000
0000
0100
0010
0000
0000
0010
1000
0010
1000
0001
0100
0001
,
0010
0000
0100
0000
0010
0000
0001
0000
0010
0000
0100
1000
0000
0010
0100
0001
,
0000
0000
1000
0000
0100
0000
0000
0000
0010
0000
0001
0100
0000
0010
0100
0001
,
1000
0000
0100
0000
0010
0000
0100
0000
1000
0000
0001
1000
0000
0010
1000
0001
,
0000
1000
0100
0000
0000
0100
0010
0000
0000
0010
0001
0010
0001
1000
0100
1000
,
0010
0000
0100
0000
0010
0000
1000
0100
0000
0100
0000
1000
0010
0000
0100
0000
,
0001
0000
0010
0100
0010
0000
0001
0100
0000
0100
0000
0001
0010
0000
0100
1000
,
0100
0000
0010
0000
0001
0100
0001
0000
1000
0000
0000
0000
0010
0000
0100
0001
,
0100
0000
0010
0000
1000
0100
1000
0000
0001
0000
1000
0010
1000
0001
0100
0001
,
0010
0000
0100
0000
0010
0000
0001
0100
0000
0100
0000
0001
0010
0000
0100
0000
,
1000
0000
0010
0100
0010
0000
1000
0100
0000
0100
0000
1000
0010
0000
0100
0001
,
0100
0000
0010
0000
1000
0100
1000
0000
0010
0000
0000
0000
0100
0000
0000
0000
,
1001
0000
0000
0000
0001
0000
0001
0000
0100
0010
0100
0010
0100
0000
0000
0000
,
1010
0000
1000
0000
0100
0000
0010
0000
0001
0000
0100
0001
0100
0000
0010
0100
,
0010
0000
1000
0000
0100
0000
0010
0000
0001
0000
1000
0100
1000
0000
0001
1000
,
0001
0000
1000
0000
0010
0000
0100
0000
0001
0000
0010
0001
0010
0000
0100
0010
,
0100
0000
1000
0000
0010
0000
0000
0000
0100
0000
0010
1000
0010
0000
0100
0010
,
0100
0000
0001
0000
0100
0000
0010
0000
1000
0000
0100
1000
0100
0000
0010
0100
,
0010
0000
0001
0000
0100
0000
0010
0000
1000
0000
0001
0100
0001
0000
1000
0001
,
1000
0000
0001
0000
0010
0000
0100
0000
1000
0000
0010
1000
0010
0000
0100
0010
,
0200
0302
0023
2030
,
3010
0000
0001
0000
1000
0000
0100
0000
0010
0000
0001
1000
0000
1000
0000
0010
,
0100
0000
0001
0100
0010
0000
1000
0001
0100
0000
0010
0000
0100
0000
0000
0000
,
0010
0000
1000
0000
0001
0000
0100
0000
0010
0000
1000
0001
0000
0001
0000
0010
,
0100
0000
1000
0100
0010
0000
0001
1000
0100
0000
0010
0000
0100
0000
0000
0000
,
0010
0000
0001
0000
1000
0000
0010
0000
0100
0000
0001
1000
0000
1000
0000
0100
,
0010
0000
0001
0010
0100
0000
1000
0001
0010
0000
0100
0000
0010
0000
0000
0000
,
0100
0000
1000
0000
0001
0000
0010
0000
0100
0000
1000
0001
0000
0001
0000
0100
,
0010
0000
1000
0010
0100
0000
0001
1000
0010
0000
1000
0010
1000
0001
0100
0001
,
0000
0001
0010
0000
0000
0010
0100
0000
0000
0100
1000
0001
0000
0001
0100
0010
,
0000
1000
0010
0000
0000
0010
0100
0000
0000
0100
0001
1000
0000
1000
0100
0010
,
0000
0001
0100
0000
0000
0100
0010
0000
0000
0010
1000
0001
0000
0001
0010
0100
,
0000
1000
0010
0000
0000
0010
0100
0000
0000
0100
0001
0010
0001
1000
0100
1000
,
0000
1000
0010
0000
0000
0010
0100
0000
0000
0100
0001
1000
0000
1000
0100
0010
,
0000
0001
0010
0000
0000
0010
0100
0000
0000
0100
1000
0001
0000
0001
0100
0010
,
0000
1000
0100
0000
0000
0100
0010
0000
0000
0010
0001
1000
0000
1000
0010
0100
,
0000
0001
0100
0000
0000
0100
0010
0000
0000
0010
1000
0010
1000
0001
0100
0002
,
0000
0000
0003
0000
;

//---------------dance-single - ----------------
#NOTEDATA:;
#CHARTNAME:;
#STEPSTYPE:dance-single;
#DESCRIPTION:;
#CHARTSTYLE:;
#DIFFICULTY:Medium;
#METER:6;
#RADARVALUES:0.343026,0.398145,0.082092,0.153922,0.000000,234.000000,226.000000,8.000000,15.000000,0.000000,0.000000,0.000000,0.000000,0.000000,0.343026,0.398145,0.082092,0.153922,0.000000,234.000000,226.000000,8.000000,15.000000,0.000000,0.000000,0.000000,0.000000,0.000000;
#CREDIT:Alchemy Jones;
#NOTES:
0000
0000
0000
0000
,
0000
0000
0000
0000
,
0000
0000
0000
0000
,
0000
0000
0000
0000
,
2000
0000
0000
0000
0000
0000
0000
3200
,
0000
0000
0000
0000
,
0320
0000
0000
0000
0000
0000
0000
0032
,
0000
0000
0000
0003
,
0100
0000
0001
0000
1000
0000
0010
1000
,
0100
1000
0000
0001
0000
0000
0010
0000
,
0001
1000
0100
0000
1000
0001
0100
0001
,
0000
1000
0000
0100
0000
0010
0001
0100
,
0001
1000
0100
0000
,
1000
0010
0100
0001
1000
0000
0001
0010
,
0100
0000
0010
0000
0100
1000
0001
0100
,
0010
1000
0000
0100
0000
0010
0001
0100
,
0001
1000
0100
0000
1000
0001
0100
0000
,
0001
0010
0001
0010
0100
1000
0100
1000
,
0002
0000
1003
0100
0010
0000
0000
0001
,
2000
0000
3001
0100
0010
0000
0000
0000
,
1000
0001
0100
0000
0001
1000
0100
0000
,
1000
0010
1000
0010
0100
0001
0100
0001
,
2000
0000
3001
0100
0000
0000
0000
0000
,
1001
0000
1000
0100
1000
0001
0010
0001
,
0000
0000
1000
0010
1000
0001
0100
0020
,
0000
0000
0030
0000
1000
0010
0100
0000
,
0001
0000
0010
0000
0100
1000
0001
0200
,
0000
0000
0300
0000
0001
1000
0010
1000
,
0000
0000
0001
0010
0001
1000
0100
0020
,
0000
0000
0030
0000
0001
0010
0100
0000
,
1000
0000
0010
0000
0100
0001
1000
0100
,
0020
0032
2003
3200
,
0310
0000
0001
0100
1000
0000
0100
0000
,
0010
0100
0001
0000
1000
0010
0100
0000
,
0010
0000
1000
0100
0001
0000
0100
0000
,
0010
0100
1000
0001
1000
0010
0100
0000
,
0010
0000
1000
0100
0001
0000
0100
0000
,
0010
0100
1000
0000
0001
0010
0100
0000
,
0010
0000
0001
0100
1000
0000
0100
0000
,
0010
0100
0001
1000
0001
0010
0100
0000
,
0000
1000
0000
1001
0000
0001
0010
0100
,
0010
0001
0000
1001
0000
0001
0100
0010
,
0100
0001
0000
1001
0000
1000
0010
0100
,
0010
1000
0000
1001
0000
1000
0100
0010
,
0100
1000
0000
1001
0000
0001
0100
0010
,
0100
0001
0000
1001
0000
0001
0010
0100
,
0010
0001
0000
1001
0000
1000
0100
0010
,
0100
1000
0000
0010
0000
0100
0001
1000
,
0002
0000
0003
0000
;

//---------------dance-single - ----------------
#NOTEDATA:;
#CHARTNAME:;
#STEPSTYPE:dance-single;
#DESCRIPTION:;
#CHARTSTYLE:;
#DIFFICULTY:Easy;
#METER:3;
#RADARVALUES:0.189104,0.248840,0.041046,0.153922,0.000000,129.000000,125.000000,4.000000,15.000000,0.000000,0.000000,0.000000,0.000000,0.000000,0.189104,0.248840,0.041046,0.153922,0.000000,129.000000,125.000000,4.000000,15.000000,0.000000,0.000000,0.000000,0.000000,0.000000;
#CREDIT:Alchemy Jones;
#NOTES:
// measure 0
0000
0000
0000
0000
,  // measure 1
0000
0000
0000
0000
,  // measure 2
0000
0000
0000
0000
,  // measure 3
0000
0000
0000
0000
,  // measure 4
2000
0000
0000
3000
,  // measure 5
0200
0000
0000
0300
,  // measure 6
0020
0000
0000
0030
,  // measure 7
0002
0000
0000
0003
,  // measure 8
1000
1000
0010
0100
,  // measure 9
0001
0000
1000
0000
,  // measure 10
0001
0001
0010
0100
,  // measure 11
1000
0000
0001
0000
,  // measure 12
1000
1000
0010
0000
,  // measure 13
0100
0100
0001
0000
,  // measure 14
1000
0100
0010
0001
,  // measure 15
1000
0000
0001
0000
,  // measure 16
0100
0001
0010
0001
,  // measure 17
1000
0010
1000
0100
,  // measure 18
0220
0000
0330
0000
,  // measure 19
2002
0000
3003
0000
,  // measure 20
0100
1000
0010
1000
,  // measure 21
0001
0010
0001
0100
,  // measure 22
0220
0000
0330
0000
,  // measure 23
1001
0000
0000
0000
,  // measure 24
0010
0100
0010
1000
,  // measure 25
0001
0000
0010
0100
,  // measure 26
0010
0001
1000
1000
,  // measure 27
1000
0000
0001
0001
,  // measure 28
0100
0010
0100
0001
,  // measure 29
1000
0000
0100
0010
,  // measure 30
0100
1000
0001
0001
,  // measure 31
0002
0023
0230
2300
,  // measure 32
3010
0000
1000
0000
,  // measure 33
0100
0001
0010
1000
,  // measure 34
0100
0000
1000
0000
,  // measure 35
0010
0001
0100
1000
,  // measure 36
0100
0000
0001
0000
,  // measure 37
0010
1000
0100
0001
,  // measure 38
0010
0000
0001
0000
,  // measure 39
0100
1000
0010
0001
,  // measure 40
0000
0010
0000
1000
,  // measure 41
0001
0100
0000
0001
,  // measure 42
1000
0100
0000
1000
,  // measure 43
0001
0010
0000
0001
,  // measure 44
1000
0010
0000
0100
,  // measure 45
0001
1000
0000
0100
,  // measure 46
1000
0001
0000
0010
,  // measure 47
0001
1000
0000
0010
,  // measure 48
0200
0000
0300
0000
;
