#VERSION:0.83;
#TITLE:I DIDN'T JUST COME HERE TO DANCE;
#SUBTITLE:;
#ARTIST:CARLY RAE JEPSEN;
#TITLETRANSLIT:;
#SUBTITLETRANSLIT:;
#ARTISTTRANSLIT:;
#GENRE:;
#ORIGIN:;
#CREDIT:;
#BANNER:I DIDN'T JUST COME HERE TO DANCE.png;
#BACKGROUND:I DIDN'T JUST COME HERE TO DANCE - bg.png;
#PREVIEWVID:;
#JACKET:I DIDN'T JUST COME HERE TO DANCE - jacket.png;
#CDIMAGE:;
#DISCIMAGE:;
#LYRICSPATH:;
#CDTITLE:;
#MUSIC:I DIDN'T JUST COME HERE TO DANCE.ogg;
#OFFSET:-0.969000;
#SAMPLESTART:63.653687;
#SAMPLELENGTH:12.000000;
#SELECTABLE:YES;
#DISPLAYBPM:122.000000;
#BPMS:0.000=122.000,
192.000=120.000,
196.000=118.000;
#STOPS:127.500=1.967;
#DELAYS:;
#WARPS:;
#TIMESIGNATURES:0.000=4=4;
#TICKCOUNTS:0.000=4;
#COMBOS:0.000=1;
#SPEEDS:0.000=1.000=0.000=0;
#SCROLLS:0.000=1.000;
#FAKES:;
#LABELS:0.000=Song Start;
#LASTSECONDHINT:104.503990;
#BGCHANGES:15.750=I DIDN'T JUST COME HERE TO DANCE.avi=1.000=0=0=0=StretchNoLoop==CrossFade_Faster==,
200.000=I DIDN'T JUST COME HERE TO DANCE - bg.png=1.000=0=0=1===CrossFade_Faster==,
99999=-nosongbg-=1.000=0=0=0 // don't automatically add -songbackground-
;
#KEYSOUNDS:;
#ATTACKS:
;

//---------------dance-single - ----------------
#NOTEDATA:;
#CHARTNAME:;
#STEPSTYPE:dance-single;
#DESCRIPTION:;
#CHARTSTYLE:;
#DIFFICULTY:Hard;
#METER:8;
#RADARVALUES:0.480798,0.532183,0.523536,0.009349,0.341233,360.000000,304.000000,56.000000,1.000000,0.000000,0.000000,0.000000,0.000000,0.000000,0.480798,0.532183,0.523536,0.009349,0.341233,360.000000,304.000000,56.000000,1.000000,0.000000,0.000000,0.000000,0.000000,0.000000;
#CREDIT:Alchemy Jones;
#DISPLAYBPM:122.000000;
#NOTES:
0000
0000
0000
0000
,
0000
0000
0000
0000
,
0000
0000
0000
0000
,
0000
0000
0000
0000
,
0010
0000
0000
0000
0001
0100
0001
0100
0000
0000
0100
0000
0000
0000
0000
0000
,
0010
0000
0000
0000
1000
0100
1000
0100
0000
0000
0100
0000
0000
0001
0000
0000
,
0100
0000
0000
0000
1000
0010
1000
0010
0000
0000
0010
0000
0000
0000
0000
0000
,
0100
0000
0000
0000
0001
0010
0001
0010
0000
0000
0010
0000
0000
1000
0000
0000
,
0010
0000
0000
0000
0001
0100
0001
0010
0000
0000
0010
0000
0000
0100
0000
0000
,
0110
0000
0000
0000
1000
0010
1000
0100
0000
0000
0100
0000
0000
0010
0001
0000
,
0100
0000
0000
0000
0010
0100
0010
1000
0000
0000
0001
0000
0000
0010
0000
0000
,
1000
0000
0000
0000
0010
0100
0010
0001
0000
0000
1000
0000
0000
0010
0001
0000
,
1000
0000
0000
0000
0100
0010
0100
0001
0000
0000
1000
0000
0000
0100
0000
0000
,
0001
0000
0000
0000
0100
0010
0100
1000
0000
0000
0001
0000
0000
0100
1000
0000
,
0001
0000
0000
0000
0010
1000
0100
0010
0000
0000
0010
0000
0000
0100
0000
0000
,
0110
0000
0000
0000
0010
0001
0100
0010
0000
0000
0010
0000
0000
0100
0010
0000
,
1001
0000
0110
0000
1000
0100
1000
0001
,
0000
0100
0001
1000
0100
1000
0001
0100
,
0000
0001
0010
0001
1000
0010
1000
0100
,
1001
0000
0000
0000
0001
0100
0001
0010
0000
0000
0010
0000
0000
0100
1000
0000
,
1001
0000
0110
0000
0001
0100
0001
1000
,
0000
0100
1000
0001
0100
0001
1000
0100
,
0000
1000
0010
1000
0001
0010
0001
0100
,
1001
0000
0000
0000
1000
0100
1000
0010
0000
0000
0010
0000
0000
0100
0000
0000
,
0001
0000
0000
0000
0001
0000
0000
0000
0101
0000
0000
0101
0000
0000
0101
0000
,
1000
0000
0000
0000
1000
0000
0000
0000
0100
0000
0000
0100
0000
0000
0100
0000
,
0000
0000
1001
0000
0000
1010
0000
0000
1001
0000
0000
0011
0000
0000
0110
0000
,
0001
0000
0000
0000
0001
0000
0000
0000
1000
0000
0000
1000
0000
0000
1000
0000
,
0001
0000
0011
0000
1000
0000
1010
0010
,
0100
0000
1001
0000
0001
0000
0101
0001
,
1000
0000
1100
0000
0010
1000
0010
0100
,
0001
0000
1000
0000
0001
0000
0010
0000
0100
0000
1000
0000
0010
0100
0001
0000
,
1001
0000
0000
0000
0110
0000
0000
0000
1010
0000
0000
0110
0000
0000
1100
0000
,
0000
1001
0000
0000
0001
0000
0100
0000
0101
0000
0000
0000
0000
0000
0000
0000
,
1001
0000
0000
0000
0110
0000
0000
0000
0011
0000
0000
0110
0000
0000
0101
0000
,
0000
1001
0000
0000
1000
0000
0100
0000
1100
0000
0000
0000
1000
0100
0010
0001
,
1001
0000
0000
0000
0110
0000
0000
0000
0101
0000
0000
1100
0000
0000
0101
0000
,
0000
1001
0000
0000
0100
0000
1000
0000
1001
0000
0000
0001
1000
0000
0000
0001
,
0100
0000
0000
0000
1001
0000
0000
0000
1100
0000
0000
1001
0000
0000
0101
0000
,
0000
1001
0000
0000
0100
0000
0001
0000
1001
0000
0000
1000
0000
0000
0010
0000
,
0011
0000
0000
0000
0011
0000
0000
0000
0100
1000
0100
1000
0000
0000
0001
0000
,
0000
0000
1000
0000
0010
0000
1000
0000
0001
0010
0000
0100
0000
0010
0001
0000
,
0000
0100
0001
0010
0100
0010
0001
0100
,
0010
0000
0101
0000
0010
0000
1100
1000
,
1010
0000
0000
0000
1010
0000
0000
0000
0100
0001
0100
0001
0000
0000
1000
0000
,
0000
0000
0001
0000
0010
0000
0001
0000
1000
0010
0000
0100
0000
0010
1000
0000
,
0000
0100
1000
0010
0100
0010
1000
0100
,
0010
0000
1100
0000
0010
0000
0101
0001
,
1000
0100
1000
0000
0001
0100
0001
1000
,
0000
0000
0000
0000
0000
0000
0010
1000
0010
0000
0010
0100
0000
0000
0001
0000
,
0000
0000
0000
0000
0000
0000
0010
0001
0010
0000
0010
0100
0000
0000
2000
0000
,
0000
0000
0000
3000
;

//---------------dance-single - ----------------
#NOTEDATA:;
#CHARTNAME:;
#STEPSTYPE:dance-single;
#DESCRIPTION:;
#CHARTSTYLE:;
#DIFFICULTY:Medium;
#METER:6;
#RADARVALUES:0.340565,0.387042,0.364605,0.074791,0.000000,255.000000,216.000000,39.000000,8.000000,0.000000,0.000000,0.000000,0.000000,0.000000,0.340565,0.387042,0.364605,0.074791,0.000000,255.000000,216.000000,39.000000,8.000000,0.000000,0.000000,0.000000,0.000000,0.000000;
#CREDIT:Alchemy Jones;
#DISPLAYBPM:122.000000;
#NOTES:
0000
0000
0000
0000
,
0000
0000
0000
0000
,
0000
0000
0000
0000
,
0000
0000
0000
0000
,
0001
0000
0100
1000
0010
0000
0001
0000
,
1000
0000
0010
0001
0100
0000
1000
0000
,
0001
0000
0010
1000
0100
0000
0001
0000
,
1000
0000
0100
0001
0010
0000
1000
0000
,
0100
0100
0001
0001
,
0010
0100
1000
0000
0010
0100
0001
0001
,
2000
0002
0000
3003
,
1000
0000
0100
1000
0010
0000
0100
0000
,
0010
0010
1000
1000
,
0100
0010
0001
0000
0100
0010
1000
1000
,
0002
2000
0000
3003
,
0001
0000
0100
0001
0010
0000
0100
0000
,
1001
0000
1001
0000
0001
0010
0100
1000
,
0000
0000
1001
0000
1000
0100
0010
0001
,
0000
0000
1000
0100
1000
0001
0100
0001
,
1000
0010
1000
0001
,
1001
0000
1001
0000
0001
0100
0010
1000
,
0000
0000
1001
0000
1000
0010
0100
0001
,
0000
0000
0001
0010
0001
1000
0010
1000
,
0001
0100
1000
0001
,
0101
0101
1010
1010
,
1001
0000
1001
0000
0100
1000
0100
0010
,
0000
0000
1001
0000
0100
0001
0100
0010
,
0000
1000
0100
0001
,
1000
1100
0001
0101
,
1000
1010
0001
0011
,
0001
0010
0100
1000
,
0010
1000
0001
0100
0010
1000
0001
0000
,
0101
0101
1100
1100
,
0001
0000
1000
0010
1000
0000
0001
0000
,
1100
1100
0101
0101
,
1000
0000
0001
0010
0001
0000
0000
0000
,
1010
1010
0011
0011
,
1000
0000
0001
0100
0001
0000
1000
0000
,
0011
0011
1010
1010
,
0001
0000
1000
0100
1000
0000
0001
0000
,
1001
0000
0110
0000
1000
0100
0010
0001
,
0000
0000
1001
0000
0001
0010
0100
1000
,
0000
0000
0001
0010
0001
1000
0010
1000
,
0001
0001
0100
1000
,
1001
0000
0110
0000
0001
0100
0010
1000
,
0000
0000
1001
0000
1000
0010
0100
0001
,
0000
0000
1000
0010
1000
0001
0010
0001
,
1000
0001
0100
1000
,
0002
0000
0000
0003
,
0020
0000
0000
0030
,
0200
0000
0000
0300
,
2000
0000
0000
3000
;

//---------------dance-single - ----------------
#NOTEDATA:;
#CHARTNAME:;
#STEPSTYPE:dance-single;
#DESCRIPTION:;
#CHARTSTYLE:;
#DIFFICULTY:Easy;
#METER:3;
#RADARVALUES:0.225708,0.338662,0.252419,0.130884,0.000000,169.000000,142.000000,27.000000,14.000000,0.000000,0.000000,0.000000,0.000000,0.000000,0.225708,0.338662,0.252419,0.130884,0.000000,169.000000,142.000000,27.000000,14.000000,0.000000,0.000000,0.000000,0.000000,0.000000;
#CREDIT:Alchemy Jones;
#DISPLAYBPM:122.000000;
#NOTES:
// measure 0
0000
0000
0000
0000
,  // measure 1
0000
0000
0000
0000
,  // measure 2
0000
0000
0000
0000
,  // measure 3
0000
0000
0000
0000
,  // measure 4
2000
0000
0000
3000
,  // measure 5
0002
0000
0000
0003
,  // measure 6
0200
0000
0000
0300
,  // measure 7
0020
0000
0000
0030
,  // measure 8
1000
0010
0100
0000
,  // measure 9
0001
0010
0100
0000
,  // measure 10
1001
0220
0000
0330
,  // measure 11
1000
0001
1000
0000
,  // measure 12
0100
1000
0010
0000
,  // measure 13
0100
0001
0010
0000
,  // measure 14
1001
0220
0000
0330
,  // measure 15
0001
1000
0001
0000
,  // measure 16
0110
0110
0100
0000
,  // measure 17
0010
0001
0100
0000
,  // measure 18
0001
0010
0100
1000
,  // measure 19
0000
0010
0100
0010
,  // measure 20
0110
0110
0100
0000
,  // measure 21
0010
1000
0100
0000
,  // measure 22
1000
0100
0010
0001
,  // measure 23
2002
0000
3003
0000
,  // measure 24
0010
0100
0010
0100
,  // measure 25
0110
0110
1001
1001
,  // measure 26
0100
0100
0010
0010
,  // measure 27
1001
1001
0110
0110
,  // measure 28
0001
1000
0001
1000
,  // measure 29
0010
0100
0010
0100
,  // measure 30
0001
0010
0001
0010
,  // measure 31
0100
1000
0100
1000
,  // measure 32
1000
0100
0010
0001
,  // measure 33
0100
0010
1000
0000
,  // measure 34
0001
0010
0100
1000
,  // measure 35
0010
0100
0001
0000
,  // measure 36
1000
0100
0010
0001
,  // measure 37
0100
0010
1000
0000
,  // measure 38
0001
0010
0100
1000
,  // measure 39
0010
0100
0001
0000
,  // measure 40
1001
1001
1000
0100
,  // measure 41
0000
0010
0001
0100
,  // measure 42
0001
0001
1000
1000
,  // measure 43
1001
0110
1001
0000
,  // measure 44
1001
1001
0001
0100
,  // measure 45
0000
0010
1000
0100
,  // measure 46
1000
1000
0001
0001
,  // measure 47
1001
0110
1001
0000
,  // measure 48
2000
0000
0000
0000
,  // measure 49
3002
0000
0000
0000
,  // measure 50
0203
0000
0000
0000
,  // measure 51
0320
0000
0000
0030
;
