#VERSION:0.83;
#TITLE:HONEY;
#SUBTITLE:(Classic Mix);
#ARTIST:MARIAH CAREY;
#TITLETRANSLIT:;
#SUBTITLETRANSLIT:;
#ARTISTTRANSLIT:;
#GENRE:;
#ORIGIN:;
#CREDIT:;
#BANNER:HONEY (Classic Mix).png;
#BACKGROUND:HONEY (Classic Mix)-bg.png;
#PREVIEWVID:;
#JACKET:HONEY (Classic Mix)-jacket.png;
#CDIMAGE:;
#DISCIMAGE:;
#LYRICSPATH:;
#CDTITLE:;
#MUSIC:HONEY (Classic Mix).ogg;
#OFFSET:-0.474000;
#SAMPLESTART:30.780582;
#SAMPLELENGTH:12.000000;
#SELECTABLE:YES;
#BPMS:0.000=125.444;
#STOPS:;
#DELAYS:;
#WARPS:;
#TIMESIGNATURES:0.000=4=4;
#TICKCOUNTS:0.000=4;
#COMBOS:0.000=1;
#SPEEDS:0.000=1.000=0.000=0;
#SCROLLS:0.000=1.000;
#FAKES:;
#LABELS:0.000=Song Start;
#LASTSECONDHINT:107.649910;
#BGCHANGES:15.750=HONEY (Classic Mix).avi=1.000=1=0=0=StretchNoLoop==CrossFade==,
223.500=HONEY (Classic Mix)-bg.png=1.000=1=0=1===CrossFade==,
99999=-nosongbg-=1.000=0=0=0 // don't automatically add -songbackground-
;
#KEYSOUNDS:;
#ATTACKS:
;

//---------------dance-single - ----------------
#NOTEDATA:;
#CHARTNAME:;
#STEPSTYPE:dance-single;
#DESCRIPTION:;
#CHARTSTYLE:;
#DIFFICULTY:Hard;
#METER:8;
#RADARVALUES:0.443112,0.527818,0.077116,0.171369,0.317033,362.000000,353.000000,9.000000,20.000000,0.000000,0.000000,0.000000,0.000000,0.000000,0.443112,0.527818,0.077116,0.171369,0.317033,362.000000,353.000000,9.000000,20.000000,0.000000,0.000000,0.000000,0.000000,0.000000;
#CREDIT:Alchemy Jones;
#NOTES:
0000
0000
0000
0000
,
0000
0000
0000
0000
,
0000
0000
0000
0000
,
0000
0000
0000
0000
0000
0000
0000
0100
,
0002
0000
0000
0000
0000
0010
0000
0000
1003
0000
0000
0000
0000
0000
0100
0000
,
2000
0000
0000
0000
0000
0010
0000
0000
3002
0000
0000
0000
0003
0000
0010
0000
,
0200
0000
0000
0000
0000
0010
0000
0000
1300
0000
0000
0000
0000
0000
0010
0000
,
0200
0000
0000
0000
0000
0010
0000
0000
0301
0000
0000
0000
0000
0000
1000
0000
,
0001
0010
0100
1000
,
0010
0000
0100
0000
0001
0000
1000
0001
,
0010
0100
1000
0001
,
1000
0000
0100
0000
0010
0000
0001
1000
,
0010
0100
0001
1000
,
0001
0000
0010
0000
0100
0000
1000
0010
,
0100
0000
0010
1000
0100
0000
1000
0000
,
0010
1000
0001
1000
0010
1000
0001
0010
,
0001
0100
0001
0100
0001
0000
0001
0010
0000
0100
0000
0010
0000
0000
0001
0000
,
1000
0100
1000
0100
1000
0000
1000
0010
0000
0100
0000
0010
0000
0000
1000
0000
,
0100
0000
0001
0100
0000
0000
1000
0000
0001
0000
0100
1000
0000
0000
0100
0000
,
0001
0000
1000
0100
0000
0000
0001
0000
0200
0000
0000
0000
1300
0000
0000
0000
,
1000
0010
1000
0010
1000
0000
1000
0001
0000
0100
0000
0001
0000
0000
0010
0000
,
0001
0100
0001
0100
0001
0000
0001
1000
0000
0100
0000
1000
0000
0000
0010
0000
,
0100
0000
0100
0001
0000
0001
1000
0000
0100
0000
0100
1000
0000
1000
0001
0000
,
0100
0000
0100
0010
0000
0010
1000
0000
0002
0000
0000
0000
0013
0000
0000
0000
,
1010
0000
0010
1000
0200
0000
0010
0000
,
1300
0000
0001
1000
0200
0000
0000
0000
,
0300
0000
0010
0001
0200
0000
0010
0000
,
0301
0000
1000
0001
0200
0000
0000
0310
,
1000
0000
0001
0000
0000
0010
0000
0000
0100
0000
0000
0000
0000
0000
0010
0000
,
0001
0000
1000
0000
0000
0010
0000
0000
0100
0000
0000
0000
0000
0000
0001
0000
,
0010
0000
0100
0000
0000
1000
0000
0000
0001
0000
0000
0000
0000
0000
1000
0000
,
0010
0000
0100
0000
0000
0001
0000
0000
1000
0000
0020
0000
0000
0000
0000
0000
,
1030
0100
1000
0010
0100
0001
0010
0002
,
1000
0103
0110
1001
,
0001
0100
0001
0010
0100
1000
0010
1000
,
0200
0001
1000
0010
,
1300
0010
0100
0010
1000
0100
0010
0001
,
0100
0000
0010
1000
0010
0000
0000
0100
0001
0100
0001
0000
0010
0000
0000
0000
,
0100
1000
0010
0100
0010
1000
0100
0010
,
0001
0000
0000
0001
0100
0000
0000
0100
0010
0000
0000
0010
1000
0000
0000
1000
,
0001
0010
0011
0000
1000
0001
1001
0000
,
0001
0100
0010
1000
0200
0000
0310
0001
,
1000
0010
1010
0000
0001
1000
1001
0000
,
1000
0100
0010
0001
0200
0000
0010
0000
,
0301
0010
0100
0010
0001
0100
0001
1000
,
0200
0000
0310
0001
2000
0000
3001
0010
,
0100
1000
0010
1000
0100
0010
0001
0010
,
0100
0000
0010
0000
0001
0010
0001
0000
1000
0000
0010
0000
1000
0000
0001
0000
,
1000
0010
1000
0010
1000
0000
1000
0100
0000
0001
0000
0100
0000
0000
1000
0000
,
0001
0010
0001
0010
0001
0000
0001
0100
0000
1000
0000
0100
0000
0000
0001
0000
,
0010
0000
0100
1000
0001
0000
1000
0000
0010
0000
0100
0001
1000
0000
0001
0000
,
0010
0000
0100
1000
0001
0000
0100
0000
0010
0000
0000
0000
1010
0000
0000
0000
,
0001
0100
0001
0100
0001
0000
0001
0010
0000
1000
0000
0010
0000
0000
0001
0000
,
1000
0100
1000
0100
1000
0000
1000
0010
0000
0001
0000
0010
0000
0000
1000
0000
,
0100
0000
0010
0001
0000
1000
0001
0000
0100
0000
0010
1000
0000
0001
1000
0000
,
0100
0000
1000
0010
0000
0100
0010
0000
0210
0000
0000
0000
0002
0000
0000
0000
,
0303
0000
0000
0000
;

//---------------dance-single - ----------------
#NOTEDATA:;
#CHARTNAME:;
#STEPSTYPE:dance-single;
#DESCRIPTION:;
#CHARTSTYLE:;
#DIFFICULTY:Medium;
#METER:5;
#RADARVALUES:0.321930,0.383867,0.128527,0.188506,0.000000,263.000000,248.000000,15.000000,22.000000,0.000000,0.000000,0.000000,0.000000,0.000000,0.321930,0.383867,0.128527,0.188506,0.000000,263.000000,248.000000,15.000000,22.000000,0.000000,0.000000,0.000000,0.000000,0.000000;
#CREDIT:Alchemy Jones;
#NOTES:
0000
0000
0000
0000
,
0000
0000
0000
0000
,
0000
0000
0000
0000
,
0000
0000
0000
0000
,
0010
0000
0001
0000
,
0100
0000
0010
0000
,
1000
0000
0100
0000
,
0010
0000
0001
0000
,
0100
0001
0010
0100
,
1000
0000
0001
0000
0010
0000
0100
1000
,
0010
1000
0100
0010
,
0001
0000
1000
0000
0100
0000
0010
0001
,
0100
0001
0010
0100
,
1000
0000
0001
0000
0010
0000
0100
1000
,
0010
1000
0100
0010
,
0001
1000
0001
1000
0001
0000
0100
0000
,
0001
0010
0001
0010
0100
0010
0100
0000
,
1000
0010
1000
0010
0100
0010
0100
0000
,
0010
1001
0100
1001
,
0010
1000
0001
0010
0100
0000
1001
0000
,
1000
0100
1000
0100
0010
0100
0010
0000
,
0001
0100
0001
0100
0010
0100
0010
0000
,
0100
1001
0010
1001
,
0100
0000
1001
0000
0010
1000
0100
0000
,
1000
0010
0001
0100
,
1000
0000
0010
1000
0200
0000
0300
0000
,
0001
0010
1000
0100
,
0001
0000
0010
0001
0200
0000
0300
0000
,
1000
0100
0001
0010
,
1000
0000
0100
1000
0020
0000
0030
0000
,
0001
0100
1000
0010
,
0001
0000
0100
0001
0020
0000
0030
0000
,
0001
0010
0100
0000
0010
0100
1000
0000
,
0002
0000
1000
0013
,
1000
0010
0100
0000
0010
0100
0001
0000
,
0020
0230
2300
3002
,
1003
0100
0010
0000
0100
0010
0001
0000
,
0010
0001
1000
0000
0010
1000
0100
0000
,
0010
0001
0010
0001
0100
0001
0100
0001
,
2000
0000
3200
0000
0320
0000
0031
1000
,
0200
0300
2000
3000
,
0020
0000
1030
0002
0000
0003
1000
0001
,
0200
0300
0002
0003
,
0020
0000
0031
2000
0000
3000
0000
0000
,
0010
1000
0001
0000
0010
0001
1000
0000
,
1001
0000
0110
0000
1001
0000
0100
1000
,
0001
0000
0100
0001
1000
0000
0010
0000
,
1000
0001
1000
0001
1000
0000
0010
0000
,
1000
0100
1000
0100
0010
0100
0010
0000
,
0001
0100
0001
0100
0010
0100
0010
0000
,
0100
1001
0010
1001
,
0100
0001
1000
0100
0010
0000
1001
0000
,
0001
0010
0001
0010
0100
0010
0100
0000
,
1000
0010
1000
0010
0100
0010
0100
0000
,
0010
1001
0100
1001
,
0010
1001
0020
0200
,
0330
0000
0000
0000
;

//---------------dance-single - ----------------
#NOTEDATA:;
#CHARTNAME:;
#STEPSTYPE:dance-single;
#DESCRIPTION:;
#CHARTSTYLE:;
#DIFFICULTY:Easy;
#METER:2;
#RADARVALUES:0.184834,0.215925,0.102822,0.188506,0.000000,151.000000,139.000000,12.000000,22.000000,0.000000,0.000000,0.000000,0.000000,0.000000,0.184834,0.215925,0.102822,0.188506,0.000000,151.000000,139.000000,12.000000,22.000000,0.000000,0.000000,0.000000,0.000000,0.000000;
#CREDIT:Alchemy Jones;
#NOTES:
// measure 0
0000
0000
0000
0000
,  // measure 1
0000
0000
0000
0000
,  // measure 2
0000
0000
0000
0000
,  // measure 3
0000
0000
0000
0000
,  // measure 4
0100
0000
0001
0000
,  // measure 5
1000
0000
0020
0000
,  // measure 6
1030
0000
0001
0000
,  // measure 7
0200
0000
0300
0000
,  // measure 8
0001
0000
1000
0000
,  // measure 9
0010
1000
0100
0000
,  // measure 10
1000
0000
0001
0000
,  // measure 11
0100
0001
0010
0000
,  // measure 12
0100
0010
0100
0010
,  // measure 13
0001
1000
0001
1000
,  // measure 14
0010
0000
0100
0000
,  // measure 15
0001
0001
0001
0001
,  // measure 16
0100
0001
0010
0000
,  // measure 17
0100
1000
0010
0000
,  // measure 18
1001
0000
0110
0000
,  // measure 19
1001
0000
0000
0000
,  // measure 20
0100
1000
0010
0000
,  // measure 21
0100
0001
0010
0000
,  // measure 22
1001
0000
0110
0000
,  // measure 23
1001
0000
0020
0200
,  // measure 24
0330
0001
0100
1000
,  // measure 25
0010
0002
0000
0003
,  // measure 26
0000
1000
0100
0001
,  // measure 27
0010
2000
0000
3000
,  // measure 28
0000
0001
0010
1000
,  // measure 29
0100
0002
0000
0003
,  // measure 30
0000
1000
0010
0001
,  // measure 31
0100
2000
0000
3000
,  // measure 32
0100
1000
0010
1000
,  // measure 33
0200
0000
0010
0310
,  // measure 34
1000
0100
0010
0001
,  // measure 35
2000
3020
0230
0302
,  // measure 36
0013
0001
0100
0001
,  // measure 37
0020
0000
0200
0330
,  // measure 38
1000
0100
0010
0001
,  // measure 39
0100
0001
0010
0100
,  // measure 40
1000
0000
0010
0000
,  // measure 41
0200
0000
0300
0000
,  // measure 42
0001
0000
0010
0000
,  // measure 43
0200
0000
0300
0000
,  // measure 44
0001
0010
0100
1000
,  // measure 45
0002
0000
0003
0000
,  // measure 46
1000
0010
0100
0001
,  // measure 47
1000
1000
1000
1000
,  // measure 48
0010
1000
0100
0000
,  // measure 49
0010
0001
0100
0000
,  // measure 50
1001
0000
0110
0000
,  // measure 51
2002
0000
3003
0000
,  // measure 52
0010
0001
0100
0000
,  // measure 53
0010
1000
0100
0000
,  // measure 54
1001
0000
0110
0000
,  // measure 55
1001
0000
0200
0020
,  // measure 56
0330
0000
0000
0000
;
