#TITLE:HEAVY METAL AND REFLECTIVE;
#SUBTITLE:;
#ARTIST:AZEALIA BANKS;
#TITLETRANSLIT:;
#SUBTITLETRANSLIT:;
#ARTISTTRANSLIT:;
#GENRE:;
#CREDIT:;
#BANNER:HEAVY METAL AND REFLECTIVE.png;
#BACKGROUND:HEAVY METAL AND REFLECTIVE - bg.png;
#LYRICSPATH:;
#CDTITLE:;
#MUSIC:HEAVY METAL AND REFLECTIVE.ogg;
#OFFSET:-7.087000;
#SAMPLESTART:57.278015;
#SAMPLELENGTH:12.000000;
#SELECTABLE:YES;
#BPMS:0.000000=171.985992
;
#STOPS:
;
#BGCHANGES:-20.000=HEAVY METAL AND REFLECTIVE.avi=1.000=0=0=0=StretchNoLoop==CrossFade_Fastest==,
252.000=HEAVY METAL AND REFLECTIVE - bg.png=1.000=1=0=1===CrossFade==,
99999=-nosongbg-=1.000=0=0=0 // don't automatically add -songbackground-
;
#KEYSOUNDS:;
#ATTACKS:;

//---------------dance-single - ----------------
#NOTES:
     dance-single:
     :
     Hard:
     8:
     0.514508,0.506733,0.028211,0.131649,0.042316,383.000000,380.000000,3.000000,14.000000,0.000000,0.000000,0.514508,0.506733,0.028211,0.131649,0.042316,383.000000,380.000000,3.000000,14.000000,0.000000,0.000000:
// measure 0
0000
0000
0000
0000
,  // measure 1
0000
0000
0000
0000
,  // measure 2
0000
0000
0000
0000
,  // measure 3
0000
0000
0000
0000
,  // measure 4
0001
1000
0100
0000
0100
0000
1000
0001
,  // measure 5
0100
0000
0100
0000
0010
1000
0001
0010
,  // measure 6
0001
1000
0100
0000
0100
0000
1000
0001
,  // measure 7
0100
0000
0100
0000
0001
0100
0010
0100
,  // measure 8
0001
0010
0220
0000
0330
0000
0001
0010
,  // measure 9
0100
0000
0100
0000
1000
0010
0100
0010
,  // measure 10
1000
0100
0010
1000
0010
0100
1000
0010
,  // measure 11
0100
0000
0100
0000
0001
0010
0100
0010
,  // measure 12
0001
0100
1000
0000
1000
0000
1000
0100
,  // measure 13
0001
0000
0001
0000
0001
0010
1000
0000
,  // measure 14
0001
0100
1000
0000
1000
0000
1000
0010
,  // measure 15
0001
0000
0001
0000
1000
0100
0001
0000
,  // measure 16
1000
0100
2200
0000
3300
0000
1000
0100
,  // measure 17
0001
0000
0001
0000
0100
1000
0010
0100
,  // measure 18
1000
0100
0010
1000
0100
0001
0100
0010
,  // measure 19
0001
0000
0001
0000
0100
0010
0001
0010
,  // measure 20
0100
0001
0010
0100
0001
0100
1000
0010
,  // measure 21
0100
0000
0100
0000
0010
1000
0100
0010
,  // measure 22
0100
1000
2020
0000
3030
0000
0001
0100
,  // measure 23
0010
0000
0010
0000
1000
0100
0010
0100
,  // measure 24
1000
0010
0001
0010
0100
0001
0010
0001
,  // measure 25
0100
0000
0100
0000
0010
1000
0100
0001
,  // measure 26
0100
1000
0010
0001
0010
0100
0001
0010
,  // measure 27
1000
0000
1000
0000
0010
0001
0010
0001
,  // measure 28
1000
0100
0001
0000
0001
0000
1000
0010
,  // measure 29
0001
0000
0001
0000
1000
0010
0001
0010
,  // measure 30
1000
0100
0010
1000
0010
0001
0100
0010
,  // measure 31
0100
0000
0100
0000
0001
0010
0001
0100
,  // measure 32
0010
0001
0010
0100
0001
0010
0100
1000
,  // measure 33
0010
0000
0010
0000
0100
0010
1000
0100
,  // measure 34
0010
1000
0010
0100
1000
0010
0100
1000
,  // measure 35
0100
0000
0100
0000
0001
0010
0001
0010
,  // measure 36
0001
1000
0001
0000
0010
0000
0100
0000
0002
0000
0000
0000
0103
0000
1000
0000
,  // measure 37
0001
1000
0010
0100
0010
1000
0200
0000
,  // measure 38
1300
0001
1000
0000
0010
0000
0100
0000
2000
0000
0000
0000
3100
0000
0001
0000
,  // measure 39
0010
0001
1000
0010
0100
0001
0020
0000
,  // measure 40
0031
1000
0001
0000
0100
0000
0010
0000
2000
0000
0000
0000
3100
0000
0010
0000
,  // measure 41
0100
1000
0010
0100
0010
1000
0100
0010
,  // measure 42
0001
1000
0001
0000
0010
0000
0100
0000
0001
0000
0100
0000
1000
0000
0010
0000
,  // measure 43
0001
0000
0001
0000
0010
1000
0010
1000
,  // measure 44
0001
0100
1000
0000
1000
0000
0001
0010
,  // measure 45
1000
0000
1000
0000
0001
0010
1000
0010
,  // measure 46
0100
1000
0010
0100
1000
0100
0001
0010
,  // measure 47
0100
0000
0100
0000
0010
0001
0100
0010
,  // measure 48
0100
0001
0010
0100
0001
0100
1000
0010
,  // measure 49
0100
0000
0100
0000
0001
0010
0001
0100
,  // measure 50
0010
0100
0001
1000
0010
0001
0010
1000
,  // measure 51
0100
0000
0100
0000
0010
0001
1000
0010
,  // measure 52
1000
0001
1000
0000
0001
0000
0100
0000
1000
0000
0000
0000
1000
0000
0100
0000
,  // measure 53
0010
1000
0100
0010
0100
1000
0020
0000
,  // measure 54
1030
0001
1000
0000
0001
0000
0010
0000
1000
0000
0000
0000
1000
0000
0010
0000
,  // measure 55
0100
1000
0010
0100
0010
1000
0200
0000
,  // measure 56
1300
0001
1000
0000
0001
0000
0100
0000
1000
0000
0000
0000
1000
0000
0100
0000
,  // measure 57
0001
0010
0100
0001
0100
1000
0020
0000
,  // measure 58
1030
0001
1000
0001
1000
0000
0100
0000
0010
0000
0000
0000
0010
0000
1000
0000
,  // measure 59
0010
0100
1000
0010
0100
0001
0100
0001
;

//---------------dance-single - ----------------
#NOTES:
     dance-single:
     :
     Medium:
     7:
     0.425846,0.422277,0.206878,0.047018,0.000000,317.000000,295.000000,22.000000,5.000000,0.000000,0.000000,0.425846,0.422277,0.206878,0.047018,0.000000,317.000000,295.000000,22.000000,5.000000,0.000000,0.000000:
0000
0000
0000
0000
,
0000
0000
0000
0000
,
0000
0000
0000
0000
,
0000
0000
0000
0000
,
1000
0000
0100
0000
0010
0000
0001
0100
,
0001
0000
0001
0000
1000
0010
1000
0000
,
0001
1000
0001
0000
1000
0000
0001
0010
,
0001
0000
0001
0000
1000
0100
1000
0000
,
0001
0100
0001
0000
0000
0000
1000
0100
,
1000
0000
1000
0000
0010
1000
0010
0000
,
1000
0001
1000
0001
1000
0000
0001
0100
,
0001
0000
0001
0000
1000
0001
1000
0000
,
0001
0200
0001
0000
0301
0000
1000
0200
,
1000
0000
1300
0000
0001
1000
0001
0000
,
1000
0020
1000
0000
1030
0000
0001
0020
,
0001
0031
1000
0010
,
0100
0000
0101
0000
0000
0000
0001
1000
,
0001
1001
0100
1000
,
0010
0100
0001
0010
,
1001
0110
0001
0010
,
0100
1000
0100
0000
1000
0001
1000
0000
,
1001
0110
1000
0100
,
0010
0001
0020
0000
0030
0000
0001
0100
,
0001
0001
1000
0010
,
0100
0001
0100
0000
0001
1000
0001
0000
,
1001
0110
0001
0100
,
0010
1000
0010
1000
0001
1000
0001
1000
,
0100
0000
0100
0000
1000
0001
1000
0001
,
0010
0000
0010
0000
0010
0000
0010
0001
,
0100
0000
0100
0000
0100
0001
0010
0000
,
0010
0001
0100
0000
0100
0000
0100
0001
,
0010
0000
0010
0000
0010
0001
0100
0000
,
0010
0000
1000
0000
0100
0000
1000
0001
,
1000
1000
0001
0100
,
0010
0100
0010
0000
1000
0010
1000
0000
,
0110
0000
1001
0000
0001
0010
0001
0010
,
0100
1000
0010
0001
,
0110
0000
1001
0000
1000
0100
1000
0000
,
0001
0100
0001
0000
0100
0010
0100
0000
,
1001
0000
0110
0000
0001
0010
0001
0000
,
1000
0010
1000
0000
0001
0000
0010
0000
,
0110
1001
1000
0100
,
0010
0001
0010
0001
0100
0001
0100
0001
,
1000
0000
1000
0000
0010
1000
0010
1000
,
0100
0000
0100
0000
0100
0000
0100
1000
,
0010
0000
0010
0000
0010
1000
0100
0000
,
0100
1000
0010
0000
0010
0000
0010
1000
,
0100
0000
0100
0000
0100
1000
0010
0000
,
0010
1000
0010
1000
0100
1000
0100
1000
,
0001
0001
0010
0100
,
1000
0010
1000
0000
0001
0010
0001
0000
,
1001
0110
0001
0010
,
0001
0100
0001
0000
0001
0000
1000
0100
,
1000
1000
0010
0100
,
0001
0010
0001
0000
1000
0010
1000
0000
,
0110
1001
1000
0100
,
0010
0100
0010
0000
0100
0010
0100
0000
,
1001
0110
0001
0100
,
0010
1000
0010
1000
0100
1000
0100
1000
,
0001
0000
0001
0000
1000
0100
1000
0100
;

//---------------dance-single - ----------------
#NOTES:
     dance-single:
     :
     Easy:
     5:
     0.300913,0.280931,0.018807,0.000000,0.000000,224.000000,222.000000,2.000000,0.000000,0.000000,0.000000,0.300913,0.280931,0.018807,0.000000,0.000000,224.000000,222.000000,2.000000,0.000000,0.000000,0.000000:
0000
0000
0000
0000
,
0000
0000
0000
0000
,
0000
0000
0000
0000
,
0000
0000
0000
0000
,
0001
0100
1000
0010
,
0001
0001
0010
1000
,
0100
0001
0010
1000
,
0100
0100
1000
0010
,
0001
1001
0000
0100
,
1000
0010
0001
0100
,
1000
0010
0001
0100
,
1000
1000
0100
0001
,
1000
1000
1000
1000
,
0001
0001
1000
1000
,
0001
0001
0001
0001
,
1000
1000
0001
0001
,
1000
1000
1000
1000
,
0001
0001
1000
1000
,
0001
0001
0001
0001
,
1000
1000
0001
0001
,
1000
0100
0001
0010
,
1000
1000
0010
0001
,
0100
1001
0000
0001
,
0010
1000
0100
0001
,
0010
1000
0100
0001
,
0010
0010
0001
0100
,
1000
0010
0001
0100
,
1000
1000
0001
0001
,
0100
0100
0100
0100
,
0010
0010
0100
0100
,
0010
0010
0010
0010
,
0100
0100
0010
0010
,
0100
0100
0100
0100
,
0010
0010
0100
0100
,
0010
0010
0010
0010
,
0100
0100
0010
0010
,
1000
0100
0001
0010
,
1000
1000
0010
0001
,
0100
1000
0010
0001
,
0100
0100
0001
0010
,
1000
0100
0001
0010
,
1000
1000
0001
0010
,
0001
0100
1000
0010
,
1000
1000
0100
0100
,
0001
0001
0001
0001
,
0100
0100
1000
1000
,
0010
0010
0010
0010
,
1000
1000
0100
0100
,
0001
0001
0001
0001
,
0010
0010
1000
1000
,
0100
0100
0001
0001
,
0001
0001
0100
0100
,
1000
0010
0001
1000
,
0010
0001
1000
1000
,
0001
0010
1000
0001
,
0010
1000
0001
0001
,
1000
0100
0001
1000
,
0100
0001
1000
1000
,
0001
0100
1000
0001
,
0100
1000
0001
0001
;
