#VERSION:0.83;
#TITLE:GOT ME BURNIN';
#SUBTITLE:;
#ARTIST:KYLE STARKEY;
#TITLETRANSLIT:;
#SUBTITLETRANSLIT:;
#ARTISTTRANSLIT:;
#GENRE:;
#ORIGIN:;
#CREDIT:;
#BANNER:;
#BACKGROUND:GOT ME BURNIN-bg.png;
#PREVIEWVID:;
#JACKET:GOT ME BURNIN - jacket.jpg;
#CDIMAGE:;
#DISCIMAGE:;
#LYRICSPATH:;
#CDTITLE:;
#MUSIC:GOT ME BURNIN.ogg;
#OFFSET:-0.023000;
#SAMPLESTART:24.218815;
#SAMPLELENGTH:12.000000;
#SELECTABLE:YES;
#BPMS:0.000=135.014;
#STOPS:;
#DELAYS:;
#WARPS:;
#TIMESIGNATURES:0.000=4=4;
#TICKCOUNTS:0.000=4;
#COMBOS:0.000=1;
#SPEEDS:0.000=1.000=0.000=0;
#SCROLLS:0.000=1.000;
#FAKES:;
#LABELS:0.000=Song Start;
#BGCHANGES:23.500=GOT ME BURNIN.avi=1.000=1=0=1===CrossFade==,
215.000=GOT ME BURNIN-bg.png=1.000=1=0=1===CrossFade==,
99999=-nosongbg-=1.000=0=0=0 // don't automatically add -songbackground-
;
#KEYSOUNDS:;
#ATTACKS:
;

//---------------dance-single - ----------------
#NOTEDATA:;
#CHARTNAME:;
#STEPSTYPE:dance-single;
#DESCRIPTION:;
#CHARTSTYLE:;
#DIFFICULTY:Hard;
#METER:7;
#RADARVALUES:0.503653,0.487124,0.516421,0.258211,0.203589,355.000000,303.000000,52.000000,26.000000,0.000000,0.000000,0.000000,0.000000,0.000000,0.503653,0.487124,0.516421,0.258211,0.203589,355.000000,303.000000,52.000000,26.000000,0.000000,0.000000,0.000000,0.000000,0.000000;
#CREDIT:Alchemy Jones;
#NOTES:
0000
0000
0000
0000
,
0000
0000
0000
0000
,
0011
0000
0000
0000
0000
0000
0010
0000
0000
0000
0001
0000
0000
1000
0000
0000
,
1010
0000
0000
0000
0010
0000
1000
0000
0000
0000
0001
0000
0100
0010
0100
0000
,
0101
0000
0000
0000
0000
0000
0100
0000
0000
0000
0001
0000
0000
1000
0000
0000
,
1100
0000
0000
0000
1000
0000
0001
0000
0000
1000
0100
1000
0100
1000
0100
0000
,
1001
0000
0000
0000
0000
0000
1000
0000
0000
1000
0000
0000
0100
0000
0010
0000
,
0001
0000
0000
0001
0000
0000
0001
0000
0100
0000
0000
0100
0000
0000
0100
0000
,
1001
0000
0000
0000
0000
0000
0001
0000
0000
0001
0000
0000
0100
0000
0010
0000
,
1000
0000
0000
1000
0000
0000
1000
0000
0100
0000
0000
0100
0000
0000
0100
0000
,
1001
0000
0000
0000
1000
0000
0100
0000
0000
0010
0000
0000
0001
0000
0100
0000
,
1001
0000
0000
0000
0001
0000
0100
0000
0000
0010
0000
0000
1000
0000
0100
0000
,
2002
3003
0220
0330
,
1001
0110
2002
3003
,
1001
0000
0000
0000
0001
0000
0101
0000
0000
0100
0000
0000
0001
0000
1000
0000
,
0010
0000
0000
0010
0000
0000
0010
0000
0100
0000
0000
0100
0000
0000
0100
0000
,
1001
0000
0000
0000
1000
0000
1100
0000
0000
0100
0000
0000
1000
0000
0001
0000
,
0010
0000
0000
0010
0000
0000
0010
0000
0100
0000
0000
0100
0000
0000
0100
0000
,
1001
0000
0000
0000
1000
0000
1100
0000
0000
0010
0000
0000
0001
0000
1000
0000
,
0001
0000
0000
0001
0000
0000
0001
0000
1000
0000
0000
1000
0000
0000
1000
0000
,
1001
0000
0000
0000
0001
0000
0101
0000
0000
0001
0000
0000
1000
0000
0001
0000
,
1000
0100
1000
0100
0010
0001
0010
0001
,
0000
1000
0100
0001
0000
1000
0100
0001
,
2100
0000
3001
0201
0000
0301
0010
0100
,
0000
0001
0100
1000
0000
0001
0100
1000
,
0102
0000
1003
1200
0000
1300
0010
0100
,
0000
1000
0100
0001
0000
1000
0100
0001
,
2100
0000
3001
0201
0000
0301
0010
0100
,
0000
0001
0100
1000
0000
0001
0100
1000
,
0102
0000
1003
1200
0000
1300
0010
0100
,
1001
0000
0000
0000
0000
0000
0100
0000
0000
1000
0000
0000
0001
0000
0100
0000
,
0010
0000
0000
1000
0000
0000
0010
0000
0100
0000
0000
0001
0000
0000
0100
0000
,
0010
0000
0000
0000
0000
0000
0100
0000
0000
0001
0000
0000
1000
0000
0100
0000
,
0010
0000
0000
0001
0000
0000
0010
0000
0100
0000
0000
1000
0000
0000
0100
0000
,
0010
0000
0000
0000
0000
0000
0001
0000
0000
0010
0000
0000
0100
0000
0001
0000
,
0100
0000
0000
0010
0000
0000
0100
0000
1000
0000
0000
0001
0000
0000
1000
0000
,
0020
0000
0030
0200
0000
0000
0300
0000
,
0101
1010
2002
3003
,
0011
0000
0000
0000
0001
0000
0101
0000
0000
0010
0000
1000
0100
0000
0010
0000
,
0001
1000
0001
0100
0000
0001
1000
0010
,
1010
0000
0000
0000
1000
0000
1100
0000
0000
0010
0000
0001
0100
0000
0010
0000
,
1000
0001
1000
0100
0000
1000
0010
0100
,
0101
0000
0000
0000
0001
0000
1001
0000
0000
0100
0000
1000
0001
0000
0100
0000
,
0010
1000
0010
0100
0000
0001
0010
0100
,
1100
0000
0000
0000
1000
0000
1001
0000
0000
0100
0000
0001
1000
0000
0100
0000
,
0010
0001
0010
0100
0010
0001
0010
0100
,
0000
1000
0010
0001
0000
1000
0010
0001
,
2010
0000
3001
0021
0000
0031
0100
0010
,
0000
0001
0010
1000
0000
0001
0010
1000
,
0012
0000
1003
1020
0000
1030
0100
0010
,
0000
1000
0010
0001
0000
1000
0010
0001
,
2010
0000
3001
0021
0000
0031
0100
0010
,
0000
0001
0010
1000
0000
0001
0010
1000
,
0011
1100
1010
0101
,
2002
0000
3003
0000
;

//---------------dance-single - ----------------
#NOTEDATA:;
#CHARTNAME:;
#STEPSTYPE:dance-single;
#DESCRIPTION:;
#CHARTSTYLE:;
#DIFFICULTY:Medium;
#METER:6;
#RADARVALUES:0.438391,0.405937,0.178761,0.158899,0.000000,309.000000,291.000000,18.000000,16.000000,0.000000,0.000000,0.000000,0.000000,0.000000,0.438391,0.405937,0.178761,0.158899,0.000000,309.000000,291.000000,18.000000,16.000000,0.000000,0.000000,0.000000,0.000000,0.000000;
#CREDIT:Alchemy Jones;
#NOTES:
// measure 0
0000
0000
0000
0000
,  // measure 1
0000
0000
0000
0000
,  // measure 2
0001
0000
0000
1000
0000
0100
0000
1000
,  // measure 3
0001
0000
0100
0001
0000
1000
0010
1000
,  // measure 4
0001
0000
0000
0010
0000
0100
0000
1000
,  // measure 5
0001
0000
0010
0001
1000
1000
0100
0010
,  // measure 6
0001
0000
1000
0100
0000
0010
0001
0000
,  // measure 7
1000
0010
0100
0001
0000
0001
0010
0100
,  // measure 8
1000
0000
0001
0010
0000
0100
1000
0000
,  // measure 9
0001
0100
0010
1000
0000
1000
0010
0100
,  // measure 10
0001
0000
1000
0010
0000
0100
0001
0000
,  // measure 11
1001
0000
0001
0010
0000
0100
1000
0000
,  // measure 12
1001
0000
0110
0000
,  // measure 13
1001
0110
1001
0000
,  // measure 14
0001
0000
0100
0010
0000
1000
0001
1000
,  // measure 15
0100
0010
0001
0100
0000
0010
1000
0001
,  // measure 16
1000
0000
0100
0010
0000
0001
1000
0001
,  // measure 17
0100
0010
1000
0100
0000
0010
0001
1000
,  // measure 18
0001
0000
0010
0100
0000
1000
0001
1000
,  // measure 19
0100
0010
0001
0100
0000
0010
1000
0001
,  // measure 20
1000
0000
0010
0100
0000
0001
1000
0001
,  // measure 21
1000
0100
1000
0100
0010
0100
0010
0100
,  // measure 22
0000
0010
0001
0100
0000
0010
0001
0100
,  // measure 23
0020
0000
1030
0002
0000
1003
0010
0100
,  // measure 24
0000
0010
1000
0100
0000
0010
1000
0100
,  // measure 25
0020
0000
0031
2000
0000
3001
0010
0100
,  // measure 26
0000
0100
1000
0010
0000
0100
1000
0010
,  // measure 27
0200
0000
0301
2000
0000
3001
0100
0010
,  // measure 28
0000
0100
0001
0010
0000
0100
0001
0010
,  // measure 29
0200
0000
1300
0002
0000
1003
0100
0000
,  // measure 30
1001
0000
0000
0000
1000
0000
0001
0100
,  // measure 31
1000
0000
1000
0100
0001
0000
1000
0000
,  // measure 32
1001
0000
0000
0000
0001
0000
1000
0100
,  // measure 33
0001
0000
0001
0100
1000
0000
0001
0000
,  // measure 34
1001
0000
0000
0000
1000
0000
0001
0100
,  // measure 35
1000
0000
1000
0100
0001
0000
1000
0000
,  // measure 36
1001
0000
0001
0000
,  // measure 37
1001
0110
1001
0000
,  // measure 38
1000
0000
0100
0010
0000
0001
1000
0001
,  // measure 39
0100
0010
1000
0100
0000
0010
0001
1000
,  // measure 40
0001
0000
0100
0010
0000
1000
0001
1000
,  // measure 41
0100
0010
0001
0100
0000
0010
1000
0001
,  // measure 42
1000
0000
0010
0100
0000
0001
1000
0001
,  // measure 43
0100
0010
1000
0100
0000
0010
0001
1000
,  // measure 44
0001
0000
0010
0100
0000
1000
0001
1000
,  // measure 45
0001
0100
0001
0100
0010
0100
0010
0100
,  // measure 46
0000
0010
1000
0100
0000
0010
1000
0100
,  // measure 47
0020
0000
0031
2000
0000
3001
0010
0100
,  // measure 48
0000
0010
0001
0100
0000
0010
0001
0100
,  // measure 49
0020
0000
1030
0002
0000
1003
0010
0100
,  // measure 50
0000
0100
0001
0010
0000
0100
0001
0010
,  // measure 51
0200
0000
1300
0002
0000
1003
0100
0010
,  // measure 52
0000
0100
1000
0010
0000
0010
0100
0000
,  // measure 53
1001
0110
1001
0110
,  // measure 54
2002
0000
3003
0000
;

//---------------dance-single - ----------------
#NOTEDATA:;
#CHARTNAME:;
#STEPSTYPE:dance-single;
#DESCRIPTION:;
#CHARTSTYLE:;
#DIFFICULTY:Easy;
#METER:3;
#RADARVALUES:0.225580,0.324749,0.158899,0.099312,0.000000,159.000000,143.000000,16.000000,10.000000,0.000000,0.000000,0.000000,0.000000,0.000000,0.225580,0.324749,0.158899,0.099312,0.000000,159.000000,143.000000,16.000000,10.000000,0.000000,0.000000,0.000000,0.000000,0.000000;
#CREDIT:Alchemy Jones;
#NOTES:
0000
0000
0000
0000
,
0000
0000
0000
0000
,
1000
0000
0001
0010
,
0100
0000
1000
0000
,
0001
0000
1000
0010
,
0100
0000
0001
0000
,
1001
0000
0001
0000
,
1000
0001
0100
0000
,
0001
0000
1000
0000
,
0001
1000
0100
0000
,
1001
0000
0001
0000
,
1001
0000
1000
0000
,
1001
0000
1001
0000
,
1001
1001
1001
0000
,
0002
0003
0100
0000
,
0010
1000
0100
0000
,
2000
3000
0100
0000
,
0010
0001
0100
0000
,
0002
0003
0100
0000
,
0010
1000
0100
0000
,
2000
3000
0100
0000
,
0010
0100
0010
0100
,
1000
0000
0001
0000
,
0001
0010
0001
0100
,
0001
0000
1000
0000
,
1000
0010
1000
0100
,
1000
0000
0001
0000
,
0001
0100
0001
0010
,
0001
0000
1000
0000
,
1000
0100
1000
0010
,
1000
0000
0100
0000
,
0010
0001
0100
1000
,
0010
0000
0100
0000
,
0010
1000
0100
0001
,
0010
0000
0100
0000
,
0010
0001
0100
1000
,
0010
0000
0100
0000
,
1001
1001
1001
0000
,
2000
3000
0100
0000
,
0010
0001
0100
0000
,
0002
0003
0100
0000
,
0010
1000
0100
0000
,
2000
3000
0100
0000
,
0010
0001
0100
0000
,
0002
0003
0100
0000
,
0010
0100
0010
0100
,
0001
0000
1000
0000
,
1000
0010
1000
0100
,
1000
0000
0001
0000
,
0001
0010
0001
0100
,
0001
0000
1000
0000
,
1000
0100
1000
0010
,
1000
0000
0001
0000
,
1001
0110
1001
0110
,
2002
0000
3003
0000
;
