#VERSION:0.83;
#TITLE:GIMME MORE;
#SUBTITLE:;
#ARTIST:BRITNEY SPEARS;
#TITLETRANSLIT:;
#SUBTITLETRANSLIT:;
#ARTISTTRANSLIT:;
#GENRE:;
#ORIGIN:;
#CREDIT:;
#BANNER:GIMME MORE.png;
#BACKGROUND:GIMME MORE-bg.png;
#PREVIEWVID:;
#JACKET:GIMME MORE-jacket.png;
#CDIMAGE:;
#DISCIMAGE:;
#LYRICSPATH:;
#CDTITLE:;
#MUSIC:GIMME MORE.ogg;
#OFFSET:-1.500000;
#SAMPLESTART:45.927010;
#SAMPLELENGTH:12.000000;
#SELECTABLE:YES;
#BPMS:0.000=113.334;
#STOPS:;
#DELAYS:;
#WARPS:;
#TIMESIGNATURES:0.000=4=4;
#TICKCOUNTS:0.000=4;
#COMBOS:0.000=1;
#SPEEDS:0.000=1.000=0.000=0;
#SCROLLS:0.000=1.000;
#FAKES:;
#LABELS:0.000=Song Start;
#LASTSECONDHINT:107.947601;
#BGCHANGES:-2.833=GIMME MORE.avi=1.000=1=0=0=StretchNoLoop==CrossFade==,
201.000=GIMME MORE-bg.png=1.000=1=0=1===CrossFade==,
99999=-nosongbg-=1.000=0=0=0 // don't automatically add -songbackground-
;
#KEYSOUNDS:;
#ATTACKS:
;

//---------------dance-single - ----------------
#NOTEDATA:;
#CHARTNAME:;
#STEPSTYPE:dance-single;
#DESCRIPTION:;
#CHARTSTYLE:;
#DIFFICULTY:Hard;
#METER:7;
#RADARVALUES:0.420626,0.430671,0.307622,0.413092,0.096681,335.000000,300.000000,35.000000,47.000000,0.000000,0.000000,0.000000,0.000000,0.000000,0.420626,0.430671,0.307622,0.413092,0.096681,335.000000,300.000000,35.000000,47.000000,0.000000,0.000000,0.000000,0.000000,0.000000;
#CREDIT:Alchemy Jones;
#NOTES:
0000
0000
0000
0000
,
1000
0000
0000
1000
0001
0000
0100
0000
0000
0000
0001
0000
0000
0000
0001
0000
,
0100
0000
0000
0100
0010
0000
1000
0000
0000
0000
0100
0000
0000
0000
0100
0000
,
1000
0000
0000
1000
0001
0000
0100
0000
0000
0000
0001
0000
0000
0000
0001
0000
,
0100
0000
0000
0100
0010
0000
1000
0000
0000
0000
0100
0000
0000
0000
0100
0000
,
1000
0000
0000
1000
0001
0000
0010
0000
0001
0000
1000
0000
0010
0000
0100
0000
,
0002
2000
0000
3003
,
0000
0000
1000
0010
1000
0001
0010
0100
,
2000
0000
3100
0010
0002
0000
0103
0010
,
1000
0100
1000
0010
1000
0001
0010
0100
,
2000
3002
0010
1000
,
0103
0000
0001
0010
0001
1000
0010
0100
,
0000
0100
0001
2000
0000
0100
3100
0000
,
0010
0001
0100
2000
0000
3100
0010
0002
,
0000
0013
0100
2000
0000
3100
0001
0100
,
0001
1000
0000
0000
0000
0001
0010
0001
,
0010
0100
1000
0100
1000
0010
0000
0000
,
0010
1000
0100
0002
0000
0103
0010
2000
,
0000
3010
0100
0002
0000
0103
1000
0100
,
1000
0001
0000
0000
0000
1000
0010
0001
,
0000
0010
0100
0001
1000
0100
0010
0001
,
1000
1000
0001
0001
1020
0000
1030
1000
,
0021
0000
0031
0001
1010
1000
0021
0000
,
0031
0001
1000
1000
0021
0000
0031
0001
,
1020
0000
1030
1000
0011
0001
1020
0000
,
1030
1000
0001
0001
1200
0000
1300
1000
,
0201
0000
0301
0001
1100
1000
0201
0000
,
0301
0001
1000
1000
0201
0000
0301
0001
,
1200
0000
1300
1000
0101
0001
1200
0000
,
1300
0000
0000
1000
0010
0000
0000
0000
0100
0000
0000
0100
0001
0000
0000
0000
,
0010
0000
0000
0010
1000
0000
0000
0000
0001
0000
0000
0001
0100
0000
0000
0000
,
1000
0000
0000
1000
0010
0000
0000
0000
0001
0000
0000
0001
0010
0000
0000
0000
,
1000
0000
0000
0001
0000
0000
0100
0001
0100
0001
0100
0000
1010
0000
0000
0000
,
0010
1000
0100
0002
0000
0103
0010
2000
,
0000
3010
0100
0002
0000
1003
0010
0200
,
0000
1300
0010
0002
0000
1003
0100
0010
,
0001
0000
0000
0010
0000
0000
1000
0100
1000
0100
1000
0000
0011
0000
0000
0000
,
0001
0001
1000
1000
0201
0000
0301
0001
,
1200
0000
1300
1000
0101
0001
1200
0000
,
1300
1000
0001
0001
1200
0000
1300
1000
,
0201
0000
0301
0001
1100
1000
0201
0000
,
0301
0001
1000
1000
0021
0000
0031
0001
,
1020
0000
1030
1000
0011
0001
1020
0000
,
1030
1000
0001
0001
1020
0000
1030
1000
,
0021
0000
0031
0001
1010
1000
0021
0000
,
0031
0000
0001
0010
0100
0000
0100
1000
0002
0000
0000
0000
1000
0000
1003
0000
,
0000
0010
0010
1000
0001
0000
0010
0020
,
0000
0200
0000
0000
0330
0000
0000
0000
,
0001
0000
0000
0010
0000
0000
0001
0100
0001
0100
0001
0000
2020
0000
0000
0000
,
3030
0000
0000
0000
;

//---------------dance-single - ----------------
#NOTEDATA:;
#CHARTNAME:;
#STEPSTYPE:dance-single;
#DESCRIPTION:;
#CHARTSTYLE:;
#DIFFICULTY:Medium;
#METER:5;
#RADARVALUES:0.337756,0.323003,0.184573,0.351568,0.000000,269.000000,248.000000,21.000000,40.000000,0.000000,0.000000,0.000000,0.000000,0.000000,0.337756,0.323003,0.184573,0.351568,0.000000,269.000000,248.000000,21.000000,40.000000,0.000000,0.000000,0.000000,0.000000,0.000000;
#CREDIT:Alchemy Jones;
#NOTES:
0000
0000
0000
0000
,
0010
1001
0100
1001
,
0010
1001
0100
1001
,
0001
0110
1000
0110
,
0001
0110
1000
0110
,
0001
0000
0010
0001
0100
0001
1000
0000
,
0200
2000
0000
3300
,
0000
0000
0001
0000
0010
0001
0100
0001
,
2000
0000
3010
0200
0000
0300
0001
2000
,
0000
3000
0010
0000
0100
0001
0010
0001
,
2000
0000
0010
0010
,
3100
0000
0000
0000
0001
0010
0100
0000
,
0010
0100
1000
0000
0001
0000
1001
0000
,
0010
1000
0100
0001
,
0010
1000
0100
0000
0010
0001
0100
0010
,
0100
0000
0001
0010
0001
0000
1000
0010
,
1000
0100
0010
0000
0110
0000
1001
0000
,
0010
0001
0100
1000
,
0010
0001
0100
0000
0010
1000
0100
0010
,
0100
0000
1000
0010
1000
0000
0001
0010
,
0001
0100
0010
0000
0110
0000
1001
0000
,
0010
1000
0010
1000
0002
0000
0103
0001
,
2000
0000
3010
1000
0010
1000
0002
0000
,
0013
0001
0010
0001
2000
0000
3100
1000
,
0002
0000
0013
0001
0010
0001
2000
0000
,
3100
1000
0100
1000
0002
0000
0013
0001
,
2000
0000
3100
1000
0100
1000
0002
0000
,
0103
0001
0100
0001
2000
0000
3010
1000
,
0002
0000
0103
0001
0100
0001
2000
0000
,
3001
0101
1000
1100
,
0001
0101
1000
1100
,
0001
0011
1000
1010
,
0001
0000
0011
0000
1000
0010
0100
0000
,
0001
0000
1000
0020
0000
0030
0100
0002
,
0000
0003
0010
0200
0000
0300
1000
0002
,
0000
0003
0010
0200
0000
0300
1001
0000
,
0001
0000
0001
0000
0001
0100
0010
0000
,
0100
0001
0100
0001
2000
0000
3010
1000
,
0002
0000
0103
0001
0100
0001
2000
0000
,
3100
1000
0100
1000
0002
0000
0013
0001
,
2000
0000
3100
1000
0100
1000
0002
0000
,
0013
0001
0010
0001
2000
0000
3100
1000
,
0002
0000
0013
0001
0010
0001
2000
0000
,
3010
1000
0010
1000
0002
0000
0103
0001
,
2000
0000
3010
1000
0010
1000
0002
0000
,
0013
0000
0001
1000
0200
0000
0300
0000
,
0000
1000
0001
0200
0000
0300
0010
2000
,
0000
0002
0000
0000
3003
0000
0000
0000
,
0100
0000
0001
0000
0010
0001
0200
0000
,
0300
0000
0000
0000
;

//---------------dance-single - ----------------
#NOTEDATA:;
#CHARTNAME:;
#STEPSTYPE:dance-single;
#DESCRIPTION:;
#CHARTSTYLE:;
#DIFFICULTY:Easy;
#METER:3;
#RADARVALUES:0.193362,0.279936,0.105470,0.281254,0.000000,154.000000,142.000000,12.000000,32.000000,0.000000,0.000000,0.000000,0.000000,0.000000,0.193362,0.279936,0.105470,0.281254,0.000000,154.000000,142.000000,12.000000,32.000000,0.000000,0.000000,0.000000,0.000000,0.000000;
#CREDIT:Alchemy Jones;
#NOTES:
// measure 0
0000
0000
0000
0000
,  // measure 1
0010
0000
0001
0000
,  // measure 2
0100
0000
1000
0000
,  // measure 3
0010
0000
1000
0000
,  // measure 4
0100
0000
0001
0000
,  // measure 5
0010
0010
0010
0000
,  // measure 6
0200
0000
0000
0300
,  // measure 7
1000
1000
1000
0000
,  // measure 8
0100
0000
0001
0000
,  // measure 9
0100
0000
0010
0010
,  // measure 10
0020
0000
0100
0100
,  // measure 11
0130
0000
0010
0000
,  // measure 12
0001
0000
0100
0000
,  // measure 13
0001
0010
0001
0010
,  // measure 14
0100
1000
0100
1000
,  // measure 15
0200
0300
0010
0000
,  // measure 16
0001
0000
0100
0000
,  // measure 17
1000
0010
1000
0010
,  // measure 18
0100
0001
0100
0001
,  // measure 19
0200
0300
0010
0000
,  // measure 20
1000
0000
0100
0000
,  // measure 21
1000
0001
2000
3001
,  // measure 22
0002
1003
0001
2000
,  // measure 23
3100
0010
0200
0310
,  // measure 24
0020
0130
0010
0200
,  // measure 25
1300
0001
2000
3001
,  // measure 26
0002
1003
0001
2000
,  // measure 27
3010
0100
0020
0130
,  // measure 28
0200
0310
0100
0020
,  // measure 29
0130
0000
0001
0000
,  // measure 30
0010
0000
1000
0000
,  // measure 31
0100
0000
0001
0000
,  // measure 32
0010
0010
0020
0000
,  // measure 33
0130
0000
1000
0000
,  // measure 34
0010
0000
0001
0000
,  // measure 35
0100
0000
1000
0000
,  // measure 36
0010
0010
0020
0000
,  // measure 37
1030
1000
2001
3001
,  // measure 38
1002
1003
1000
2001
,  // measure 39
3100
0100
0210
0310
,  // measure 40
0120
0130
0100
0210
,  // measure 41
1300
1000
2001
3001
,  // measure 42
1002
1003
1000
2001
,  // measure 43
3010
0010
0210
0310
,  // measure 44
0120
0130
0100
0120
,  // measure 45
2030
0000
0000
3000
,  // measure 46
0010
0000
1000
0000
,  // measure 47
0100
0000
0001
0000
,  // measure 48
0010
0001
0100
2000
,  // measure 49
3000
0000
0000
0000
;
