#VERSION:0.83;
#TITLE:GET TOGETHER;
#SUBTITLE:;
#ARTIST:MADONNA;
#TITLETRANSLIT:;
#SUBTITLETRANSLIT:;
#ARTISTTRANSLIT:;
#GENRE:;
#ORIGIN:;
#CREDIT:;
#BANNER:GET TOGETHER.png;
#BACKGROUND:GET TOGETHER - bg.png;
#PREVIEWVID:;
#JACKET:GET TOGETHER - jacket.png;
#CDIMAGE:GET TOGETHER - jacket.jpg;
#DISCIMAGE:;
#LYRICSPATH:;
#CDTITLE:;
#MUSIC:GET TOGETHER.ogg;
#OFFSET:-0.470000;
#SAMPLESTART:92.333450;
#SAMPLELENGTH:12.000000;
#SELECTABLE:YES;
#BPMS:0.000=124.000;
#STOPS:;
#DELAYS:;
#WARPS:;
#TIMESIGNATURES:0.000=4=4;
#TICKCOUNTS:0.000=4;
#COMBOS:0.000=1;
#SPEEDS:0.000=1.000=0.000=0;
#SCROLLS:0.000=1.000;
#FAKES:;
#LABELS:0.000=Song Start;
#LASTSECONDHINT:108.893570;
#BGCHANGES:-0.500=GET TOGETHER.avi=1.000=0=0=0=StretchNoLoop==CrossFade_Fastest==,
222.000=GET TOGETHER - bg.png=1.000=1=0=1===CrossFade==,
99999=-nosongbg-=1.000=0=0=0 // don't automatically add -songbackground-
;
#KEYSOUNDS:;
#ATTACKS:
;

//---------------dance-single - ----------------
#NOTEDATA:;
#CHARTNAME:;
#STEPSTYPE:dance-single;
#DESCRIPTION:;
#CHARTSTYLE:;
#DIFFICULTY:Hard;
#METER:8;
#RADARVALUES:0.482235,0.506347,0.146393,0.025834,0.284174,392.000000,375.000000,17.000000,3.000000,0.000000,0.000000,0.000000,0.000000,0.000000,0.482235,0.506347,0.146393,0.025834,0.284174,392.000000,375.000000,17.000000,3.000000,0.000000,0.000000,0.000000,0.000000,0.000000;
#CREDIT:Alchemy Jones;
#NOTES:
0000
0000
0000
0000
,
0000
0000
0000
0000
,
0000
0000
0000
0000
,
0000
0000
0000
0000
,
1000
0000
0000
0000
0010
0000
0000
0000
0100
0000
0000
0001
0010
0000
0000
0000
,
0100
0000
0000
0000
1000
0000
0000
0000
0010
0000
0000
0100
0001
0000
0000
0000
,
0010
0000
0000
0000
0001
0000
0000
0000
1000
0000
0000
0010
0100
0000
0000
0000
,
0001
0000
0000
0000
0010
0000
0000
0000
0100
0000
0000
1000
0010
0000
0000
0000
,
0100
0000
0000
0000
0001
0000
0000
0000
0010
0000
0000
0100
1000
0000
0000
0000
,
0010
0000
0000
0000
1000
0000
0000
0000
0001
0000
0000
0010
0100
0000
0000
0000
,
0010
0000
0000
0010
0001
0000
0000
0001
1000
0000
0000
1000
0010
0000
0000
0010
,
0100
0100
1001
0000
0100
0100
1001
0000
,
0100
0100
1001
0000
0001
1000
0100
0000
,
0010
0010
1001
0000
0010
0010
1001
0000
,
0010
0010
1001
0000
1000
0001
0010
0000
,
0100
0100
1001
0000
0010
0010
1001
0000
,
0100
0100
1001
0000
0001
0100
1000
0000
,
0100
0100
0001
0010
0100
0100
1000
0010
,
0100
0100
0001
0000
0102
0000
1003
0000
,
1100
0000
0011
0000
1000
0010
0100
0000
,
0010
0100
0001
0000
1000
0100
0010
0100
,
1000
0010
0100
0000
0001
1000
0100
0000
,
1000
0001
0100
0000
0001
0010
1000
0010
,
0001
0000
1010
0000
0001
0010
0100
0000
,
0010
0100
1000
0000
0001
0100
0010
0100
,
0001
0010
0100
0000
1000
0010
0100
0001
,
0010
0100
1000
0001
0100
0010
1000
0100
,
1000
0000
0000
0000
0101
0000
0000
0000
1000
0000
0010
0000
1000
0000
0100
0010
,
0000
0000
0001
0000
0000
0100
0000
0000
0001
0000
0000
1000
0000
0000
0100
0000
,
1000
0010
1000
0000
0100
0000
0100
0000
0010
0001
0010
0000
0100
0000
0100
0000
,
1000
0010
0000
1000
0010
0000
0100
0001
0000
0100
0001
0000
0010
0000
0001
0000
,
0100
0000
0000
0010
0000
0000
0100
0000
0001
0010
0000
0010
0100
0000
1000
0010
,
1000
0100
1000
0010
0100
0001
0010
0100
,
0010
0001
0010
0000
0100
0000
0100
0000
1000
0010
1000
0000
0100
0000
0100
0000
,
0010
0001
0000
0010
0001
0000
1000
0100
0000
1000
0100
0000
1000
0000
0010
0000
,
0100
0000
0000
0000
1001
0000
0001
0010
0000
0001
0010
0000
0100
0010
0000
0100
,
0010
0000
0100
1000
0000
0100
1000
0000
0001
1000
0000
0001
1000
0000
0010
0000
,
0100
0000
0000
0010
0000
0000
1000
0010
0000
1000
0010
0000
0100
0010
0000
0100
,
0010
0000
0100
0001
0000
0100
0001
0000
1000
0001
0000
1000
0001
0000
0010
0000
,
0100
0000
1001
0000
1000
0100
0010
0100
,
1000
0010
0100
0001
0010
0001
0100
0010
,
1000
0100
1000
0000
1000
0100
0010
0000
,
0100
0010
0001
0000
1000
0010
0100
0010
,
1000
0100
0010
0000
0001
0100
0010
0100
,
0001
0010
0100
1000
0010
1000
0100
0010
,
0001
0100
0001
0000
0001
0100
0010
1000
,
0100
0010
0100
1000
0001
0010
0100
0010
,
0001
0000
0000
0000
1100
0000
0000
0000
0001
0000
0010
0000
0001
0000
0100
0010
,
0000
0000
1000
0000
0000
0100
0000
0000
1000
0000
0000
0001
0000
0000
0100
0000
,
0001
0010
0001
0000
0100
0000
0100
0000
0010
1000
0010
0000
0100
0000
0100
0000
,
0001
0010
0000
0001
0010
0000
0100
1000
0000
0100
1000
0000
0010
0000
1000
0000
,
0100
0000
0000
0010
0000
0000
0100
0000
1000
0010
0000
0010
0100
0000
0001
0010
,
0001
0100
0001
0010
0100
1000
0010
0100
,
0010
1000
0010
0000
0100
0000
0100
0000
0001
0010
0001
0000
0100
0000
0100
0000
,
0010
1000
0000
0010
1000
0000
0001
0100
0000
0001
0100
0000
0001
0000
0010
0000
,
0001
0000
0000
0200
0000
0000
0002
0000
0000
0000
0000
0000
0000
0000
0000
0000
,
0303
0000
0000
0000
;

//---------------dance-single - ----------------
#NOTEDATA:;
#CHARTNAME:;
#STEPSTYPE:dance-single;
#DESCRIPTION:;
#CHARTSTYLE:;
#DIFFICULTY:Medium;
#METER:5;
#RADARVALUES:0.312468,0.361676,0.094725,0.068891,0.000000,254.000000,243.000000,11.000000,8.000000,0.000000,0.000000,0.000000,0.000000,0.000000,0.312468,0.361676,0.094725,0.068891,0.000000,254.000000,243.000000,11.000000,8.000000,0.000000,0.000000,0.000000,0.000000,0.000000;
#CREDIT:Alchemy Jones;
#NOTES:
0000
0000
0000
0000
,
0000
0000
0000
0000
,
0000
0000
0000
0000
,
0000
0000
0000
0000
,
1000
0100
0010
0001
,
1000
0100
0010
0001
,
0100
0010
1000
0001
,
0100
0010
1000
0001
,
0010
0001
1000
0100
,
0010
0001
1000
0100
,
0010
0001
0100
1000
,
0100
0000
0100
0000
,
0100
0000
0010
1000
0000
1000
0000
0000
,
0001
0000
0001
0000
,
0001
0000
0010
0100
0000
0100
0000
0000
,
0010
0000
0010
0000
,
0010
0000
0001
1000
0010
1000
0000
0000
,
0001
0100
0001
0000
1000
0000
0100
0000
,
1000
0010
1000
0000
0100
0000
0010
0000
,
0110
0000
1001
0000
0001
0010
0001
0000
,
1000
0010
0001
0100
,
1000
0010
1000
0000
0001
0010
0001
0000
,
1000
0010
1000
0000
0001
0010
0100
1000
,
0100
0000
1001
0000
1000
0010
1000
0000
,
0001
0010
1000
0100
,
0001
0010
0001
0000
1000
0010
1000
0000
,
0001
0010
0001
0000
1000
0010
0100
0001
,
0100
0000
1001
0000
0001
0010
0001
0010
,
0200
0000
0000
0000
0300
0000
0000
1000
,
0010
1000
0000
1000
0001
1000
0100
1000
,
0010
0010
0100
0001
,
1000
0000
1001
0000
1000
0010
1000
0010
,
1000
0200
0000
0020
0000
0330
0000
0001
,
0010
0001
0000
0001
1000
0001
0100
0001
,
0010
0010
0100
1000
,
0001
1001
1000
0010
,
0001
0100
1000
0010
,
0001
0010
1000
0100
,
0001
0010
1000
0100
,
0010
0000
1001
0000
1000
0100
1000
0000
,
0001
0100
1000
0010
,
0001
0100
0001
0000
1000
0100
1000
0000
,
0001
0100
0001
0000
1000
0100
0010
0001
,
0010
0000
1001
0000
0001
0100
0001
0000
,
1000
0100
0001
0010
,
1000
0100
1000
0000
0001
0100
0001
0000
,
1000
0100
1000
0000
0001
0100
0010
1000
,
0010
0000
1001
0000
1000
0100
1000
0100
,
0020
0000
0000
0000
0030
0000
0000
0001
,
0100
0001
0000
0001
1000
0001
0010
0001
,
0100
0100
0010
1000
,
0001
0000
1001
0000
0001
0100
0001
0100
,
0001
0020
0000
0200
0000
0330
0000
1000
,
0100
1000
0000
1000
0001
1000
0010
1000
,
0100
0100
0010
0001
,
1000
2002
0000
0000
,
3003
0000
0000
0000
;

//---------------dance-single - ----------------
#NOTEDATA:;
#CHARTNAME:;
#STEPSTYPE:dance-single;
#DESCRIPTION:;
#CHARTSTYLE:;
#DIFFICULTY:Easy;
#METER:3;
#RADARVALUES:0.222665,0.265229,0.086113,0.094725,0.000000,181.000000,171.000000,10.000000,11.000000,0.000000,0.000000,0.000000,0.000000,0.000000,0.222665,0.265229,0.086113,0.094725,0.000000,181.000000,171.000000,10.000000,11.000000,0.000000,0.000000,0.000000,0.000000,0.000000;
#CREDIT:Alchemy Jones;
#NOTES:
// measure 0
0000
0000
0000
0000
,  // measure 1
0000
0000
0000
0000
,  // measure 2
0000
0000
0000
0000
,  // measure 3
0000
0000
0000
0000
,  // measure 4
1000
0001
1000
0001
,  // measure 5
0100
0010
0100
0010
,  // measure 6
0001
1000
0001
1000
,  // measure 7
0010
0100
0010
0100
,  // measure 8
1000
0001
1000
0001
,  // measure 9
0100
0010
0100
0010
,  // measure 10
1000
0100
0001
0010
,  // measure 11
0100
0000
0100
0000
,  // measure 12
0100
0010
1000
0001
,  // measure 13
0010
0000
0010
0000
,  // measure 14
0010
0100
1000
0001
,  // measure 15
0100
0000
1000
0000
,  // measure 16
0010
0001
0100
1000
,  // measure 17
0010
0010
0001
0001
,  // measure 18
1000
1000
0100
0010
,  // measure 19
0110
1001
1000
0010
,  // measure 20
0100
0100
0001
0001
,  // measure 21
0010
0100
1000
0010
,  // measure 22
0002
0003
0100
1000
,  // measure 23
0001
0010
0100
0100
,  // measure 24
1000
1000
0010
0100
,  // measure 25
0002
0000
1000
1000
,  // measure 26
1003
0000
0110
0000
,  // measure 27
1001
0000
1000
0100
,  // measure 28
0002
0000
0003
0000
,  // measure 29
0100
0000
0100
1000
,  // measure 30
0010
0001
0100
1000
,  // measure 31
0001
1001
0001
0100
,  // measure 32
2000
0000
3000
0000
,  // measure 33
0100
0000
0100
0001
,  // measure 34
0010
1000
0100
0001
,  // measure 35
1000
1001
1000
0100
,  // measure 36
0010
1000
0100
0010
,  // measure 37
1000
0001
0010
1000
,  // measure 38
0001
0010
0100
0001
,  // measure 39
0010
1001
0001
0100
,  // measure 40
0010
0010
1000
1000
,  // measure 41
0100
0010
0001
0100
,  // measure 42
2000
3000
0010
0001
,  // measure 43
1000
0100
0020
0030
,  // measure 44
0002
0003
0100
0010
,  // measure 45
2000
0000
0001
0001
,  // measure 46
3001
0000
0110
0000
,  // measure 47
1001
0000
0001
0010
,  // measure 48
2000
0000
3000
0000
,  // measure 49
0010
0000
0010
0001
,  // measure 50
0100
1000
0010
0001
,  // measure 51
1000
1001
1000
0010
,  // measure 52
0002
0000
0003
0000
,  // measure 53
0010
0000
0010
1000
,  // measure 54
0100
0001
0010
1000
,  // measure 55
0002
0000
0000
0000
,  // measure 56
0003
0000
0000
0000
;
