#VERSION:0.83;
#TITLE:GATTO GELATO;
#SUBTITLE:;
#ARTIST:ALISON GOLDFRAPP;
#TITLETRANSLIT:;
#SUBTITLETRANSLIT:;
#ARTISTTRANSLIT:;
#GENRE:;
#ORIGIN:;
#CREDIT:;
#BANNER:;
#BACKGROUND:GATTO GELATO-bg.png;
#PREVIEWVID:;
#JACKET:GATTO GELATO-jacket.jpg;
#CDIMAGE:;
#DISCIMAGE:;
#LYRICSPATH:;
#CDTITLE:;
#MUSIC:GATTO GELATO.ogg;
#OFFSET:-0.148000;
#SAMPLESTART:72.587784;
#SAMPLELENGTH:12.000000;
#SELECTABLE:YES;
#BPMS:0.000=106.000;
#STOPS:;
#DELAYS:;
#WARPS:;
#TIMESIGNATURES:0.000=4=4;
#TICKCOUNTS:0.000=4;
#COMBOS:0.000=1;
#SPEEDS:0.000=1.000=0.000=0;
#SCROLLS:0.000=1.000;
#FAKES:;
#LABELS:0.000=Song Start;
#BGCHANGES:15.750=GATTO GELATO.avi=1.000=1=0=1===CrossFade==,
191.250=GATTO GELATO-bg.png=1.000=0=0=1===CrossFade_Faster==,
99999=-nosongbg-=1.000=0=0=0 // don't automatically add -songbackground-
;
#KEYSOUNDS:;
#ATTACKS:
;

//---------------dance-single - ----------------
#NOTEDATA:;
#CHARTNAME:;
#STEPSTYPE:dance-single;
#DESCRIPTION:;
#CHARTSTYLE:;
#DIFFICULTY:Hard;
#METER:8;
#RADARVALUES:0.398140,0.376831,0.047104,0.157013,0.467114,355.000000,349.000000,6.000000,20.000000,0.000000,0.000000,0.000000,0.000000,0.000000,0.398140,0.376831,0.047104,0.157013,0.467114,355.000000,349.000000,6.000000,20.000000,0.000000,0.000000,0.000000,0.000000,0.000000;
#CREDIT:Alchemy Jones;
#NOTES:
0000
0000
0000
0000
,
0000
0000
0000
0000
,
1000
0000
0000
0000
0000
0000
0000
0010
0000
0000
0100
0000
0000
0000
0000
0000
,
0001
0000
0000
0000
0000
0000
0001
0010
0000
0000
0100
0000
0000
0000
0000
0000
,
0010
0001
1000
1000
0200
0000
0310
0010
,
0200
0000
0301
0001
0100
1000
1010
0000
,
0010
1000
0001
0001
0200
0000
0310
0010
,
0200
0000
1300
1000
0100
0001
0011
0000
,
0100
1000
0001
0001
0020
0000
0130
0100
,
0020
0000
1030
1000
0010
0001
0101
0000
,
0100
0001
1000
1000
0020
0000
0130
0100
,
0020
0000
0031
0001
0010
1000
1100
0000
,
1000
0010
1000
0010
0100
0000
0002
0000
0000
0000
2003
0000
0000
0000
3000
0000
,
0010
0000
0100
0000
0001
0000
2000
0000
0000
0000
3002
0000
0000
0000
0013
0100
,
1000
0010
0100
0002
0000
2003
0000
3010
,
0100
0010
0100
0010
0100
0010
0100
0010
,
1000
0001
0000
0001
0000
0100
0000
0100
0001
0000
0001
0000
0010
0001
0000
0000
,
0001
1000
0000
1000
0000
0100
0000
0100
1000
0000
1000
0000
0010
1000
0000
0000
,
0010
0100
0000
0010
0000
0100
0000
0001
1000
0000
1000
0000
0001
0010
0001
0000
,
0010
0100
0000
0010
0000
0100
0000
1000
0001
0000
0001
0000
0001
0100
0000
0000
,
0001
1000
0000
1000
0000
0100
0000
0010
0001
0000
0001
0000
1000
0010
0000
0000
,
1000
0001
0000
0001
0000
0100
0000
0010
1000
0000
1000
0000
0001
0010
0000
0000
,
0100
0010
0000
0100
0000
0010
0000
0001
1000
0000
0010
0000
0100
0010
0000
0000
,
0100
0010
0000
0100
0000
0010
0000
1000
0001
0000
0010
0000
0100
0010
0000
0000
,
0001
1000
0000
0000
0010
1000
0010
0000
0100
0001
0000
0010
0000
0000
0000
0000
,
0001
1000
0001
0000
0010
0001
0010
0000
0100
1000
0000
0010
0000
0000
0000
0000
,
0100
0001
0000
0010
0000
0000
0000
0000
0100
1000
0000
0010
0000
0000
0000
0000
,
0100
0001
0000
0010
0000
0010
0100
0000
0100
1000
0000
0010
0000
0000
0000
0000
,
1000
0001
0000
0000
0010
0001
0010
0000
0100
1000
0000
0010
0000
0000
0000
0000
,
1000
0001
1000
0000
0010
1000
0010
0000
0100
0001
0000
0010
0000
0000
0000
0000
,
0100
1000
0000
0010
0000
0000
0000
0000
0100
0001
0000
0010
0000
0000
0000
0000
,
0100
1000
0000
0010
0000
0010
0100
0000
0100
0001
0000
0010
0000
0000
0000
0000
,
0001
0100
0010
0100
0001
0100
1000
0000
,
0100
0010
0000
1000
0000
1000
0000
0001
0010
0000
0010
0000
0100
1000
0000
0000
,
0100
0010
0000
0001
0000
0001
0000
1000
0010
0000
0010
0000
0100
0001
0100
0000
,
0010
0100
0000
0001
0000
0001
0000
1000
0100
0000
0100
0000
0010
0001
0000
0000
,
1000
0100
0010
0100
1000
0100
0001
0000
,
0100
0010
0000
0001
0000
0001
0000
1000
0010
0000
0010
0000
0100
0001
0000
0000
,
0100
0010
0000
1000
0000
1000
0000
0001
0010
0000
0010
0000
0100
1000
0000
0000
,
1000
0001
0000
0010
0000
0010
0000
0100
1000
0000
1000
0000
0010
0100
0000
0000
,
0001
0010
0100
0010
0001
0010
1000
0000
,
0010
0100
0000
1000
0000
1000
0000
0001
0100
0000
0100
0000
0010
1000
0000
0000
,
0100
1000
0001
0001
0020
0000
0130
0100
,
0020
0000
1030
1000
0010
0001
0101
0000
,
1000
0010
0100
0010
1000
0010
0001
0000
,
0010
0100
0000
0001
0000
0001
0000
1000
0100
0000
0100
0000
0010
0001
0000
0000
,
0100
0001
1000
1000
0020
0000
0130
0100
,
0020
0000
0031
0001
0010
1000
2200
0000
,
3300
0000
0000
0000
;

//---------------dance-single - ----------------
#NOTEDATA:;
#CHARTNAME:;
#STEPSTYPE:dance-single;
#DESCRIPTION:;
#CHARTSTYLE:;
#DIFFICULTY:Easy;
#METER:2;
#RADARVALUES:0.157013,0.169574,0.000000,0.164864,0.000000,140.000000,140.000000,0.000000,21.000000,0.000000,0.000000,0.000000,0.000000,0.000000,0.157013,0.169574,0.000000,0.164864,0.000000,140.000000,140.000000,0.000000,21.000000,0.000000,0.000000,0.000000,0.000000,0.000000;
#CREDIT:Alchemy Jones;
#NOTES:
0000
0000
0000
0000
,
0000
0000
0000
0000
,
1000
0000
0100
0000
,
0010
0000
0001
0000
,
1000
1000
0001
1000
,
0001
1000
0001
0100
,
0001
0001
1000
0001
,
1000
0001
1000
0100
,
1000
1000
0001
1000
,
0001
1000
0001
0100
,
0001
0001
1000
0001
,
1000
0001
1000
0100
,
2000
3002
0000
0003
,
0000
2000
0000
3000
,
0000
0002
0000
0003
,
0000
0000
0000
0000
,
1000
0000
0010
0000
,
0001
0000
0100
0000
,
1000
0000
0100
0000
,
0001
0000
0010
0000
,
2000
3000
0100
0100
,
0002
0003
0100
0100
,
2000
3000
0010
0010
,
0002
0003
0010
0010
,
0001
0001
0002
0003
,
1000
1000
2000
3000
,
0002
0003
2000
3000
,
0002
0003
2000
3000
,
0001
0100
0002
0003
,
1000
0100
2000
3000
,
0002
0003
0002
0003
,
1000
0010
2000
3000
,
0001
0100
1000
0010
,
0001
0001
1000
0100
,
1000
1000
0001
0100
,
0001
0001
1000
0100
,
1000
0010
0001
0100
,
1000
0001
1000
0010
,
1000
1000
0001
0010
,
0001
0001
1000
0100
,
0001
0010
1000
0100
,
0001
0000
1000
0000
,
0001
0010
0001
0010
,
0100
0010
0200
0300
,
1000
0010
0001
0100
,
1000
0000
0001
0000
,
1000
0010
1000
0010
,
0100
0010
0100
0002
,
0003
0000
0000
0000
;

//---------------dance-single - ----------------
#NOTEDATA:;
#CHARTNAME:;
#STEPSTYPE:dance-single;
#DESCRIPTION:;
#CHARTSTYLE:;
#DIFFICULTY:Medium;
#METER:5;
#RADARVALUES:0.287109,0.282623,0.015701,0.172714,0.000000,256.000000,254.000000,2.000000,22.000000,0.000000,0.000000,0.000000,0.000000,0.000000,0.287109,0.282623,0.015701,0.172714,0.000000,256.000000,254.000000,2.000000,22.000000,0.000000,0.000000,0.000000,0.000000,0.000000;
#CREDIT:Alchemy Jones;
#NOTES:
// measure 0
0000
0000
0000
0000
,  // measure 1
0000
0000
0000
0000
,  // measure 2
1000
0000
0000
1000
0010
0100
0000
0000
,  // measure 3
0001
0000
0000
0001
0100
0010
0000
0000
,  // measure 4
1000
0001
1000
0100
1000
0000
0100
0001
,  // measure 5
0100
0000
0001
0020
0001
0000
1030
0000
,  // measure 6
0001
1000
0001
0100
0001
0000
0100
1000
,  // measure 7
0100
0000
1000
0020
1000
0000
0031
0000
,  // measure 8
1000
0001
1000
0010
1000
0000
0010
0001
,  // measure 9
0010
0000
0001
0200
0001
0000
1300
0000
,  // measure 10
0001
1000
0001
0010
0001
0000
0010
1000
,  // measure 11
0010
0000
1000
0200
1000
0000
0301
0000
,  // measure 12
2000
0000
3020
0000
0030
0200
0000
0300
,  // measure 13
0001
1000
0020
0000
0030
0200
0000
0300
,  // measure 14
0001
0000
0020
0000
0030
0200
0000
1300
,  // measure 15
0010
1000
0010
1000
0010
1000
0010
1000
,  // measure 16
0100
0000
1000
0000
0100
1000
0010
0000
,  // measure 17
0100
0000
0001
0000
0100
0001
0010
0000
,  // measure 18
0100
0000
1000
0000
0010
1000
0001
0100
,  // measure 19
0001
0000
0100
0000
0010
1000
0001
0000
,  // measure 20
1000
0000
0001
0000
0010
0001
0100
0000
,  // measure 21
0010
0000
1000
0000
0010
1000
0100
0000
,  // measure 22
1000
0000
1001
0000
0010
0001
1000
0000
,  // measure 23
0001
0000
1001
0000
0010
1000
0001
0000
,  // measure 24
1000
0000
0001
0010
0100
1000
0001
0000
,  // measure 25
0001
1000
0010
1000
0001
0100
0001
0000
,  // measure 26
0010
0001
1000
0000
0010
1000
0001
0000
,  // measure 27
2000
0000
3001
0010
0200
0000
1300
0000
,  // measure 28
0001
0000
1000
0100
0010
0001
1000
0000
,  // measure 29
1000
0001
0100
0001
1000
0010
1000
0000
,  // measure 30
0100
1000
0001
0000
0100
0001
1000
0000
,  // measure 31
0002
0000
1003
0100
0020
0000
0031
0000
,  // measure 32
0001
0010
0001
1000
0200
0000
2300
0000
,  // measure 33
3010
0000
0001
0000
0100
1000
0001
0000
,  // measure 34
1000
0000
0100
0000
0001
0010
0100
0000
,  // measure 35
0001
0000
0100
0000
1000
0010
0100
0000
,  // measure 36
1000
0100
1000
0001
0020
0000
0032
0000
,  // measure 37
0103
0000
1000
0000
0010
0001
1000
0000
,  // measure 38
0001
0000
0010
0000
1000
0100
0010
0000
,  // measure 39
1000
0000
0010
0000
0001
0100
0010
0000
,  // measure 40
0001
0100
0010
0100
0001
1000
0100
0000
,  // measure 41
1000
0000
0001
0000
0010
0001
0100
0000
,  // measure 42
0001
1000
0010
1000
0100
0000
0001
0100
,  // measure 43
0001
0000
0010
0001
0020
0000
1030
0000
,  // measure 44
1000
0100
0010
0100
1000
0001
0100
0000
,  // measure 45
0001
0000
1000
0000
0010
1000
0100
0000
,  // measure 46
1000
0001
0010
0001
0100
0000
1000
0100
,  // measure 47
1000
0000
0010
1000
0020
0000
0002
0000
,  // measure 48
0033
0000
0000
0000
;
