#VERSION:0.83;
#TITLE:FREE YOURSELF;
#SUBTITLE:;
#ARTIST:JESSIE WARE;
#TITLETRANSLIT:;
#SUBTITLETRANSLIT:;
#ARTISTTRANSLIT:;
#GENRE:;
#ORIGIN:;
#CREDIT:;
#BANNER:FREE YOURSELF.png;
#BACKGROUND:FREE YOURSELF-bg.png;
#PREVIEWVID:;
#JACKET:FREE YOURSELF-jacket.png;
#CDIMAGE:;
#DISCIMAGE:;
#LYRICSPATH:;
#CDTITLE:;
#MUSIC:FREE YOURSELF.ogg;
#OFFSET:-0.228000;
#SAMPLESTART:92.191399;
#SAMPLELENGTH:12.000000;
#SELECTABLE:YES;
#BPMS:0.000=118.937;
#STOPS:;
#DELAYS:;
#WARPS:;
#TIMESIGNATURES:0.000=4=4;
#TICKCOUNTS:0.000=4;
#COMBOS:0.000=1;
#SPEEDS:0.000=1.000=0.000=0;
#SCROLLS:0.000=1.000;
#FAKES:;
#LABELS:0.000=Song Start;
#LASTSECONDHINT:121.841438;
#BGCHANGES:-0.452=FREE YOURSELF.avi=1.000=1=0=0=StretchNoLoop==CrossFade==,
241.500=FREE YOURSELF-bg.png=1.000=1=0=1===CrossFade==,
99999=-nosongbg-=1.000=0=0=0 // don't automatically add -songbackground-
;
#KEYSOUNDS:;
#ATTACKS:
;

//---------------dance-single - ----------------
#NOTEDATA:;
#CHARTNAME:;
#STEPSTYPE:dance-single;
#DESCRIPTION:;
#CHARTSTYLE:;
#DIFFICULTY:Hard;
#METER:8;
#RADARVALUES:0.524645,0.583653,0.361369,0.184886,0.273128,437.000000,394.000000,43.000000,22.000000,0.000000,0.000000,0.000000,0.000000,0.000000,0.524645,0.583653,0.361369,0.184886,0.273128,437.000000,394.000000,43.000000,22.000000,0.000000,0.000000,0.000000,0.000000,0.000000;
#CREDIT:Alchemy Jones;
#NOTES:
// measure 0
0000
0000
0000
0000
,  // measure 1
0000
0000
0000
0000
,  // measure 2
0010
0000
0000
0000
0011
0000
0000
0100
1000
0000
0001
0000
0000
0000
0100
0000
,  // measure 3
0010
0000
0000
0000
1010
0000
0000
0100
0001
0000
0010
0000
0000
0001
0000
0000
,  // measure 4
0100
0000
0000
0000
0101
0000
0000
0010
1000
0000
0001
0000
0000
0000
0010
0000
,  // measure 5
0100
0000
0000
0000
1100
0000
0000
0010
0001
0000
1000
0000
0001
0000
0010
0000
,  // measure 6
1200
0301
0201
1300
,  // measure 7
1001
0000
1000
0010
0001
0010
1000
0001
,  // measure 8
0201
1000
0302
0023
,  // measure 9
2030
0000
3200
0000
0301
1000
0010
0100
,  // measure 10
0201
1300
1200
0301
,  // measure 11
1001
0000
1000
0100
0001
0100
1000
0001
,  // measure 12
1020
0130
0021
0130
,  // measure 13
1000
0010
1000
0100
0010
0100
1000
0000
,  // measure 14
0101
0000
0000
0000
1010
0000
0000
1000
0100
0000
0010
0000
0001
0000
1000
0100
,  // measure 15
1000
0000
0001
0000
0011
0000
0000
0100
0000
0001
1000
0000
0100
0000
0010
0001
,  // measure 16
0100
0010
0100
0000
0110
0000
0010
0000
1000
0000
0100
0000
0010
0000
0001
0000
,  // measure 17
0100
0000
0010
0000
1000
0000
0000
0001
0000
0010
0100
0000
1000
0000
0000
0000
,  // measure 18
0001
0100
0010
0100
0001
0100
1000
0100
,  // measure 19
0010
1000
0100
0020
0000
1000
0000
0001
,  // measure 20
0000
0230
0000
1000
0000
0001
0000
0310
,  // measure 21
0000
0001
0100
0010
0000
0001
0010
0100
,  // measure 22
1000
0100
0010
0100
1000
0100
0001
0100
,  // measure 23
0010
0001
0100
0020
0000
0001
0000
1000
,  // measure 24
0000
0130
0001
2000
0000
0010
0000
3100
,  // measure 25
0000
1000
0010
0100
0000
1000
0100
0010
,  // measure 26
0001
0000
0000
0000
0101
0000
0000
0100
0000
0000
0001
0000
1000
0000
0100
0010
,  // measure 27
0100
0000
1000
0000
0001
0000
0000
0100
0000
0100
0010
0000
1000
0000
0001
0010
,  // measure 28
0001
0000
1000
0000
0100
0000
0000
0010
0000
0010
0001
0000
0100
0000
0010
1000
,  // measure 29
0010
1000
0010
1000
0100
0000
0000
0010
0000
0010
0001
0000
1000
0000
0000
0000
,  // measure 30
0201
1300
1200
0301
,  // measure 31
1001
0000
0001
0100
1000
0100
0001
1000
,  // measure 32
0001
0010
1000
0010
0100
0010
1000
0010
,  // measure 33
0001
0100
0002
0000
0010
0000
0000
0000
1003
0000
0010
0000
1000
0000
0100
0000
,  // measure 34
1200
0301
0201
1300
,  // measure 35
1001
0000
0000
0000
0001
0100
0000
1000
0000
0000
0100
0000
0001
0000
1000
0000
,  // measure 36
0021
0130
1020
0130
,  // measure 37
0001
0010
0001
0100
0010
0100
0001
0000
,  // measure 38
1000
0000
1000
0000
0010
0100
0000
0010
0000
0000
1000
0000
0000
1000
0000
0000
,  // measure 39
0001
0000
0001
0000
0010
0100
0000
0010
0000
0000
0001
0000
1000
0100
1000
0000
,  // measure 40
0010
0000
0010
0000
1000
0001
0000
1000
0000
0000
0100
0000
0000
0100
0000
0000
,  // measure 41
0010
0000
0010
0000
0001
1000
0000
0001
0000
0000
0100
0000
0001
0010
0001
1000
,  // measure 42
0100
0000
0000
0000
0110
0000
0000
0100
0000
0000
1000
0000
0001
0000
1000
0010
,  // measure 43
1000
0000
0001
0000
0100
0000
0000
0010
0000
0010
0100
0000
0001
0000
1000
0010
,  // measure 44
1000
0001
0100
0000
0001
0010
0001
0000
1000
0100
1000
0000
0010
1000
0010
0000
,  // measure 45
0100
0001
0100
0000
0010
0000
0000
1000
0000
1000
0100
0000
0010
0000
0001
0000
,  // measure 46
0101
1001
1000
0000
0010
1001
0001
0000
,  // measure 47
0011
0000
1000
0100
0010
0100
1000
0001
,  // measure 48
0010
0001
0101
0000
0010
1000
1100
0000
,  // measure 49
1000
0100
0010
0100
1000
0100
0001
0100
,  // measure 50
1010
1001
0001
0000
0100
1001
1000
0000
,  // measure 51
1010
0000
0000
0000
0001
0100
0000
1000
0000
0000
0100
0000
0001
0000
0010
0000
,  // measure 52
0100
1000
1010
0000
0100
0001
0011
0000
,  // measure 53
0001
0100
0010
0100
0001
0100
1000
0000
,  // measure 54
0101
0000
0000
0000
1010
0000
0000
1000
0100
0000
0010
0000
0001
0000
1000
0100
,  // measure 55
1000
0000
0001
0000
0011
0000
0000
0100
0000
0001
1000
0000
0100
0000
0010
0001
,  // measure 56
0100
0010
0100
0000
0110
0000
0010
0000
1000
0000
0100
0000
0010
0000
0001
0000
,  // measure 57
1000
0010
1000
0000
0001
0010
0001
0000
1000
0100
1000
0000
0001
0100
0001
0000
;

//---------------dance-single - ----------------
#NOTEDATA:;
#CHARTNAME:;
#STEPSTYPE:dance-single;
#DESCRIPTION:;
#CHARTSTYLE:;
#DIFFICULTY:Medium;
#METER:6;
#RADARVALUES:0.405790,0.388261,0.453812,0.294137,0.000000,338.000000,284.000000,54.000000,35.000000,0.000000,0.000000,0.000000,0.000000,0.000000,0.405790,0.388261,0.453812,0.294137,0.000000,338.000000,284.000000,54.000000,35.000000,0.000000,0.000000,0.000000,0.000000,0.000000;
#CREDIT:Alchemy Jones;
#NOTES:
0000
0000
0000
0000
,
0000
0000
0000
0000
,
1000
0000
0001
0000
0100
0010
0100
0000
,
0001
1001
0100
0010
,
0001
0000
1000
0000
0100
0010
0100
0000
,
1000
0000
1001
0000
0001
1000
0001
0000
,
0012
0013
0021
0031
,
0011
0000
0010
0001
0010
0100
0010
0001
,
2000
3000
0020
0030
,
1000
0010
0100
0000
0001
0000
1000
0000
,
2010
3010
1020
1030
,
1010
0000
0010
1000
0010
0100
0010
1000
,
0002
0003
0020
0030
,
0110
0110
1001
0110
,
0010
0000
1001
0000
1000
0100
0010
0001
,
1000
0000
1001
0000
0001
0010
0100
1000
,
0001
0000
1001
0000
1000
0100
0010
0000
,
0011
1100
1001
0110
,
1000
0010
0100
0010
1000
0001
0000
0000
,
0010
0001
0100
0000
0100
0001
0010
0100
,
0000
1000
0000
0001
0000
1000
0000
0020
,
0000
0230
0000
0300
0001
0010
0100
1000
,
0010
1000
0100
0000
0100
1000
0010
0000
,
0100
0001
1000
0001
0000
1000
0000
0100
,
0000
0010
0001
1000
0000
0001
0000
0200
,
0000
0310
1000
0010
1000
0100
0010
0000
,
0011
0000
0101
0000
0001
1000
0010
0000
,
1010
0000
1100
0000
1000
0010
0100
0001
,
1000
0100
1000
0000
0001
0100
0010
0100
,
0001
1000
0100
0000
0010
0000
0110
0000
,
2001
3010
1002
0103
,
1001
0000
0010
1000
0010
0100
0010
0100
,
0002
0023
0230
1300
,
0001
0010
0100
0000
0010
0100
1000
0000
,
1002
0013
2001
3100
,
1001
0000
0010
0001
0010
0100
0010
0100
,
2000
3001
0200
0310
,
0110
0110
1001
0110
,
0001
0010
0001
0000
2000
0000
3000
0000
,
0001
0100
0001
0100
0002
0000
1003
0000
,
1000
0010
1000
0000
0002
0000
0003
0000
,
1000
0100
1000
0100
2000
0000
3001
0000
,
0100
0001
0100
0000
0020
0000
0030
0000
,
0100
0010
0100
0010
0200
0000
0301
0000
,
0001
0010
0100
0000
1000
0000
1001
0000
,
1000
0100
0010
0000
1001
0000
0110
0000
,
2001
3100
1002
0103
,
1001
0000
1000
0010
0100
0010
1000
0001
,
0020
0230
2300
3100
,
0010
0001
0100
0000
0010
1000
0100
0000
,
1002
0013
2001
3010
,
1001
0000
0001
0010
0100
0010
0001
1000
,
0002
1003
0200
0310
,
0110
0110
1001
0110
,
0010
0000
1001
0000
0001
0010
0100
1000
,
0001
0000
1001
0000
1000
0100
0010
0001
,
1000
0000
1001
0000
0001
0100
0010
0000
,
1010
0101
1001
0110
;

//---------------dance-single - ----------------
#NOTEDATA:;
#CHARTNAME:;
#STEPSTYPE:dance-single;
#DESCRIPTION:;
#CHARTSTYLE:;
#DIFFICULTY:Easy;
#METER:3;
#RADARVALUES:0.237711,0.292457,0.218502,0.201694,0.000000,198.000000,172.000000,26.000000,24.000000,0.000000,0.000000,0.000000,0.000000,0.000000,0.237711,0.292457,0.218502,0.201694,0.000000,198.000000,172.000000,26.000000,24.000000,0.000000,0.000000,0.000000,0.000000,0.000000;
#CREDIT:Alchemy Jones;
#NOTES:
0000
0000
0000
0000
,
0000
0000
0000
0000
,
0100
0001
2000
3000
,
0100
1000
0002
0003
,
0010
0001
2000
3000
,
0010
1000
0002
0003
,
0110
0000
1001
0000
,
0110
0001
0010
0100
,
2000
0000
3020
0000
,
0230
0000
0300
0000
,
0110
0000
1001
0000
,
0110
1000
0010
0100
,
0002
0000
0023
0000
,
0130
0010
0001
0100
,
0000
0110
0000
0000
,
0100
1001
0000
0000
,
0010
1001
0000
0000
,
0001
0010
1000
0100
,
0000
0001
0010
0001
,
0100
0010
1000
0001
,
0010
0001
0100
0001
,
2000
0000
3000
0000
,
0000
1000
0010
1000
,
0100
0010
0001
1000
,
0010
1000
0100
1000
,
0002
0000
0003
0000
,
0001
0010
0001
0010
,
0001
1000
0001
1000
,
0100
1000
0100
1000
,
0110
0000
1001
0000
,
0110
0000
1001
0000
,
0110
1000
0100
0001
,
0020
0000
2030
0000
,
3200
0000
0300
0000
,
0110
0000
1001
0000
,
0110
0001
0100
1000
,
0020
0000
0032
0000
,
0103
0001
0010
1000
,
0100
0100
0100
0000
,
0001
0001
0001
0000
,
1000
1000
1000
0000
,
0010
0010
0010
0000
,
1000
0010
1000
0010
,
1000
0001
1000
0001
,
0100
0001
0100
0001
,
1000
0001
1000
0001
,
1001
0010
1001
0100
,
1001
0010
0001
0100
,
2000
0000
3020
0000
,
0031
0100
1000
0010
,
1001
0100
1001
0010
,
1001
0100
1000
0010
,
0002
0000
0203
0000
,
1300
0010
0001
0100
,
0000
1001
0100
0010
,
0100
1001
0010
0100
,
0010
1001
0010
0100
,
0020
0032
0203
2300
,
3000
0000
0000
0000
;
