#TITLE:FRANKENSTEIN;
#SUBTITLE:;
#ARTIST:RINA SAWAYAMA;
#TITLETRANSLIT:;
#SUBTITLETRANSLIT:;
#ARTISTTRANSLIT:;
#GENRE:;
#CREDIT:;
#BANNER:FRANKENSTEIN.png;
#BACKGROUND:FRANKENSTEIN-bg.png;
#LYRICSPATH:;
#CDTITLE:;
#MUSIC:FRANKENSTEIN.ogg;
#OFFSET:-0.054000;
#SAMPLESTART:58.988289;
#SAMPLELENGTH:12.000000;
#SELECTABLE:YES;
#BPMS:0.000000=177.000000
;
#STOPS:
;
#BGCHANGES:-0.409=FRANKENSTEIN.avi=1.000=0=0=0=StretchNoLoop==CrossFade_Fastest==,
288.000=FRANKENSTEIN-bg.png=1.000=1=0=1===CrossFade==,
99999=-nosongbg-=1.000=0=0=0 // don't automatically add -songbackground-
;
#KEYSOUNDS:;
#ATTACKS:;

//---------------dance-single - ----------------
#NOTES:
     dance-single:
     :
     Hard:
     9:
     0.660515,0.864674,0.290226,0.100078,0.055043,462.000000,433.000000,29.000000,10.000000,0.000000,0.000000,0.660515,0.864674,0.290226,0.100078,0.055043,462.000000,433.000000,29.000000,10.000000,0.000000,0.000000:
0000
0000
0000
0000
,
0000
0000
0000
0000
,
0000
0000
0000
0000
,
0000
0000
0000
0000
,
0001
0100
0010
0100
0001
0000
0001
0010
,
0100
0000
0010
0000
0100
1000
0010
0000
,
1000
0100
0010
0100
1000
0000
1000
0010
,
0100
0000
0100
0010
1000
0001
0100
0000
,
0001
0010
0100
0010
0001
0000
0001
0100
,
0010
0000
0100
0000
0010
1000
0100
0000
,
0010
0001
0010
0100
1000
0100
0010
0001
,
2000
0000
0000
3000
,
0100
0000
0010
0000
0001
0100
1000
0000
,
0001
0010
0100
0001
0100
0010
0001
0100
,
0010
1000
0100
0000
0010
1000
0100
0000
,
0010
0001
0100
1000
0100
0010
1000
0100
,
0010
0001
0100
0000
0010
0001
0100
0000
,
0010
1000
0100
0001
0100
0010
0001
0200
,
0000
0000
0000
0000
0300
0000
0010
1000
,
0000
0000
1000
0100
0000
0100
0010
0001
,
0100
0000
0010
0000
1000
0100
0001
0000
,
1000
0010
0100
1000
0100
0010
1000
0100
,
0010
0001
0100
0000
0010
0001
0100
0000
,
0010
1000
0100
0001
0100
0010
0001
0100
,
0010
1000
0100
0000
0010
1000
0100
0000
,
0010
0001
0100
1000
0100
0010
1000
0200
,
0000
0000
0000
0000
0300
0000
0010
0001
,
0000
0000
0001
0100
0000
0100
0010
1000
,
0100
0000
0010
0010
0001
1000
1000
0010
,
0100
0000
0110
0000
0100
0001
0010
0001
,
0100
0000
0010
0010
1000
0001
0001
0010
,
0100
0000
1001
0000
0010
1000
0100
1000
,
0010
0000
0100
0100
0001
1000
1000
0100
,
0010
0000
0011
0000
0001
0100
0010
0000
,
1000
0100
0010
1000
0010
0001
0100
0010
,
0001
0010
1000
0100
0001
0100
0010
0001
,
0100
0000
0010
0010
1000
0001
0001
0010
,
0100
0000
0110
0000
0100
1000
0010
1000
,
0100
0000
0010
0010
0001
1000
1000
0010
,
0100
0000
1001
0000
0010
0001
0100
0001
,
0010
0000
0100
0100
1000
0001
0001
0100
,
0010
0000
1010
0000
1000
0100
0010
0000
,
0001
0100
0010
0001
0010
1000
0200
0000
,
0000
0000
0300
0000
1000
0100
0010
0002
,
0100
0000
0010
0000
0103
0010
1000
0100
,
0010
0000
0011
0000
0001
0100
0010
2000
,
0100
0000
0010
0000
3100
0010
0001
0100
,
0010
0000
1010
0000
1000
0100
0001
0100
,
0010
0011
0100
1001
,
0010
0000
1100
0000
0010
1000
0001
0100
,
0010
0000
0001
0100
1000
0000
0001
0010
,
0100
0000
1001
0000
0001
0010
0100
2000
,
0010
0000
0100
0000
3010
0100
0001
0010
,
0100
0000
1100
0000
1000
0010
0100
0002
,
0010
0000
0100
0000
0013
0100
1000
0010
,
0100
0000
0101
0000
0001
0010
1000
0010
,
0100
1100
0010
1001
,
0100
0000
0011
0000
0100
0001
1000
0100
,
0010
0000
1000
0100
0001
0000
1000
0010
,
0100
0010
0100
0010
0100
0010
0100
0010
0100
0000
0001
0000
0010
0000
0100
0000
,
1000
0100
0010
0001
1000
0000
1000
0010
,
0000
0010
0100
0001
0011
0000
1100
0000
,
0001
0100
0010
1000
0001
0000
0001
0010
,
0000
0010
0100
0000
1100
0000
1010
0000
,
0001
0010
0100
1000
0001
0000
0001
0100
,
0000
0000
0100
0000
0010
0000
1000
0000
1100
0000
0000
0000
0011
0000
0010
0100
,
0010
0000
0001
0000
1000
0000
0010
0100
0010
0000
1000
0000
0001
0000
0010
0100
,
0010
0000
0001
0000
1000
0000
0010
0100
0010
0100
0010
0100
0010
0100
0010
0000
,
1001
1000
0100
0010
0001
0010
0100
1000
,
1001
0001
0100
0010
1000
0010
0100
0001
,
1001
1000
0100
0010
0001
0010
0100
1000
,
1010
0010
0010
0011
0010
0010
2002
0000
,
3003
0000
0000
0000
;

//---------------dance-single - ----------------
#NOTES:
     dance-single:
     :
     Medium:
     7:
     0.533273,0.576450,0.260203,0.100078,0.000000,373.000000,347.000000,26.000000,10.000000,0.000000,0.000000,0.533273,0.576450,0.260203,0.100078,0.000000,373.000000,347.000000,26.000000,10.000000,0.000000,0.000000:
0000
0000
0000
0000
,
0000
0000
0000
0000
,
0000
0000
0000
0000
,
0000
0000
0000
0000
,
1000
0100
1000
0100
0010
0000
0100
0000
,
1000
0000
0001
0000
0100
0010
0100
0000
,
0001
0100
0001
0100
0010
0000
0100
0000
,
0001
0000
1000
0000
0100
0010
0100
0000
,
1000
0001
1000
0001
0010
0000
0100
0000
,
0010
0000
0001
0000
0100
0010
0100
0000
,
0001
1000
0001
1000
0010
0000
0100
0000
,
0020
0000
0000
0030
,
1000
0000
0100
0000
0010
0001
1000
0000
,
0010
0000
0100
0000
0001
1000
0010
1000
,
0001
0010
0100
1000
,
0001
0000
1000
0000
0100
1000
0001
1000
,
0100
0010
0001
1000
,
0001
0010
0100
0000
1000
0010
0100
0000
,
0010
1000
0200
0000
0300
0000
0010
0001
,
0000
0000
0001
0100
0000
0100
0010
1000
,
0001
0000
0100
0000
0010
1000
0001
0000
,
0010
0000
0100
0000
1000
0001
0010
0001
,
1000
0010
0100
0001
,
1000
0000
0001
0000
0100
0001
1000
0001
,
0100
0010
1000
0001
,
1000
0010
0100
0000
0001
0010
0100
0000
,
0010
0001
0200
0000
0300
0000
0010
1000
,
0000
0000
1000
0100
0000
0100
0010
0001
,
1000
0000
1001
0000
0000
0101
0000
0101
,
0000
0000
0001
0010
0001
0010
0100
0010
,
0100
0000
1001
0000
0000
1100
0000
1100
,
0000
0000
1000
0010
1000
0010
0100
0010
,
0100
0000
1001
0000
0000
0110
0000
0110
,
0000
1000
0100
0010
,
0001
0100
0010
0000
1000
0100
0010
0000
,
0001
0010
0100
1000
0100
0010
0002
0000
,
0003
0000
1001
0000
0000
0011
0000
0011
,
0000
0000
0001
0100
0001
0100
0010
0100
,
0010
0000
1001
0000
0000
1010
0000
1010
,
0000
0000
1000
0100
1000
0100
0010
0100
,
0010
0000
1001
0000
0000
0110
0000
0110
,
0000
0001
0010
0100
,
1000
0010
0100
0000
0001
0010
0200
0000
,
0000
0000
0300
0000
0010
0001
1000
0000
,
0002
0010
0100
0010
,
1003
0010
0100
0000
0010
1000
0001
0000
,
2000
0010
0100
0010
,
3001
0010
0100
0000
0010
0001
1000
0000
,
0010
0110
0100
0110
,
0010
0000
1001
0000
1000
0100
0010
0000
,
0001
0000
0001
0100
0000
0000
0100
0010
,
0000
0000
1000
0000
0100
1000
0001
0000
,
2000
0100
0010
0100
,
3001
0100
0010
0000
0100
0001
1000
0000
,
0002
0100
0010
0100
,
1003
0100
0010
0000
0100
1000
0001
0000
,
0100
0110
0010
0110
,
0100
0000
1001
0000
0001
0010
0100
0000
,
1000
0000
1000
0010
0000
0000
0010
0100
,
0001
0010
0100
1000
0001
0010
0100
1000
,
0001
0100
0010
1000
0001
0000
0001
0010
,
0000
0010
0100
1000
0001
0000
1001
0000
,
1000
0010
0100
0001
0010
0000
0010
0001
,
0000
0001
0000
0000
1000
0000
0010
0000
,
1000
0100
0010
0001
1000
0000
1000
0010
,
0000
0010
0100
0001
1000
0000
1001
0000
,
0001
0010
0100
1000
0010
0000
0010
1000
,
0000
1000
0001
0010
0100
1000
0001
0010
,
0100
0000
1000
0000
0010
1000
0001
0000
,
0100
0000
0001
0000
0010
0001
1000
0000
,
0100
0000
1000
0000
0010
1000
0001
0000
,
1000
1000
1000
0001
0001
0001
0020
0000
,
0030
0000
0000
0000
;

//---------------dance-single - ----------------
#NOTES:
     dance-single:
     :
     Easy:
     4:
     0.285937,0.396309,0.030023,0.080062,0.000000,200.000000,197.000000,3.000000,8.000000,0.000000,0.000000,0.285937,0.396309,0.030023,0.080062,0.000000,200.000000,197.000000,3.000000,8.000000,0.000000,0.000000:
// measure 0
0000
0000
0000
0000
,  // measure 1
0000
0000
0000
0000
,  // measure 2
0000
0000
0000
0000
,  // measure 3
0000
0000
0000
0000
,  // measure 4
1000
0000
0100
0000
,  // measure 5
0010
0100
1000
0000
,  // measure 6
0001
0000
0100
0000
,  // measure 7
0010
0100
0001
0000
,  // measure 8
1000
0000
0010
0000
,  // measure 9
1000
0100
0010
0000
,  // measure 10
0001
0000
0010
0000
,  // measure 11
0002
0000
0003
0000
,  // measure 12
1000
0100
0010
0001
,  // measure 13
1000
0000
0001
0000
,  // measure 14
0100
0000
0000
0000
,  // measure 15
0010
1000
0001
0010
,  // measure 16
0001
0100
0000
0000
,  // measure 17
0010
0001
1000
0010
,  // measure 18
1000
0100
0000
2000
,  // measure 19
0000
3002
0000
0003
,  // measure 20
0001
0100
0010
1000
,  // measure 21
0001
0000
1000
0000
,  // measure 22
0100
0000
0000
0000
,  // measure 23
0010
0001
1000
0010
,  // measure 24
1000
0100
0000
0000
,  // measure 25
0010
1000
0001
0010
,  // measure 26
0001
0100
0000
0002
,  // measure 27
0000
2003
0000
3000
,  // measure 28
0000
0001
0000
0001
,  // measure 29
0000
0100
0001
1000
,  // measure 30
0010
1000
0000
1000
,  // measure 31
0000
0100
1000
0001
,  // measure 32
0010
0001
0000
0001
,  // measure 33
1000
0010
0100
0001
,  // measure 34
0010
0100
0010
0001
,  // measure 35
0100
0010
1000
0100
,  // measure 36
0000
1000
0000
1000
,  // measure 37
0000
0010
1000
0001
,  // measure 38
0100
0001
0000
0001
,  // measure 39
0000
0010
0001
1000
,  // measure 40
0100
1000
0000
1000
,  // measure 41
0001
0100
0010
1000
,  // measure 42
0200
0000
0000
0000
,  // measure 43
0300
0000
0010
0001
,  // measure 44
1000
0010
1000
1000
,  // measure 45
1000
0000
0010
1000
,  // measure 46
0001
0010
0001
0001
,  // measure 47
0001
0000
0100
0010
,  // measure 48
1000
0000
0001
0001
,  // measure 49
0001
0000
0100
0100
,  // measure 50
0100
0000
1000
0000
,  // measure 51
0010
0000
0100
1000
,  // measure 52
0001
0100
0001
0001
,  // measure 53
0001
0000
0100
0001
,  // measure 54
1000
0100
1000
1000
,  // measure 55
1000
0000
0010
0100
,  // measure 56
0001
0000
1000
1000
,  // measure 57
1000
0000
0010
0010
,  // measure 58
0010
0000
0001
0000
,  // measure 59
0100
0000
1000
0000
,  // measure 60
1000
0010
0100
0001
,  // measure 61
1000
0001
1000
0000
,  // measure 62
0001
0010
0100
1000
,  // measure 63
0001
1000
0000
0000
,  // measure 64
0001
0100
0010
1000
,  // measure 65
0001
1000
0001
0000
,  // measure 66
1000
0100
0010
0001
,  // measure 67
1000
0001
0000
0000
,  // measure 68
1000
0010
1000
0100
,  // measure 69
0010
0001
0100
0001
,  // measure 70
1000
0010
1000
0100
,  // measure 71
0110
0000
0000
0110
0000
0000
0220
0000
,  // measure 72
0330
0000
0000
0000
;
