#VERSION:0.83;
#TITLE:FOREVER BABY;
#SUBTITLE:;
#ARTIST:CARLITA feat. JANET PLANET;
#TITLETRANSLIT:;
#SUBTITLETRANSLIT:;
#ARTISTTRANSLIT:;
#GENRE:;
#ORIGIN:;
#CREDIT:;
#BANNER:FOREVER BABY.png;
#BACKGROUND:FOREVER BABY-bg.png;
#PREVIEWVID:;
#JACKET:FOREVER BABY - jacket.jpg;
#CDIMAGE:;
#DISCIMAGE:;
#LYRICSPATH:;
#CDTITLE:;
#MUSIC:FOREVER BABY.ogg;
#OFFSET:-1.010000;
#SAMPLESTART:90.025970;
#SAMPLELENGTH:12.000000;
#SELECTABLE:YES;
#BPMS:0.000=128.000;
#STOPS:;
#DELAYS:;
#WARPS:;
#TIMESIGNATURES:0.000=4=4;
#TICKCOUNTS:0.000=4;
#COMBOS:0.000=1;
#SPEEDS:0.000=1.000=0.000=0;
#SCROLLS:0.000=1.000;
#FAKES:;
#LABELS:0.000=Song Start;
#BGCHANGES:15.750=FOREVER BABY.avi=1.000=1=0=0=StretchNoLoop==CrossFade==,
239.000=FOREVER BABY-bg.png=1.000=0=0=1===CrossFade_Fastest==,
99999=-nosongbg-=1.000=0=0=0 // don't automatically add -songbackground-
;
#KEYSOUNDS:;
#ATTACKS:
;

//---------------dance-single - ----------------
#NOTEDATA:;
#CHARTNAME:;
#STEPSTYPE:dance-single;
#DESCRIPTION:;
#CHARTSTYLE:;
#DIFFICULTY:Hard;
#METER:8;
#RADARVALUES:0.480120,0.588842,0.017104,0.179587,0.384829,393.000000,391.000000,2.000000,21.000000,0.000000,0.000000,0.000000,0.000000,0.000000,0.480120,0.588842,0.017104,0.179587,0.384829,393.000000,391.000000,2.000000,21.000000,0.000000,0.000000,0.000000,0.000000,0.000000;
#CREDIT:Alchemy Jones;
#NOTES:
0000
0000
0000
0000
,
0000
0000
0000
0000
,
0000
0000
0000
0000
,
0000
0000
0000
0000
0001
0000
0001
0010
,
0001
0000
2000
0000
0000
0000
3000
0000
0010
0000
0000
0010
0000
0000
0010
0000
,
0000
0000
0200
0000
0000
0000
0300
0000
0001
0000
0000
0001
0000
0000
0001
0000
,
0000
0000
0020
0000
0000
0000
0030
0000
0100
0000
0000
0100
0000
0000
0100
0000
,
0000
0000
2000
0000
0000
0000
3000
0000
0001
0000
0000
0001
0000
0000
0001
0000
,
1000
0100
1000
0000
0100
0010
0100
0000
,
0010
0001
0010
0000
0001
0100
0001
0000
,
0100
0010
0100
0000
0010
1000
0010
0000
,
1000
0001
1000
0000
0010
0100
0010
0000
,
1000
0100
1000
0100
0010
0100
0010
0100
,
0010
0001
0010
0001
1000
0001
1000
0001
,
0010
0010
0010
0010
0010
0010
0010
0010
,
0010
0100
0010
0100
0010
0100
0010
0100
0020
0000
0000
0000
0030
0000
0000
0000
,
1001
0000
1000
0000
0010
0000
0000
0000
1000
0000
1000
0001
0000
0001
0100
0000
,
1000
0000
0100
0000
0010
0000
0000
0000
1000
0000
1000
0001
0000
0001
0010
0000
,
0100
1000
0001
0000
0100
0000
0001
0000
1000
0000
0001
0010
0000
0001
1000
0000
,
0010
0000
0200
0000
0000
0000
0300
0000
0010
0000
0010
1000
0000
1000
0001
0000
,
0100
0000
0001
0000
0010
0000
0000
0000
0001
0000
0001
1000
0000
1000
0100
0000
,
0001
0000
0100
0000
0010
0000
0000
0000
0001
0000
0001
1000
0000
1000
0010
0000
,
0100
0001
1000
0000
0100
0000
1000
0000
0001
0000
1000
0010
0000
1000
0001
0000
,
0010
0000
0200
0000
0000
0000
0300
0000
1000
0010
1000
0000
0000
0000
0001
0000
,
0000
0000
0010
0000
0010
0001
0000
0001
1000
0000
0000
0000
0010
0100
0000
0000
,
0000
0000
0010
0000
0010
1000
0000
1000
0001
0000
0000
0000
0010
0100
0000
0000
,
0000
0000
1000
0000
1000
0001
0000
0001
0100
0000
0000
0000
0010
0100
0000
0000
,
0000
0000
0001
0000
0001
1000
0000
1000
0100
0000
0000
0000
0010
0100
1000
0000
,
0000
0000
0002
0000
0000
0000
0003
0100
0001
0000
0100
0001
0000
0100
0001
0000
,
0000
0000
2000
0000
0000
0000
3000
0100
1000
0000
0100
1000
0000
0100
1000
0000
,
0000
0000
0020
0000
0000
0000
0030
0100
0010
0000
0100
0010
0000
0100
0010
0000
,
0000
0200
0000
0300
0002
0000
0000
0000
,
1003
0100
0010
0100
1000
0100
0010
0100
,
1000
0010
0100
0010
1000
0010
0100
0010
,
1000
0100
0010
0100
1000
0100
0010
0100
,
1000
0010
0100
0010
2000
0000
0000
0000
,
3001
0010
0100
0010
0001
0010
0100
0010
,
0001
0100
0010
0100
0001
0100
0010
0100
,
0001
0000
0001
0000
1000
0100
0010
0100
,
2000
0000
3002
0000
,
0003
0000
0200
0000
0000
0000
0300
0000
0010
0000
0000
0010
0000
0000
0010
0000
,
0000
0000
2000
0000
0000
0000
3000
0000
0001
0000
0000
0001
0000
0000
0001
0000
,
0000
0000
0020
0000
0000
0000
0030
0100
0010
0000
0100
0010
0000
0100
0010
0000
,
0000
0000
0002
0000
0000
0000
0003
1000
0001
0000
1000
0001
0000
1000
0001
0000
,
0100
0010
0100
0001
0100
0010
0100
0001
,
1000
0010
0000
0100
0000
0010
1000
0000
0001
0010
0000
0100
0000
0010
0001
0000
,
1000
0100
1000
0000
0001
0010
0001
0000
0100
0001
0100
0000
0010
1000
0010
0000
,
0100
0010
1000
0001
0020
0000
0030
0000
,
1001
0000
0001
0000
0100
0000
0000
0000
0001
0000
0001
1000
0000
1000
0010
0000
,
0001
0000
0010
0000
0100
0000
0000
0000
0001
0000
0001
1000
0000
1000
0100
0000
,
0010
0001
1000
0000
0010
0000
1000
0000
0001
0000
1000
0100
0000
1000
0001
0000
,
0100
0000
0020
0000
0000
0000
0030
0000
0100
0000
0100
0001
0000
0001
1000
0000
,
0010
0000
1000
0000
0100
0000
0000
0000
1000
0000
1000
0001
0000
0001
0010
0000
,
1000
0000
0010
0000
0100
0000
0000
0000
1000
0000
1000
0001
0000
0001
0100
0000
,
0010
1000
0001
0000
0010
0000
0001
0000
1000
0000
0001
0100
0000
0001
1000
0000
,
0100
0000
0010
0000
0000
0001
0000
0000
1000
0000
0000
0000
0010
1000
0001
0000
,
0000
0000
0010
0000
0000
0100
0000
0000
1000
0000
0000
0000
0001
0100
0000
0000
,
0000
0000
0010
0000
0000
0100
0000
0000
0001
0000
0000
0000
1000
0100
0000
0000
,
0000
0000
0010
0000
0000
0100
0000
0000
1000
0000
0000
0000
0001
0100
0000
0000
,
0000
0000
0010
0000
0000
0100
0000
0000
0001
0000
0000
0000
1000
0100
0010
0000
;

//---------------dance-single - ----------------
#NOTEDATA:;
#CHARTNAME:;
#STEPSTYPE:dance-single;
#DESCRIPTION:;
#CHARTSTYLE:;
#DIFFICULTY:Easy;
#METER:3;
#RADARVALUES:0.168592,0.307863,0.068414,0.179587,0.000000,138.000000,130.000000,8.000000,21.000000,0.000000,0.000000,0.000000,0.000000,0.000000,0.168592,0.307863,0.068414,0.179587,0.000000,138.000000,130.000000,8.000000,21.000000,0.000000,0.000000,0.000000,0.000000,0.000000;
#CREDIT:Alchemy Jones;
#NOTES:
0000
0000
0000
0000
,
0000
0000
0000
0000
,
0000
0000
0000
0000
,
0000
0000
0001
0001
,
0001
0000
2000
0000
,
3000
0000
0200
0000
,
0300
0000
0020
0000
,
0030
0000
0002
0000
,
0103
0000
0001
0000
,
0100
0000
0001
0000
,
1000
0000
0010
0000
,
1000
0000
0010
0000
,
0100
0001
0100
0001
,
1000
0010
1000
0010
,
1000
1000
1000
1000
,
2000
0000
3000
0000
,
1001
0000
0010
0001
,
1000
0000
0010
0000
,
0100
0000
0001
1000
,
0010
0000
1000
0000
,
0001
0000
0100
0001
,
1000
0000
0010
0000
,
0100
0000
0001
1000
,
0100
0000
0000
0000
,
1000
0001
1000
0010
,
0000
1000
0001
0010
,
0000
0100
1000
0001
,
0000
0100
0001
1000
,
0000
0000
0002
0000
,
0003
0000
0020
0000
,
0030
0000
0200
0000
,
0300
0000
2000
0000
,
3010
0000
0100
0000
,
0010
1000
0100
0000
,
0010
0000
0100
0000
,
0010
0001
0200
0000
,
0310
0000
0100
0000
,
0010
1000
0100
0000
,
0010
0000
0001
0000
,
1000
0000
0020
0000
,
0030
0000
2000
0000
,
3000
0000
0200
0000
,
0300
0000
0020
0000
,
0030
0000
0002
0000
,
1003
0000
0001
0000
,
1000
0001
1000
0001
,
1000
1000
0001
0001
,
1001
1001
2002
3003
,
1001
0000
0010
1000
,
0001
0000
0010
0001
,
1000
0001
0010
0001
,
0100
0000
1001
0110
,
1001
0000
0010
0001
,
1000
0000
0010
1000
,
0001
1000
0010
1000
,
0100
0000
0010
0010
,
0000
0000
0002
0000
,
0003
0000
0020
0000
,
0030
0000
0200
0000
,
0300
0000
2000
0000
,
3000
0000
0000
0000
;

//---------------dance-single - ----------------
#NOTEDATA:;
#CHARTNAME:;
#STEPSTYPE:dance-single;
#DESCRIPTION:;
#CHARTSTYLE:;
#DIFFICULTY:Medium;
#METER:5;
#RADARVALUES:0.304198,0.435231,0.034207,0.153932,0.017104,249.000000,245.000000,4.000000,18.000000,0.000000,0.000000,0.000000,0.000000,0.000000,0.304198,0.435231,0.034207,0.153932,0.017104,249.000000,245.000000,4.000000,18.000000,0.000000,0.000000,0.000000,0.000000,0.000000;
#CREDIT:Alchemy Jones;
#NOTES:
// measure 0
0000
0000
0000
0000
,  // measure 1
0000
0000
0000
0000
,  // measure 2
0000
0000
0000
0000
,  // measure 3
0000
0000
0000
0000
1000
0000
1000
0001
,  // measure 4
0010
0001
0000
0000
2000
0000
0000
3000
,  // measure 5
0000
0010
0000
0000
0200
0000
0000
0300
,  // measure 6
0000
0001
0000
0000
2000
0000
0000
3000
,  // measure 7
0000
0100
0000
0000
0020
0000
0000
0030
,  // measure 8
0001
0000
0100
0000
,  // measure 9
0010
0000
0001
0000
,  // measure 10
0100
0000
0010
0000
,  // measure 11
0001
0000
0100
0000
,  // measure 12
0001
1000
0001
1000
0001
1000
0001
1000
,  // measure 13
0010
0100
0010
0100
0010
0100
0010
0100
,  // measure 14
0001
1000
0001
1000
0001
1000
0001
1000
,  // measure 15
0002
0000
2000
3003
,  // measure 16
1001
0000
0000
0000
0001
0010
0001
1000
,  // measure 17
0100
0000
0000
0000
1000
0010
0100
0000
,  // measure 18
0001
0010
0001
0010
0100
1000
0100
1000
,  // measure 19
0001
0000
0000
0000
1000
0010
1000
0001
,  // measure 20
0100
0000
0000
0000
0001
1000
0001
0100
,  // measure 21
0010
0000
0000
0000
1000
0100
0010
0000
,  // measure 22
0001
0100
0001
0100
0010
1000
0010
1000
,  // measure 23
0001
0000
1000
0001
,  // measure 24
0000
0010
0000
0100
1000
0000
1000
0001
,  // measure 25
0000
0100
0000
0010
1000
0000
1000
0001
,  // measure 26
0000
0010
0000
0100
1000
0000
1000
0001
,  // measure 27
0000
0100
0000
0010
1000
0000
1000
0001
,  // measure 28
0000
0010
0000
0000
0200
0000
0000
0300
,  // measure 29
0000
1000
0000
0000
0002
0000
0000
0003
,  // measure 30
0000
0100
0000
0000
0020
0000
0000
0030
,  // measure 31
0000
1000
0000
0000
0002
0000
0000
0000
,  // measure 32
1003
0000
1000
0000
0100
0010
0000
0010
,  // measure 33
0001
0000
0001
0000
0100
0010
0000
0010
,  // measure 34
1000
0000
1000
0000
0001
0010
0000
0010
,  // measure 35
0100
0000
0100
0000
1000
0010
0100
0000
,  // measure 36
0001
0000
0001
0000
0010
0100
0000
0100
,  // measure 37
1000
0000
1000
0000
0010
0100
0000
0100
,  // measure 38
0001
0000
0001
0000
1000
0010
1000
0001
,  // measure 39
0100
0000
0000
0000
0010
0000
0100
0001
,  // measure 40
1000
0010
0000
0000
0200
0000
0000
0300
,  // measure 41
0000
0001
0000
0000
2000
0000
0000
3000
,  // measure 42
0000
0100
0000
0000
0020
0000
0000
0030
,  // measure 43
0000
0001
0000
0000
2000
0000
0000
3000
,  // measure 44
0001
0000
0100
0001
0100
0000
0010
0000
,  // measure 45
1001
0100
1001
0010
,  // measure 46
1000
0001
1000
0001
1000
0001
1000
0001
,  // measure 47
0010
0100
0010
0100
0010
0000
0000
0000
,  // measure 48
1001
0000
0000
0000
1000
0100
1000
0001
,  // measure 49
0010
0000
0000
0000
0100
0001
0100
0010
,  // measure 50
1000
0001
1000
0100
1000
0000
0100
0010
,  // measure 51
0100
0000
0000
0000
1000
0100
1000
0001
,  // measure 52
0010
0000
0000
0000
0001
0100
0001
1000
,  // measure 53
0010
0000
0000
0000
0100
1000
0100
0010
,  // measure 54
0001
1000
0001
0100
0001
0000
0100
0010
,  // measure 55
0100
0000
1000
0001
,  // measure 56
0000
0000
0020
0000
0000
0000
0000
0000
0130
0000
0000
0100
0000
0000
0100
0000
,  // measure 57
0000
0000
2000
0000
0000
0000
0000
0000
3001
0000
0000
0001
0000
0000
0001
0000
,  // measure 58
0000
0000
0200
0000
0000
0000
0000
0000
0310
0000
0000
0010
0000
0000
0010
0000
,  // measure 59
0000
0000
2000
0000
0000
0000
0000
0000
3001
0000
0000
0001
0000
0000
0001
0000
;
