#TITLE:FIORUCCI MADE ME HARDCORE;
#SUBTITLE:;
#ARTIST:BARRY CAN'T SWIM;
#TITLETRANSLIT:;
#SUBTITLETRANSLIT:;
#ARTISTTRANSLIT:;
#GENRE:;
#CREDIT:;
#BANNER:FIORUCCI MADE ME HARDCORE.png;
#BACKGROUND:FIORUCCI MADE ME HARDCORE - bg.png;
#LYRICSPATH:;
#CDTITLE:;
#MUSIC:FIORUCCI MADE ME HARDCORE.ogg;
#OFFSET:-0.054000;
#SAMPLESTART:75.346115;
#SAMPLELENGTH:12.000000;
#SELECTABLE:YES;
#BPMS:0.000000=137.000000
;
#STOPS:170.875000=0.438000
;
#BGCHANGES:15.750=FIORUCCI MADE ME HARDCORE.avi=1.000=1=0=0=StretchNoLoop==CrossFade==,
233.000=FIORUCCI MADE ME HARDCORE - bg.png=1.000=0=0=1=====,
99999=-nosongbg-=1.000=0=0=0 // don't automatically add -songbackground-
;
#KEYSOUNDS:;
#ATTACKS:;

//---------------dance-single - ----------------
#NOTES:
     dance-single:
     :
     Hard:
     9:
     0.534611,0.619603,0.116040,0.009670,0.468993,387.000000,375.000000,12.000000,1.000000,0.000000,0.000000,0.534611,0.619603,0.116040,0.009670,0.468993,387.000000,375.000000,12.000000,1.000000,0.000000,0.000000:
0000
0000
0000
0000
,
0000
0000
0000
0000
,
0000
0000
0000
0000
,
0000
0000
0000
0000
,
1001
0000
0010
1000
0001
0100
0010
1000
,
1001
0000
0010
0001
1000
0100
0010
0001
,
1001
0000
0000
0000
0001
0000
0100
0000
0010
0000
1000
0000
0001
0000
1000
0010
,
2000
0001
0001
3001
,
1000
0000
0000
1000
0000
0000
1000
0000
0000
1000
0000
0000
0100
0000
0010
0000
,
0001
0000
0000
0001
0000
0000
0001
0000
0000
0001
0000
0000
1000
0000
0100
0000
,
0010
0000
0000
0010
0000
0000
0010
0000
0000
0010
0000
0000
0001
0000
1000
0000
,
0100
0000
0000
0100
0000
0000
0100
0000
0000
0100
0000
0000
0010
0000
0001
0000
,
1000
0000
0000
1000
0000
0000
1000
0000
0000
1000
0000
0000
0010
0000
0100
0000
,
0001
0000
0000
0001
0000
0000
0001
0000
0000
0001
0000
0000
0010
0000
0100
0000
,
1000
0000
0000
0010
0000
0000
0001
0000
0000
1000
0000
0000
0100
0000
0000
0001
,
0000
0000
1000
0000
0000
0100
0000
0000
0001
0000
0000
1000
0000
0000
0010
0000
,
0001
0000
0010
0000
0100
0000
0010
0000
0001
1000
0100
0000
1000
0000
0000
0000
,
0010
0000
1000
0000
0001
0000
0000
0010
0000
0100
1000
0000
0001
0000
0000
0000
,
0010
0000
0001
0000
1000
0000
0000
0010
0000
0100
0001
0000
1000
0000
0000
0000
,
0100
0000
1000
0000
0001
0000
0000
0100
0000
0001
1000
0000
0001
0000
0010
0001
,
0100
0000
0001
0000
1000
0000
0000
0100
0000
1000
0001
0000
1000
0000
0000
0000
,
0010
0000
0100
0000
0001
0000
0000
0010
0000
0100
1000
0000
0001
0000
0000
0000
,
1000
0000
0000
0010
0000
0000
0001
0000
0000
1000
0000
0000
0100
0000
0000
0001
,
1000
0010
1000
0010
0001
0010
0001
0010
,
1000
0010
1000
0010
0001
0010
0001
0010
,
1000
0010
1000
0010
0001
0010
0001
0010
,
1000
1000
1000
1000
1000
0010
0001
0001
,
0001
0010
1000
0100
0001
0000
0100
1000
,
0010
0000
0000
0100
0000
0000
0001
0000
0000
0010
0000
0010
0001
0000
1000
0000
,
0010
0000
0000
0001
0000
0000
0010
0000
0000
1000
0000
0000
0001
0000
0010
0000
,
0100
0000
0000
1000
0000
0000
0100
0000
0000
0001
0000
0001
0100
0000
0010
0000
,
0001
0000
0000
1000
0000
0000
0010
0000
0000
0001
0000
0000
0010
0000
1000
0000
,
0001
0000
0000
0010
0000
0000
1000
0000
0000
0010
0000
0010
0100
0000
1000
0000
,
0001
0000
0000
0010
0000
0000
1000
0000
0000
0001
0000
0000
0100
0000
0000
1000
,
0000
0000
0001
0000
0000
0100
0000
0000
1000
0000
0000
0001
0000
0000
0010
0000
,
1000
0010
0100
0010
1000
0000
0001
0010
,
0001
0000
0100
0000
0010
0000
1000
0000
0100
1000
0000
0001
1000
0000
0010
0000
,
0100
0001
0010
0100
1000
0000
0001
0100
,
0001
0010
0100
1000
0001
0010
0010
0010
,
0001
1000
0010
0100
0001
0000
1000
0010
,
1000
0000
0100
0000
0010
0000
0001
0000
0100
0001
0000
1000
0001
0000
0100
0000
,
0001
0000
0000
0010
0000
0000
1000
0000
0000
0001
0000
0000
0100
0000
0000
1000
,
0000
0000
0001
0000
0000
0100
0000
0000
1000
0000
0000
0000
0001
0000
0010
0000
,
0100
0000
0010
0000
0001
0000
1000
0000
0010
0000
0100
0000
0001
0000
0000
0010
,
0000
0000
0001
0000
1000
0010
0000
0100
0010
0000
1000
0000
0001
0000
0000
0100
,
0000
0000
1000
0000
0000
0100
0000
0100
0001
0000
1000
0000
0010
0000
0000
1000
,
0000
0000
0100
0000
0010
0001
0000
0010
0100
0000
1000
0000
0010
0000
0000
0100
,
0000
0000
0010
0000
1000
0100
0000
1000
0001
0000
0010
0000
0100
0000
0000
1000
,
0000
0000
0001
0000
0000
0100
0000
0100
0001
0000
0010
0000
0001
0000
0000
0100
,
0000
0000
1000
0000
0000
0001
0000
0000
0010
0000
0000
1000
0000
0000
0001
0000
,
0000
0010
0000
0000
1000
0000
0000
0001
0000
0000
0100
0000
1000
0000
0010
0000
,
0100
0000
0010
0000
1000
0000
0001
0000
0010
0000
0100
0000
1000
0000
0000
0010
,
0000
0000
1000
0000
0001
0010
0000
0100
0010
0000
0001
0000
1000
0000
0000
0100
,
0000
0000
0001
0000
0000
0100
0000
0100
1000
0000
0010
0000
0100
0000
0000
0001
,
0000
0000
1000
0000
0001
0010
0100
0000
0100
0000
0100
0000
0010
0000
0000
0100
,
0000
0000
0010
0000
0001
0100
0000
0001
1000
0000
0010
0000
0100
0000
0000
0001
,
0000
0000
1000
0000
0000
0100
0000
0100
0010
0000
0001
0000
0101
0000
0000
1001
,
0000
0000
1010
0000
0000
1001
0000
0000
0011
0000
0000
0110
0000
0000
1100
0000
,
0000
1001
0000
0000
0110
0000
0000
0000
0000
0000
0000
0000
0000
0000
0000
0000
;

//---------------dance-single - ----------------
#NOTES:
     dance-single:
     :
     Medium:
     7:
     0.436530,0.450620,0.067690,0.009670,0.111205,316.000000,309.000000,7.000000,1.000000,0.000000,0.000000,0.436530,0.450620,0.067690,0.009670,0.111205,316.000000,309.000000,7.000000,1.000000,0.000000,0.000000:
0000
0000
0000
0000
,
0000
0000
0000
0000
,
0000
0000
0000
0000
,
0000
0000
0000
0000
,
1001
0000
0001
0010
0100
1000
0001
0000
,
1001
0000
1000
0010
0100
0001
1000
0000
,
1001
0000
0001
0100
0010
1000
0100
0010
,
0002
1000
1000
1003
,
0010
0000
0010
0000
0010
0000
1000
0001
,
0100
0000
0100
0000
0100
0000
0010
1000
,
0001
0000
0001
0000
0001
0000
0010
0100
,
1000
0000
1000
0000
1000
0000
0001
1000
,
0100
0000
0100
0000
0100
0000
1000
0001
,
0010
0000
0010
0000
0010
0000
0100
1000
,
0001
0000
0000
0010
0000
0000
0001
0000
0000
0010
0000
0000
0001
0000
0000
1000
,
0000
0000
0100
0000
0000
1000
0000
0000
0100
0000
0000
1000
0000
0000
0001
0000
,
0100
0010
0100
0001
0010
0000
0010
0001
,
0100
0000
0001
0000
1000
0000
0010
1000
,
0100
0000
1000
0000
0001
0000
1000
0100
,
0001
0000
0100
0000
0010
0000
0001
0100
,
1000
0000
0100
0000
0010
0000
1000
0100
,
0010
0000
0100
0000
1000
0000
0001
0100
,
0010
0101
0001
1100
,
1000
0100
1000
0000
0010
1000
0010
0000
,
0001
0010
0001
0000
0100
0001
0100
0000
,
1000
0100
1000
0000
0010
1000
0010
0000
,
0100
0010
0100
0010
0100
0001
0010
0100
,
1000
0010
0100
0010
1000
0000
0010
1000
,
0100
0000
0010
0000
0001
0010
0100
0010
,
0001
0000
1000
0000
0001
0100
0010
0100
,
0001
0000
0010
0000
0100
1000
0010
0000
,
0100
0000
0001
0000
1000
0100
0010
0100
,
1000
0000
0001
0000
1000
0010
0100
0010
,
1000
0000
0000
0010
0000
0000
1000
0000
0000
0010
0000
0000
1000
0000
0000
0001
,
0000
0000
0100
0000
0000
0001
0000
0000
0100
0000
0000
0001
0000
0000
1000
0000
,
0001
0010
0100
0010
0001
0000
0010
0001
,
0100
0000
0010
0000
1000
0010
0100
0010
,
1000
0000
0001
0000
1000
0100
0010
0100
,
1000
0000
0010
0000
0100
0001
0001
0001
,
0010
0000
1001
0000
1000
0010
0100
0010
,
1000
0000
0001
0000
1000
0100
0010
0100
,
1000
0000
0000
0100
0000
0000
1000
0000
0000
0100
0000
0000
1000
0000
0000
0001
,
0000
0000
0010
0000
0000
0001
0000
0000
0010
0000
0000
0000
0001
0000
0100
0000
,
0010
0100
0001
0000
0010
0000
0100
0000
,
1000
0000
0001
0100
0001
1000
0010
0000
,
0100
0000
0001
0010
0001
1000
0100
0000
,
0010
0000
0100
1000
0001
0000
0100
0000
,
0001
0000
1000
0100
1000
0001
0010
0000
,
0100
0000
0000
0000
0010
0000
0001
0000
1000
0000
0000
0000
0010
0000
0000
0100
,
0000
0000
0010
0000
0000
0100
0000
0000
0010
0000
0000
1000
0000
0000
0001
0000
,
0000
1000
0000
0000
0001
0000
0000
1000
0000
0000
0001
0000
1000
0000
0100
0000
,
0010
0100
1000
0000
0010
0000
0100
0000
,
0001
0000
1000
0100
1000
0001
0010
0000
,
0100
0000
1000
0010
1000
0001
0010
0000
,
0100
0000
0010
0001
0001
0001
0100
0000
,
1001
0000
0001
0100
0001
1000
0010
0000
,
0100
0000
0000
0000
0001
0000
0010
0000
0001
0000
1000
0000
0100
0000
0000
0010
,
0000
0000
0100
0000
0000
0010
0000
0000
0100
0000
0000
1000
0000
0000
0001
0000
,
0000
1000
0000
0000
0001
0000
0000
0000
0000
0000
0000
0000
0000
0000
0000
0000
;

//---------------dance-single - ----------------
#NOTES:
     dance-single:
     :
     Easy:
     4:
     0.272140,0.281638,0.038680,0.000000,0.000000,197.000000,193.000000,4.000000,0.000000,0.000000,0.000000,0.272140,0.281638,0.038680,0.000000,0.000000,197.000000,193.000000,4.000000,0.000000,0.000000,0.000000:
// measure 0
0000
0000
0000
0000
,  // measure 1
0000
0000
0000
0000
,  // measure 2
0000
0000
0000
0000
,  // measure 3
0000
0000
0000
0000
,  // measure 4
1000
0100
0010
0001
,  // measure 5
0001
0100
0010
1000
,  // measure 6
1000
0100
0010
0001
,  // measure 7
0001
1000
0001
1000
,  // measure 8
0100
0000
0100
0000
,  // measure 9
1000
0000
1000
0000
,  // measure 10
0010
0000
0010
0000
,  // measure 11
0001
0000
0001
0000
,  // measure 12
0010
0000
0010
0000
,  // measure 13
1000
0000
1000
0000
,  // measure 14
0100
0000
0100
0000
,  // measure 15
0100
0000
0100
0000
,  // measure 16
0010
0001
1000
0000
,  // measure 17
0010
0000
0001
0000
,  // measure 18
0100
0001
0010
0000
,  // measure 19
1000
0000
0001
0000
,  // measure 20
0100
1000
0010
0000
,  // measure 21
0001
0000
0001
0000
,  // measure 22
1000
1000
1000
1000
,  // measure 23
0010
0001
0100
0010
,  // measure 24
0001
0100
1000
0010
,  // measure 25
0100
1000
0010
0001
,  // measure 26
0100
0100
1000
1000
,  // measure 27
1001
0001
0010
0100
,  // measure 28
0100
0001
0010
1000
,  // measure 29
0100
0100
1000
0010
,  // measure 30
0100
1000
0010
0001
,  // measure 31
0100
0100
0001
0010
,  // measure 32
0100
0001
0010
1000
,  // measure 33
0100
0001
0010
1000
,  // measure 34
0100
0001
0010
1000
,  // measure 35
1001
1000
0100
0010
,  // measure 36
0010
1000
0100
0001
,  // measure 37
0010
0010
0001
0100
,  // measure 38
0010
0001
0100
1000
,  // measure 39
0010
0010
1000
0100
,  // measure 40
0010
1000
0100
0001
,  // measure 41
0010
1000
0100
0001
,  // measure 42
0010
1000
0100
1001
,  // measure 43
1000
0010
0100
0100
,  // measure 44
1000
0010
0001
0100
,  // measure 45
0100
0001
0010
0100
,  // measure 46
0001
0010
1000
0100
,  // measure 47
0100
1000
0010
0100
,  // measure 48
1000
0010
0001
0100
,  // measure 49
1000
0010
0001
0100
,  // measure 50
1000
0010
0001
1001
,  // measure 51
0001
0100
0010
0010
,  // measure 52
0001
0100
1000
0010
,  // measure 53
0010
1000
0100
0010
,  // measure 54
1000
0100
0001
0010
,  // measure 55
0010
0001
0100
0010
,  // measure 56
0001
0100
1000
0010
,  // measure 57
0001
0100
1000
0010
,  // measure 58
0001
0100
0000
0000
;
