#VERSION:0.83;
#TITLE:FINGERS CROSSED;
#SUBTITLE:(Until Dawn Remix);
#ARTIST:AGNES;
#TITLETRANSLIT:;
#SUBTITLETRANSLIT:;
#ARTISTTRANSLIT:;
#GENRE:;
#ORIGIN:;
#CREDIT:;
#BANNER:FINGERS CROSSED (Until Dawn Remix).png;
#BACKGROUND:FINGERS CROSSED (Until Dawn Remix)-bg.png;
#PREVIEWVID:;
#JACKET:FINGERS CROSSED (Until Dawn Remix)-jacket.png;
#CDIMAGE:;
#DISCIMAGE:;
#LYRICSPATH:;
#CDTITLE:;
#MUSIC:FINGERS CROSSED (Until Dawn Remix).ogg;
#OFFSET:-1.015000;
#SAMPLESTART:92.396164;
#SAMPLELENGTH:12.000000;
#SELECTABLE:YES;
#BPMS:0.000=124.988;
#STOPS:;
#DELAYS:;
#WARPS:;
#TIMESIGNATURES:0.000=4=4;
#TICKCOUNTS:0.000=4;
#COMBOS:0.000=1;
#SPEEDS:0.000=1.000=0.000=0;
#SCROLLS:0.000=1.000;
#FAKES:;
#LABELS:0.000=Song Start;
#BGCHANGES:-2.115=FINGERS CROSSED (Until Dawn Remix).avi=1.000=0=0=0=StretchNoLoop==CrossFade_Fastest==,
242.500=FINGERS CROSSED (Until Dawn Remix)-bg.png=1.000=1=0=1===CrossFade==,
99999=-nosongbg-=1.000=0=0=0 // don't automatically add -songbackground-
;
#KEYSOUNDS:;
#ATTACKS:
;

//---------------dance-single - ----------------
#NOTEDATA:;
#CHARTNAME:;
#STEPSTYPE:dance-single;
#DESCRIPTION:;
#CHARTSTYLE:;
#DIFFICULTY:Hard;
#METER:8;
#RADARVALUES:0.494136,0.512515,0.202475,0.151856,0.194039,410.000000,386.000000,24.000000,18.000000,0.000000,0.000000,0.000000,0.000000,0.000000,0.494136,0.512515,0.202475,0.151856,0.194039,410.000000,386.000000,24.000000,18.000000,0.000000,0.000000,0.000000,0.000000,0.000000;
#CREDIT:Alchemy Jones;
#NOTES:
0000
0000
0000
0000
,
0000
0000
0000
0000
,
0000
0000
0000
0000
,
0000
0000
0000
0000
,
0001
0010
0001
0010
0100
1000
0010
1000
,
0001
0100
0001
0100
0010
1000
0100
1000
,
0000
0010
1000
0010
0100
0001
0010
0001
,
1000
0100
1000
0100
0010
0001
0100
0010
,
0010
0010
1000
0100
0000
1000
0010
0100
,
0100
0100
0001
0010
0000
0100
1000
0001
,
0000
0100
0001
1000
0000
0010
1000
0001
,
0000
0011
0000
1001
0000
0001
1000
0010
,
0000
0010
1000
0000
0001
0000
0000
0010
0000
0010
0001
0000
1000
0000
0000
0100
,
0000
0100
1000
0000
0001
0000
0000
0100
0000
0100
0001
0000
1000
0000
0000
0001
,
0000
0001
0010
0000
0100
0000
0000
1000
0000
1000
0010
0000
0100
0000
0000
0010
,
0000
1000
0001
0000
0010
0000
0000
0100
0000
1000
0001
0000
0010
0000
0100
0000
,
0100
0100
1000
0010
0000
1000
0100
0010
,
0010
0010
0001
0100
0000
0001
1000
0100
,
0000
1000
0001
0000
0100
0000
0000
0010
0000
1000
0001
0000
0010
0000
0000
0000
,
0210
1300
2020
3030
,
0001
0010
0100
1000
0010
0100
0000
0012
,
0000
1003
0100
0010
0001
1000
0000
0000
,
1000
0010
0100
0001
0010
0100
0000
2010
,
0000
0002
0000
3003
0000
0010
1000
0100
,
1000
0001
0100
1001
0000
0010
0001
0100
,
0001
1000
0100
1001
0000
0010
1000
0100
,
0000
0100
1000
0001
0000
0001
0010
1000
,
0010
0001
1000
0010
0001
0010
1001
0000
,
0001
1000
0010
1001
0000
0100
1000
0010
,
1000
0001
0010
1001
0000
0010
0001
0100
,
0000
0100
0001
1000
0000
1000
0010
0001
,
0010
1000
0001
0010
1000
0010
1001
0000
,
0010
0000
0000
0010
1000
0000
0000
1000
0001
0000
0000
0001
0100
0000
0000
0100
,
0001
0000
0000
0001
1000
0000
0100
0000
1000
0000
0010
0000
0100
0000
0001
0000
,
0010
0000
0000
0010
0001
0000
0000
0001
1000
0000
0000
1000
0010
0000
0001
0000
,
0010
1000
0001
0010
1000
0010
1001
0000
,
0010
0000
0000
0010
0001
0000
0000
0001
1000
0000
0000
1000
0100
0000
0000
0100
,
1000
0000
0000
1000
0001
0000
0100
0000
0001
0000
0010
0000
0100
0000
1000
0000
,
0010
0000
0000
0010
1000
0000
0000
1000
0001
0000
0000
0001
0010
0000
1000
0000
,
0010
0001
0000
2002
0000
0000
3003
0000
,
0200
0001
0000
0310
0000
0001
0010
0200
,
0000
1300
0001
0200
0000
0310
1000
0100
,
0000
0100
1000
0001
0000
0001
0100
1000
,
0100
0001
0000
1001
0000
1000
0001
0010
,
0200
1000
0000
0310
0000
1000
0010
0100
,
0002
0000
1003
0200
0000
0310
0001
0100
,
0000
0100
0001
1000
0000
1000
0100
0001
,
0100
1000
0000
2002
0000
3003
0000
0000
,
1000
0000
0001
0000
0010
0000
0001
1000
0100
0000
1000
0000
0001
0000
0100
0000
,
0001
0000
1000
0000
0010
0000
1000
0001
0100
0000
0001
0000
1000
0000
1100
0000
,
0000
0001
0010
0110
0000
1000
0100
0001
,
0100
1000
0001
0100
1000
0100
1001
0000
,
0001
0000
1000
0000
0100
0000
1000
0001
0010
0000
0001
0000
1000
0000
0010
0000
,
1000
0000
0001
0000
0100
0000
0001
1000
0010
0000
1000
0000
0001
0000
0101
0000
,
0000
1000
0010
0110
0000
0001
0100
1000
,
0100
0001
1000
0100
0001
0100
1001
0000
,
0100
0000
0000
0100
0001
0000
0000
0001
1000
0000
0000
1000
0010
0000
0000
0010
,
1000
0000
0000
1000
0001
0000
0010
0000
0001
0000
0100
0000
0010
0000
1000
0000
,
0100
0000
0000
0100
1000
0000
0000
1000
0001
0000
0000
0001
0100
0000
1000
0000
,
0100
0001
1000
0100
0001
0100
1001
0000
,
0220
0000
0000
0330
;

//---------------dance-single - ----------------
#NOTEDATA:;
#CHARTNAME:;
#STEPSTYPE:dance-single;
#DESCRIPTION:;
#CHARTSTYLE:;
#DIFFICULTY:Medium;
#METER:6;
#RADARVALUES:0.361563,0.384387,0.151856,0.126547,0.000000,300.000000,282.000000,18.000000,15.000000,0.000000,0.000000,0.000000,0.000000,0.000000,0.361563,0.384387,0.151856,0.126547,0.000000,300.000000,282.000000,18.000000,15.000000,0.000000,0.000000,0.000000,0.000000,0.000000;
#CREDIT:Alchemy Jones;
#NOTES:
0000
0000
0000
0000
,
0000
0000
0000
0000
,
0000
0000
0000
0000
,
0000
0000
0000
0000
,
0010
1000
0001
0100
,
0010
1000
0001
0000
0100
0001
1000
0100
,
0000
0010
0001
0000
1000
0000
0100
0000
,
0010
0001
1000
0000
0100
1000
0001
0200
,
0000
0000
0000
0310
0000
0001
1000
0200
,
0000
0000
0000
0310
0000
1000
0001
0010
,
0000
0100
1000
0010
0000
0100
0001
0010
,
0000
0110
0000
1001
0000
0100
0001
0000
,
1001
0000
1000
0000
0001
0010
0100
0000
,
1000
0100
0010
0000
0001
0010
0100
1000
,
0000
1000
0001
0000
1000
0010
0100
0000
,
0001
0100
0010
0000
1000
0010
0100
0002
,
0000
0000
0000
1003
0000
0001
0010
0200
,
0000
0000
0000
1300
0000
0100
1000
0001
,
0000
0100
0001
1000
0000
1000
0100
0000
,
0110
0110
2002
3003
,
1000
0010
1000
0010
1000
0100
0000
2000
,
0000
0000
3001
0010
0100
1000
0000
0000
,
0001
0010
0001
0010
0001
0100
0000
0002
,
0000
2000
0000
3003
0000
1000
0010
1000
,
0001
1000
0000
1001
0000
0001
0010
0001
,
1000
0000
1000
0100
0000
0000
0100
0010
,
0000
0010
0001
1000
0000
0001
0010
0001
,
0010
0100
0000
0200
0000
0010
0310
0000
,
0001
1000
0000
1001
0000
0001
0010
0001
,
0000
0001
0100
0010
0000
0010
1000
0100
,
0000
0100
1000
0001
0000
1000
0010
1000
,
0010
0100
0000
0110
0000
0000
0000
0000
,
0001
0010
0100
1000
,
0001
0000
1000
0010
0000
0010
1000
0100
,
0000
0100
0010
0001
0000
0001
0010
0100
,
1000
0001
0000
1001
0000
0000
0000
0000
,
1000
0100
0010
0001
,
1000
0000
0001
0010
0000
0010
0001
0100
,
0000
0100
0010
1000
0000
1000
0100
0010
,
0001
1000
0000
2002
0000
0000
3003
0000
,
1000
0000
0010
0000
,
0100
0000
0001
0000
1000
0010
1000
0000
,
0001
0100
0001
0000
1000
0000
0100
0000
,
0010
0001
0000
1001
0000
0000
0000
0000
,
0001
0000
0100
0000
,
0010
0000
1000
0000
0001
0100
0001
1000
,
0000
1000
0010
0000
0100
0000
0001
0010
,
0100
1000
0000
1001
0000
0001
0010
0001
,
1000
0001
0000
1001
0000
1000
0010
1000
,
0001
0000
0001
0100
0000
0000
0100
0010
,
0000
0010
1000
0001
0000
1000
0010
1000
,
0010
0100
0000
0200
0000
0010
0310
0000
,
1000
0001
0000
1001
0000
1000
0010
1000
,
0000
1000
0100
0010
0000
0010
0001
0100
,
0000
0100
0001
1000
0000
0001
0010
0001
,
0010
0100
0000
0110
0000
0000
0000
0000
,
1000
0100
0010
0001
,
1000
0000
0001
0100
0000
0100
0001
0010
,
0000
0010
0100
1000
0000
1000
0100
0010
,
0001
1000
0000
1001
0000
0010
0100
0000
,
0220
0000
0000
0330
;

//---------------dance-single - ----------------
#NOTEDATA:;
#CHARTNAME:;
#STEPSTYPE:dance-single;
#DESCRIPTION:;
#CHARTSTYLE:;
#DIFFICULTY:Easy;
#METER:3;
#RADARVALUES:0.232606,0.256258,0.067492,0.109674,0.000000,193.000000,185.000000,8.000000,13.000000,0.000000,0.000000,0.000000,0.000000,0.000000,0.232606,0.256258,0.067492,0.109674,0.000000,193.000000,185.000000,8.000000,13.000000,0.000000,0.000000,0.000000,0.000000,0.000000;
#CREDIT:Alchemy Jones;
#NOTES:
// measure 0
0000
0000
0000
0000
,  // measure 1
0000
0000
0000
0000
,  // measure 2
0000
0000
0000
0000
,  // measure 3
0000
0000
0000
0000
,  // measure 4
1000
0010
1000
0010
,  // measure 5
0100
0001
0100
0001
,  // measure 6
0010
0001
0010
0001
,  // measure 7
1000
0100
1000
0100
,  // measure 8
0020
0000
0031
0000
,  // measure 9
2000
0000
3100
0000
,  // measure 10
0010
0001
0100
0001
,  // measure 11
0010
0100
0010
0100
,  // measure 12
1000
1000
0001
0001
,  // measure 13
1000
1000
0001
0001
,  // measure 14
0010
0100
0010
0100
,  // measure 15
1000
0001
1000
0001
,  // measure 16
0200
0000
0301
0000
,  // measure 17
2000
0000
3010
0000
,  // measure 18
0100
0010
0100
0010
,  // measure 19
1000
1000
2000
0000
,  // measure 20
3001
0010
0100
0000
,  // measure 21
0010
0001
1000
0000
,  // measure 22
1000
0010
0100
0000
,  // measure 23
2002
0000
3003
1000
,  // measure 24
0100
0010
0100
1000
,  // measure 25
0002
0000
1003
0000
,  // measure 26
0010
1000
0100
1000
,  // measure 27
0010
0001
0100
1000
,  // measure 28
0010
0100
0010
1000
,  // measure 29
0002
0000
1003
0000
,  // measure 30
0100
1000
0010
1000
,  // measure 31
0100
0001
0010
1000
,  // measure 32
0100
0010
0100
0010
,  // measure 33
0001
0100
0001
0100
,  // measure 34
0010
0100
0010
0100
,  // measure 35
1001
0000
0110
0000
,  // measure 36
0100
0010
0100
0010
,  // measure 37
1000
0100
1000
0100
,  // measure 38
0010
0100
0010
0100
,  // measure 39
1001
0000
0110
0000
,  // measure 40
1000
0000
0001
0000
,  // measure 41
0100
0000
0010
0000
,  // measure 42
1000
0000
0001
0000
,  // measure 43
0010
0100
0010
0000
,  // measure 44
0001
0000
1000
0000
,  // measure 45
0010
0000
0100
0000
,  // measure 46
0001
0001
0001
0000
,  // measure 47
1000
1000
1000
0001
,  // measure 48
0010
0100
0010
0001
,  // measure 49
2000
0000
3001
0000
,  // measure 50
0100
0001
0010
0001
,  // measure 51
0100
1000
0010
0001
,  // measure 52
0100
0010
0100
0001
,  // measure 53
2000
0000
3001
0000
,  // measure 54
0010
0001
0100
0001
,  // measure 55
0010
1000
0100
0001
,  // measure 56
0010
0100
0010
0100
,  // measure 57
1000
0010
1000
0010
,  // measure 58
0100
0010
0100
0010
,  // measure 59
1001
0000
0110
0000
,  // measure 60
2002
0000
0000
3003
;
