#TITLE:EMOTIONS;
#SUBTITLE:;
#ARTIST:DESIRED;
#TITLETRANSLIT:;
#SUBTITLETRANSLIT:;
#ARTISTTRANSLIT:;
#GENRE:;
#CREDIT:;
#BANNER:EMOTIONS.png;
#BACKGROUND:EMOTIONS - bg.png;
#LYRICSPATH:;
#CDTITLE:;
#MUSIC:EMOTIONS.ogg;
#OFFSET:0.479000;
#SAMPLESTART:5.304000;
#SAMPLELENGTH:12.000000;
#SELECTABLE:YES;
#BPMS:0.000000=124.000000
;
#STOPS:
;
#BGCHANGES:11.750=EMOTIONS.avi=1.000=1=0=0=StretchNoLoop==CrossFade==,
220.000=EMOTIONS - bg.png=1.000=1=0=1===CrossFade==,
99999=-nosongbg-=1.000=0=0=0 // don't automatically add -songbackground-
;
#KEYSOUNDS:;
#ATTACKS:;

//---------------dance-single - ----------------
#NOTES:
     dance-single:
     :
     Hard:
     7:
     0.412323,0.446969,0.080174,0.240522,0.138077,324.000000,315.000000,9.000000,27.000000,0.000000,0.000000,0.412323,0.446969,0.080174,0.240522,0.138077,324.000000,315.000000,9.000000,27.000000,0.000000,0.000000:
0000
0000
0000
0000
,
0000
0000
0000
0000
,
0000
0000
0000
0000
,
0001
0100
0010
0001
0010
0000
1000
0000
,
0001
0010
0100
0000
0001
0100
1000
0000
,
0100
0010
1000
0100
0010
0000
0001
0000
,
2000
3200
0320
0032
,
1003
0100
0010
1000
0010
0000
0001
0000
,
1000
0010
0100
0000
1000
0100
0001
0000
,
0100
0010
0001
0100
0010
0000
1000
0000
,
0002
0000
0023
0000
0130
1000
0010
0000
,
2100
0000
0002
3003
,
0102
0000
2000
3003
,
0210
0000
0020
0330
,
1001
0110
1001
0110
,
1000
0100
0010
0100
1000
0010
0100
0010
,
1000
0001
0010
0100
0010
0001
0010
0001
,
0100
0010
0100
0001
0010
0100
0010
0001
,
0100
0010
1000
0100
1000
0010
1000
0010
,
0100
1000
0100
0001
0100
1000
0100
1000
,
0100
0001
0010
1000
0010
0001
0010
0001
,
0010
1000
0010
0001
0100
1000
0100
0001
,
1000
0100
0001
0100
1000
0010
1000
0010
,
0100
0000
0000
0001
0000
0001
0010
0000
0100
0000
1000
0000
0001
0000
0000
0000
,
0100
0000
0000
0000
0010
0100
0001
0010
0000
0000
0000
0000
0100
0000
0000
1000
,
0000
1000
0100
0000
0010
0000
0001
0000
1000
0000
0000
0000
0010
1000
0100
1000
,
0000
0000
0000
0000
0010
0100
0001
0010
0001
0000
0000
0000
0110
0000
0000
0000
,
1000
0010
0100
0010
1000
0100
0010
0001
,
0100
0000
0001
0000
0010
0000
0100
0000
1000
0000
0000
0000
0000
0001
1000
0001
,
0200
0000
0000
1000
0000
0000
0001
0000
0000
1300
0000
0000
0000
0001
0010
0001
,
0100
0000
0000
0000
0000
0010
1000
0010
0100
0000
0000
0000
0001
0000
0001
0000
,
2002
0000
0000
0000
,
0000
3003
0020
0030
,
2000
3000
0200
0001
,
1300
0020
1000
0031
,
1000
0100
0010
0100
1000
0010
0100
0000
,
0001
0000
0010
0000
0100
0000
0000
0000
1000
0000
0000
0001
0000
0100
0000
0000
,
0010
0100
0001
0000
0001
0010
1000
0000
,
0010
0000
0001
0000
0100
0000
0020
0000
1000
0000
0000
1000
0000
0000
1030
0000
,
0001
0010
0100
0010
0001
0100
0010
0000
,
1000
0000
0100
0000
0010
0000
0000
0000
0001
0000
0000
1000
0000
0010
0000
0000
,
0100
0010
1000
0000
1000
0100
0001
0000
,
0100
0000
1000
0000
0010
0000
0200
0000
0001
0000
0000
0001
0000
0000
0301
0000
,
1000
0010
0100
0010
1000
0100
0010
0000
,
0001
0000
0100
0000
0010
0000
0000
0000
1000
0000
0000
0001
0000
0010
0000
0000
,
0100
0010
0001
0000
0001
0100
1000
0000
,
0100
0000
0001
0000
0010
0000
0200
0000
1000
0000
0000
1000
0000
0000
1300
0000
,
0001
0100
0010
0100
0001
0010
0100
0000
,
1000
0000
0010
0000
0100
0000
0000
0000
0001
0000
0000
1000
0000
0100
0000
0000
,
0010
0100
1000
0000
1000
0010
0001
0000
,
0010
0000
1000
0000
0100
0000
0020
0000
0001
0000
0000
0001
0000
0000
0031
0000
,
1000
0100
1000
0010
0200
0000
0301
0000
,
0010
0001
0100
0000
0010
1000
0001
0000
,
0010
0001
0100
0010
0200
0000
0300
0000
,
0020
0000
0000
0000
0030
0000
1000
0000
0100
0000
0010
0001
0000
0000
0100
0000
,
2000
0000
0000
3000
;

//---------------dance-single - ----------------
#NOTES:
     dance-single:
     :
     Medium:
     5:
     0.321968,0.372475,0.097990,0.204889,0.000000,253.000000,242.000000,11.000000,23.000000,0.000000,0.000000,0.321968,0.372475,0.097990,0.204889,0.000000,253.000000,242.000000,11.000000,23.000000,0.000000,0.000000:
// measure 0
0000
0000
0000
0000
,  // measure 1
0000
0000
0000
0000
,  // measure 2
0000
0000
0000
0000
,  // measure 3
1000
0000
0010
1000
0100
0000
0010
0000
,  // measure 4
0001
0000
1000
0000
0100
1000
0010
0000
,  // measure 5
1001
0000
0010
0001
0100
0000
0010
0000
,  // measure 6
1000
0000
0001
0000
0100
0001
0010
0001
,  // measure 7
0100
0000
0010
1000
0100
0000
0010
0000
,  // measure 8
0001
0000
1000
0000
0100
1000
0010
0000
,  // measure 9
1001
0000
0010
0001
0100
0000
0010
0000
,  // measure 10
1000
0000
0001
0000
0010
0001
0100
0001
,  // measure 11
0020
0000
0200
0330
,  // measure 12
2000
0000
0002
3003
,  // measure 13
0200
0000
0020
0330
,  // measure 14
1001
0110
1001
0110
,  // measure 15
0100
0001
0010
0000
0100
1000
0010
0000
,  // measure 16
0100
0001
0010
0000
0100
0010
0100
0010
,  // measure 17
0100
1000
0010
0000
0100
0001
0010
0000
,  // measure 18
0100
1000
0010
0000
0100
0010
0100
0010
,  // measure 19
0100
0001
0100
0000
0001
1000
0001
1000
,  // measure 20
0100
1000
0010
0000
0100
0001
0100
0001
,  // measure 21
0100
0001
0010
0000
0100
1000
0010
0000
,  // measure 22
0100
0001
0010
0000
0100
0010
0100
0010
,  // measure 23
0100
0000
1000
0001
0200
0000
0000
0000
,  // measure 24
0301
0000
1000
0100
0010
0000
0000
0002
,  // measure 25
0000
0000
0000
0000
0000
0000
0103
0010
,  // measure 26
1000
0000
0010
1000
0001
0000
0000
0000
,  // measure 27
1000
0100
0010
0000
0001
0010
0100
0000
,  // measure 28
1000
0100
0010
0001
1000
0000
0000
0000
,  // measure 29
1100
0101
1100
0101
,  // measure 30
2000
0000
0002
3003
,  // measure 31
0220
0000
0000
0330
,  // measure 32
0002
0003
2000
3000
,  // measure 33
0002
0003
0010
0100
,  // measure 34
1000
0001
0010
0100
,  // measure 35
1000
0010
0100
0000
0002
0000
0003
0000
,  // measure 36
0010
0000
0100
0000
1000
0000
0010
0100
,  // measure 37
0001
0000
0010
0000
0100
1000
0001
0000
,  // measure 38
0010
0100
1000
0000
0001
0000
0001
0000
,  // measure 39
0001
0010
0100
0000
2000
0000
3000
0000
,  // measure 40
0010
0000
0100
0000
0001
0000
0010
0100
,  // measure 41
1000
0000
0010
0000
0100
0001
1000
0000
,  // measure 42
0010
0100
0001
0000
1000
0000
1000
0000
,  // measure 43
1000
0100
0010
0000
0002
0000
0003
0000
,  // measure 44
0100
0000
0010
0000
1000
0000
0100
0010
,  // measure 45
0001
0000
0100
0000
0010
1000
0001
0000
,  // measure 46
0100
0010
1000
0000
0001
0000
0001
0000
,  // measure 47
0001
0100
0010
0000
2000
0000
3000
0000
,  // measure 48
0100
0000
0010
0000
0001
0000
0100
0010
,  // measure 49
1000
0000
0100
0000
0010
0001
1000
0000
,  // measure 50
0100
0010
0001
0000
1000
0000
1000
0000
,  // measure 51
1000
0001
0010
0100
,  // measure 52
1000
0000
0001
0000
0010
0000
0100
2000
,  // measure 53
0000
0000
3001
0100
0020
0000
0030
0000
,  // measure 54
2000
0000
3000
0100
0010
0100
1000
0100
,  // measure 55
2000
0000
0000
3000
;

//---------------dance-single - ----------------
#NOTES:
     dance-single:
     :
     Easy:
     3:
     0.199798,0.322811,0.097990,0.080174,0.000000,157.000000,146.000000,11.000000,9.000000,0.000000,0.000000,0.199798,0.322811,0.097990,0.080174,0.000000,157.000000,146.000000,11.000000,9.000000,0.000000,0.000000:
0000
0000
0000
0000
,
0000
0000
0000
0000
,
0000
0000
0000
0000
,
1000
1000
0010
0010
,
0001
0001
0100
0100
,
0001
0001
0010
0010
,
1000
0100
0010
0001
,
0001
0001
0100
0100
,
1000
1000
0010
0010
,
1000
1000
0100
0100
,
0001
0010
0100
1000
,
1001
0000
0110
0000
,
1001
0000
0110
0000
,
1001
0000
0110
0000
,
1001
1001
1001
1001
,
1000
0000
0001
0000
,
1000
0000
0001
0010
,
0100
0000
0010
0000
,
0100
0000
0010
0100
,
1000
0000
0001
0000
,
1000
0010
0100
0000
,
0010
0000
0100
0000
,
0001
0010
1000
0100
,
0001
0000
2000
0000
,
3000
0001
0010
0000
,
2000
0000
3000
0100
,
0002
0000
2000
3003
,
1000
0100
0010
0001
,
0100
0010
1000
0000
,
0001
0001
0010
0010
,
0200
0000
2000
3300
,
2002
0000
0000
3003
,
0010
0000
1000
0000
,
0001
0000
0100
0000
,
0001
0010
0100
1000
,
0001
0100
0010
0000
,
0001
0000
0100
1000
,
0010
0000
0100
0000
,
0010
1000
0100
0000
,
1000
0100
0010
0000
,
1000
0000
0100
0001
,
0010
0000
0100
0000
,
0010
0001
0100
0000
,
0001
0010
0100
0000
,
0001
0000
0010
1000
,
0100
0000
0010
0000
,
0100
1000
0010
0000
,
1000
0010
0100
0000
,
1000
0000
0010
0001
,
0100
0000
0010
0000
,
0100
0001
0010
0000
,
0100
0000
1000
0000
,
0001
0000
0100
0000
,
0001
0000
1000
0000
,
0100
0000
0010
0000
,
0200
0000
0000
0300
;
