#TITLE:DISCO BODY PARTS;
#SUBTITLE:;
#ARTIST:YUNG BAE feat. AWOLNATION;
#TITLETRANSLIT:;
#SUBTITLETRANSLIT:;
#ARTISTTRANSLIT:;
#GENRE:;
#CREDIT:;
#BANNER:DISCO BODY PARTS.png;
#BACKGROUND:DISCO BODY PARTS - bg.png;
#LYRICSPATH:;
#CDTITLE:;
#MUSIC:DISCO BODY PARTS.ogg;
#OFFSET:-0.126000;
#SAMPLESTART:56.146503;
#SAMPLELENGTH:12.000000;
#LASTBEATHINT:188.000000;
#SELECTABLE:YES;
#BPMS:0.000000=123.000000
;
#STOPS:
;
#BGCHANGES:0.000=DISCO BODY PARTS.avi=1.000=1=0=0=StretchNoLoop==CrossFade==,
182.500=DISCO BODY PARTS - bg.png=1.000=1=0=1===CrossFade==,
99999=-nosongbg-=1.000=0=0=0 // don't automatically add -songbackground-
;
#KEYSOUNDS:;
#ATTACKS:;

//---------------dance-single - ----------------
#NOTES:
     dance-single:
     :
     Hard:
     6:
     0.386100,0.387234,0.174038,0.184275,0.051188,264.000000,247.000000,17.000000,18.000000,0.000000,0.000000,0.386100,0.387234,0.174038,0.184275,0.051188,264.000000,247.000000,17.000000,18.000000,0.000000,0.000000:
// measure 0
0000
0000
0000
0000
,  // measure 1
0000
0000
0000
0000
,  // measure 2
0000
0000
0000
0000
,  // measure 3
0001
0010
0001
0010
0001
0000
1000
0010
,  // measure 4
0001
0010
1000
0010
0001
0000
1000
0010
,  // measure 5
0001
0010
1000
0010
0001
0000
1000
0010
,  // measure 6
0001
0010
1000
0010
0001
0010
1000
0100
,  // measure 7
0001
0100
1000
0100
0001
0000
1000
0010
,  // measure 8
0001
0010
1000
0010
0001
0000
1000
0010
,  // measure 9
0001
0010
1000
0010
0001
0000
1000
0010
,  // measure 10
0001
0010
1000
0010
0001
0010
1000
0100
,  // measure 11
0001
0000
0100
0000
1000
0000
0100
0000
0001
0000
0000
0000
0100
1000
0000
0000
,  // measure 12
1010
0000
0001
0010
0001
0000
1000
0010
,  // measure 13
1000
0000
0001
0000
0020
0000
0000
0000
0031
0000
0000
0000
0100
0001
0000
0000
,  // measure 14
0011
0000
1000
0010
1000
0000
0001
0010
,  // measure 15
0001
1000
0010
0100
0101
0000
1010
0000
,  // measure 16
1001
0000
1000
0100
1000
0000
0001
0100
,  // measure 17
0001
0000
1000
0000
0200
0000
0000
0000
1300
0000
0000
0000
0010
1000
0000
0000
,  // measure 18
1100
0000
0001
0100
0001
0000
1000
0010
,  // measure 19
1000
0100
0001
0100
1000
0000
1001
0000
,  // measure 20
0000
0220
0000
0330
,  // measure 21
1000
0001
1000
0020
0000
0000
0200
0000
,  // measure 22
0330
0000
0002
0000
0000
0020
0000
0033
,  // measure 23
1000
0010
1000
0200
0000
0000
0300
0000
,  // measure 24
0000
2020
0000
3030
,  // measure 25
0001
0010
0001
2000
0000
0000
3001
0000
,  // measure 26
1000
0100
0010
0001
1000
0100
0010
0001
,  // measure 27
0100
0010
0100
0020
0000
0000
0030
0000
,  // measure 28
1001
0000
0101
0000
1100
0000
0001
0100
,  // measure 29
1000
0100
0001
0100
1000
0000
0001
0100
,  // measure 30
1000
0100
0001
0100
1000
0000
0001
0100
,  // measure 31
1000
0100
0001
0100
1000
0100
0001
0010
,  // measure 32
1000
0010
0001
0010
1000
0000
0001
0100
,  // measure 33
1000
0100
0001
0100
1000
0000
0001
0100
,  // measure 34
1000
0100
0001
0100
1000
0000
0001
0100
,  // measure 35
1000
0100
0001
0100
1000
0100
0001
0010
,  // measure 36
1000
0000
0010
0000
0001
0000
0010
0000
1000
0000
0000
0000
0010
0001
0000
0000
,  // measure 37
0101
0000
1000
0000
0000
0100
0000
0000
2000
0000
0000
0000
3000
0000
0001
0010
,  // measure 38
0000
0000
0001
0000
0000
0000
0000
0000
0100
0001
0100
0000
0010
0000
1000
0000
,  // measure 39
0002
0003
1100
0011
,  // measure 40
0001
0010
0001
0100
0010
1000
0200
0000
,  // measure 41
0300
0000
1000
0000
0000
0001
0000
0000
0020
0000
0000
0000
0030
0000
0001
1000
,  // measure 42
0000
0000
0100
0000
0000
0000
0000
0000
1000
0010
1000
0000
0001
0000
0100
0000
,  // measure 43
0020
0030
0101
1010
,  // measure 44
1000
0100
0001
0100
1000
0000
0000
0000
;

//---------------dance-single - ----------------
#NOTES:
     dance-single:
     :
     Medium:
     4:
     0.266175,0.296120,0.153563,0.184275,0.000000,182.000000,167.000000,15.000000,18.000000,0.000000,0.000000,0.266175,0.296120,0.153563,0.184275,0.000000,182.000000,167.000000,15.000000,18.000000,0.000000,0.000000:
0000
0000
0000
0000
,
0000
0000
0000
0000
,
0000
0000
0000
0000
,
0010
0010
0010
0000
,
1000
0010
1000
0000
0100
0000
0100
0000
,
0001
0010
0001
0000
0100
0000
0100
0000
,
0001
0100
0001
0000
1000
0100
1000
0000
,
0001
1000
1001
0000
,
0001
0010
0001
0000
0100
0000
0100
0000
,
1000
0010
1000
0000
0100
0000
0100
0000
,
1000
0100
1000
0000
0001
0100
0001
0000
,
0010
0100
0010
0001
,
1000
0000
0000
0000
0001
0010
0000
0200
,
0000
0300
1001
0010
,
1001
0000
0000
0100
0000
1000
0000
0020
,
0000
0030
0100
0010
,
2002
0000
3003
0000
0001
0100
0000
0200
,
0000
0300
0110
1001
,
0110
0000
0000
1000
0000
0001
0000
0000
,
0010
0100
0010
0100
0010
0000
1001
0000
,
0000
0020
0000
0030
,
0001
0010
0001
2000
0000
0000
0020
0000
,
3030
0000
0002
0000
0000
0013
0000
0000
,
0001
0000
0100
0000
2000
0000
0000
3000
,
0000
2002
0000
3003
,
1000
0010
1000
0002
0000
0000
2000
0000
,
3003
0000
0010
0100
0000
0000
0000
0000
,
0001
0100
0001
0200
0000
0000
0300
0000
,
1001
1100
0101
0001
,
1000
0100
1000
0000
0010
0000
0010
0000
,
0001
0100
0001
0000
0010
0000
0010
0000
,
0001
0010
0001
0000
1000
0010
1000
0000
,
0001
1000
1001
0000
,
0001
0100
0001
0000
0010
0000
0010
0000
,
1000
0100
1000
0000
0010
0000
0010
0000
,
1000
0010
1000
0000
0001
0010
0001
0000
,
0100
0010
0100
0001
,
1000
0000
0001
0100
0002
0000
0003
0000
,
0010
0000
1000
0000
0010
0100
0010
0000
,
2000
3000
0110
1001
,
0000
0000
0000
0000
0001
0010
0001
0000
,
0000
0000
1000
0010
1000
0000
0000
0000
,
0100
0000
0100
0000
0010
0001
0010
0001
,
0200
0300
0001
1000
,
0010
0100
0010
0100
0010
0000
0000
0000
;

//---------------dance-single - ----------------
#NOTES:
     dance-single:
     :
     Easy:
     1:
     0.108225,0.159449,0.040950,0.081900,0.000000,74.000000,70.000000,4.000000,8.000000,0.000000,0.000000,0.108225,0.159449,0.040950,0.081900,0.000000,74.000000,70.000000,4.000000,8.000000,0.000000,0.000000:
0000
0000
0000
0000
,
0000
0000
0000
0000
,
0000
0000
0000
0000
,
0020
0000
0030
0000
,
1000
0000
0100
0000
,
0001
0000
0010
0000
,
1000
0000
1000
0000
,
0001
0000
0001
0000
,
1000
0000
0010
0000
,
0001
0000
0100
0000
,
1000
0000
1000
0000
,
0001
0000
0001
0000
,
1001
0000
0001
0000
,
1000
0000
0001
0000
,
0110
0000
0010
0000
,
0100
0000
0000
0000
,
0001
0000
0000
0000
,
1000
0000
0000
0000
,
1001
0000
0000
0000
,
0010
0000
0010
0000
,
0000
2000
0000
0000
,
0001
0000
0002
0000
,
3003
0200
0000
0000
,
0010
0000
0020
0000
,
0330
0002
0000
0000
,
1000
0000
2000
0000
,
3003
0000
0000
0000
,
0100
0000
0000
0000
,
2000
0000
3000
0000
,
0001
0000
0100
0000
,
1000
0000
0010
0000
,
0001
0000
0001
0000
,
1000
0000
1000
0000
,
0001
0000
0010
0000
,
1000
0000
0100
0000
,
0001
0000
0001
0000
,
1000
0000
1000
0000
,
1001
0000
0001
0000
,
0000
0000
1000
0000
,
0000
0000
0010
0010
,
0000
0000
0001
0000
,
1000
0000
0001
0000
,
0000
0000
0010
0000
,
0010
0000
0100
0100
,
0010
0000
0010
0000
;
