#VERSION:0.83;
#TITLE:DIAL MY NUMBER;
#SUBTITLE:;
#ARTIST:MAI LAN;
#TITLETRANSLIT:;
#SUBTITLETRANSLIT:;
#ARTISTTRANSLIT:;
#GENRE:;
#ORIGIN:;
#CREDIT:;
#BANNER:DIAL MY NUMBER.png;
#BACKGROUND:Dial My Number - bg.png;
#PREVIEWVID:;
#JACKET:Dial My Number-jacket.png;
#CDIMAGE:;
#DISCIMAGE:;
#LYRICSPATH:;
#CDTITLE:;
#MUSIC:Dial My Number.ogg;
#OFFSET:0.000000;
#SAMPLESTART:87.139847;
#SAMPLELENGTH:12.000000;
#SELECTABLE:YES;
#BPMS:0.000=120.000;
#STOPS:;
#DELAYS:;
#WARPS:;
#TIMESIGNATURES:0.000=4=4;
#TICKCOUNTS:0.000=4;
#COMBOS:0.000=1;
#SPEEDS:0.000=1.000=0.000=0;
#SCROLLS:0.000=1.000;
#FAKES:;
#LABELS:0.000=Song Start;
#BGCHANGES:7.750=DIAL MY NUMBER.avi=1.000=0=0=0=StretchNoLoop==CrossFade_Fastest==,
204.000=Dial My Number - bg.png=1.000=0=0=1===CrossFade_Fastest==,
236.500=Dial My Number - bg.png=1.000=0=0=1=====,
99999=-nosongbg-=1.000=0=0=0 // don't automatically add -songbackground-
;
#KEYSOUNDS:;
#ATTACKS:
;

//---------------dance-single - ----------------
#NOTEDATA:;
#CHARTNAME:;
#STEPSTYPE:dance-single;
#DESCRIPTION:;
#CHARTSTYLE:;
#DIFFICULTY:Hard;
#METER:8;
#RADARVALUES:0.521391,0.467091,0.075642,0.047276,0.070915,386.000000,378.000000,8.000000,5.000000,0.000000,0.000000,0.000000,0.000000,0.000000,0.521391,0.467091,0.075642,0.047276,0.070915,386.000000,378.000000,8.000000,5.000000,0.000000,0.000000,0.000000,0.000000,0.000000;
#CREDIT:Alchemy Jones;
#NOTES:
// measure 0
0000
0000
0000
0000
,  // measure 1
0000
0000
0000
0000
,  // measure 2
0000
0000
0000
0000
,  // measure 3
0000
0000
0000
0000
,  // measure 4
1000
0100
0010
0001
1000
0100
0010
0001
,  // measure 5
0100
0010
1000
0001
0100
0010
1000
0001
,  // measure 6
0010
0100
1000
0001
0010
0100
1000
0001
,  // measure 7
1000
0010
0100
0001
1000
0010
0100
0001
,  // measure 8
1000
0100
0010
0001
1000
0100
0010
0001
,  // measure 9
0100
0010
1000
0001
0100
0010
1000
0001
,  // measure 10
0010
0100
1000
0001
0010
0100
1000
0001
,  // measure 11
1000
0000
0100
0000
0010
0000
0001
0100
0001
0000
0010
0000
0100
0000
1000
0000
,  // measure 12
0001
0001
0001
0100
0010
1000
0100
0010
,  // measure 13
1000
1000
1000
0010
0001
0100
0001
0010
,  // measure 14
0100
1000
0010
0100
0010
1000
0100
0010
,  // measure 15
0001
0100
0010
0001
0010
0100
0001
0010
,  // measure 16
0100
0100
0100
1000
0010
0100
0001
1000
,  // measure 17
0010
0010
0010
0100
0001
1000
0010
0100
,  // measure 18
0001
0010
0100
1000
0001
0010
0100
1000
,  // measure 19
0010
0001
0100
1000
0010
0001
0100
1000
,  // measure 20
1001
1001
0000
0100
0100
0000
0010
0010
,  // measure 21
1001
1001
0100
0100
0001
0001
1000
0010
,  // measure 22
2000
0000
3001
0100
0002
0000
1003
0100
,  // measure 23
0010
0001
0100
0010
1000
0001
0000
0000
,  // measure 24
1001
1001
0000
0010
0010
0000
0100
0100
,  // measure 25
1001
1001
1000
1000
0001
0001
0100
0010
,  // measure 26
0200
0000
0300
0000
0000
0010
1000
0100
,  // measure 27
0001
0010
1000
0100
0001
0010
1000
0100
,  // measure 28
0010
0010
0010
0010
0010
0010
0010
0010
,  // measure 29
0001
0001
0001
0001
0001
0001
0001
0001
,  // measure 30
0100
0010
0001
0100
0010
0001
1000
1000
,  // measure 31
0010
0100
1000
0010
0100
1000
0001
0001
,  // measure 32
0100
0100
0100
0100
0100
0100
0100
0100
,  // measure 33
0010
0010
0010
0010
0010
0010
0010
0010
,  // measure 34
1000
0100
0010
1000
0100
0010
1000
1000
,  // measure 35
0001
0010
0100
0001
0010
0100
0001
0001
,  // measure 36
1000
0100
0001
1000
0010
0001
1000
1000
,  // measure 37
0001
0010
1000
0001
0100
1000
0001
0001
,  // measure 38
0100
0010
0001
0100
0010
0001
1000
1000
,  // measure 39
0010
0100
1000
0010
0100
1000
0001
0001
,  // measure 40
1000
0010
0001
1000
0100
0001
0010
0010
,  // measure 41
0001
0100
1000
0001
0010
1000
0010
0010
,  // measure 42
1000
0100
0010
1000
0100
0010
1000
1000
,  // measure 43
0001
0010
0100
0001
0010
0100
0010
1000
,  // measure 44
0100
0000
0010
0000
0001
0000
0100
0010
0000
0100
0010
0000
1000
0000
0001
0000
,  // measure 45
0010
0000
0100
0000
1000
0000
0001
1000
0000
0001
1000
0000
0010
0000
0100
0000
,  // measure 46
0001
0000
1000
0000
0100
0000
0010
0100
0000
0010
0100
0000
1000
0000
0001
0000
,  // measure 47
0100
0000
0010
0000
1000
0000
0010
1000
0000
0010
1000
0000
0100
0000
0010
0000
,  // measure 48
0001
0000
1000
0000
0010
0000
0100
0010
0000
0100
0010
0000
1000
0000
0001
0000
,  // measure 49
0010
0000
0100
0000
0010
0000
0001
0010
0000
0001
0010
0000
0100
0000
1000
0000
,  // measure 50
0001
0000
1000
0000
0010
0000
0100
0010
0000
0100
0010
0000
1000
0000
0100
0000
,  // measure 51
0001
0010
0001
0100
2000
0020
0000
0000
,  // measure 52
3030
0000
0000
0000
;

//---------------dance-single - ----------------
#NOTEDATA:;
#CHARTNAME:;
#STEPSTYPE:dance-single;
#DESCRIPTION:;
#CHARTSTYLE:;
#DIFFICULTY:Medium;
#METER:5;
#RADARVALUES:0.302569,0.366097,0.085098,0.047276,0.000000,224.000000,215.000000,9.000000,5.000000,0.000000,0.000000,0.000000,0.000000,0.000000,0.302569,0.366097,0.085098,0.047276,0.000000,224.000000,215.000000,9.000000,5.000000,0.000000,0.000000,0.000000,0.000000,0.000000;
#CREDIT:Alchemy Jones;
#NOTES:
0000
0000
0000
0000
,
0000
0000
0000
0000
,
0000
0000
0000
0000
,
0000
0000
0000
0000
,
1000
0100
0001
0010
,
1000
0100
0001
0010
,
0001
0100
1000
0010
,
0001
0100
1000
0010
,
0100
0001
0010
1000
,
0100
0001
0010
1000
,
0100
0001
0100
0000
0010
0000
0100
0000
,
0010
1000
0010
1000
0001
1000
0001
0000
,
1000
1000
1000
0000
0110
0000
1001
0000
,
0001
0001
0001
0000
0110
0000
1001
0000
,
0100
1000
0100
0000
0010
0000
0001
0000
,
0100
0001
0100
0000
0010
0000
1000
0000
,
0100
0100
0100
0000
1001
0000
0110
0000
,
0010
0010
0010
0000
1001
0000
0110
0000
,
1000
0100
1000
0000
0001
0100
0001
0000
,
0010
0001
0100
1000
,
0010
0010
0000
0000
0000
0000
0001
0100
,
0002
0000
0010
0000
0013
0000
1000
0100
,
2000
0000
0010
0000
3010
0000
1000
0001
,
1000
0010
0010
0000
,
0100
0100
0000
0000
0000
0000
0100
0010
,
0200
1000
0301
0000
,
0220
0000
0330
0000
0000
1000
0010
1000
,
0100
1000
0000
0000
0000
0001
0100
0001
,
0010
0010
0010
0010
,
0100
0100
0100
0100
,
1000
0010
0001
0100
,
1000
0010
0001
0100
,
1000
1000
1000
1000
,
0001
0001
0001
0001
,
0010
1000
0100
0001
,
0010
1000
0100
0001
,
1000
0100
0001
0001
,
1000
0010
0001
0001
,
0100
1000
0010
0100
,
1000
0010
0100
1000
,
0001
0100
1000
1000
,
0001
0010
1000
1000
,
0100
0001
0010
0100
,
0001
0000
0010
0000
0100
0000
1000
0010
,
1000
0000
0100
0000
0001
0000
0010
0001
,
0010
0000
1000
0000
0100
0000
0001
0010
,
0001
0000
0100
0000
1000
0000
0010
1000
,
0010
0000
0001
0000
0100
0000
1000
0100
,
1000
0000
0010
0000
0001
0000
0100
0001
,
0100
0000
0001
0000
0010
0000
1000
0100
,
1000
0000
0100
0000
0001
0000
0010
0001
,
0010
0001
0100
0001
0100
0001
0000
0000
;

//---------------dance-single - ----------------
#NOTEDATA:;
#CHARTNAME:;
#STEPSTYPE:dance-single;
#DESCRIPTION:;
#CHARTSTYLE:;
#DIFFICULTY:Easy;
#METER:2;
#RADARVALUES:0.149934,0.220190,0.037821,0.085098,0.000000,111.000000,107.000000,4.000000,9.000000,0.000000,0.000000,0.000000,0.000000,0.000000,0.149934,0.220190,0.037821,0.085098,0.000000,111.000000,107.000000,4.000000,9.000000,0.000000,0.000000,0.000000,0.000000,0.000000;
#CREDIT:Alchemy Jones;
#NOTES:
0000
0000
0000
0000
,
0000
0000
0000
0000
,
0000
0000
0000
0000
,
0000
0000
0000
0000
,
0001
0000
0100
0000
,
1000
0000
0010
0000
,
0001
0000
0100
0000
,
1000
0000
0010
0000
,
0001
0000
0010
0000
,
1000
0000
0100
0000
,
0001
0000
0010
0000
,
1000
0000
0100
0000
,
0001
0001
0001
0000
,
1000
1000
1000
0000
,
0010
0000
0100
0000
,
0010
0000
0100
0000
,
1000
1000
1000
0000
,
0001
0001
0001
0000
,
0100
0000
0010
0000
,
0100
0000
0010
0000
,
1001
0000
0000
0000
,
1001
0000
0000
1000
,
2000
3000
0000
0001
,
0002
0003
0000
0000
,
1001
0000
0000
0000
,
1001
0000
0000
0001
,
0002
0003
0000
1000
,
2000
3000
0000
0000
,
0020
0000
0000
0030
,
0200
0000
0000
0300
,
0001
0001
0001
0000
,
1000
1000
1000
0000
,
0002
0000
0000
0003
,
2000
0000
0000
3000
,
0010
0010
0010
0000
,
0100
0100
0100
0000
,
1000
0100
0001
0000
,
1000
0100
0001
0000
,
0010
0001
0100
1000
,
0010
0001
0100
1000
,
0001
0100
1000
0000
,
0001
0100
1000
0000
,
0010
1000
0100
0001
,
0010
1000
0100
0001
,
0010
0000
0001
0000
,
0100
0000
1000
0000
,
0010
0000
0001
0000
,
0100
0000
1000
0000
,
0010
0000
1000
0000
,
0100
0000
0001
0000
,
0010
0000
1000
0000
,
0200
0000
0000
0300
;
