#VERSION:0.83;
#TITLE:DANCING WITH OUR HANDS TIED;
#SUBTITLE:;
#ARTIST:TAYLOR SWIFT;
#TITLETRANSLIT:;
#SUBTITLETRANSLIT:;
#ARTISTTRANSLIT:;
#GENRE:;
#ORIGIN:;
#CREDIT:;
#BANNER:DANCING WITH OUR HANDS TIED.png;
#BACKGROUND:DANCING WITH OUR HANDS TIED - bg.png;
#PREVIEWVID:;
#JACKET:DANCING WITH OUR HANDS TIED - jacket.png;
#CDIMAGE:;
#DISCIMAGE:;
#LYRICSPATH:;
#CDTITLE:;
#MUSIC:DANCING WITH OUR HANDS TIED.ogg;
#OFFSET:0.000000;
#SAMPLESTART:59.104362;
#SAMPLELENGTH:12.000000;
#SELECTABLE:YES;
#BPMS:0.000=160.000;
#STOPS:;
#DELAYS:;
#WARPS:;
#TIMESIGNATURES:0.000=4=4;
#TICKCOUNTS:0.000=4;
#COMBOS:0.000=1;
#SPEEDS:0.000=1.000=0.000=0;
#SCROLLS:0.000=1.000;
#FAKES:;
#LABELS:0.000=Song Start;
#BGCHANGES:15.750=DANCING WITH OUR HANDS TIED.avi=1.000=1=0=0=StretchNoLoop==CrossFade==,
288.000=DANCING WITH OUR HANDS TIED - bg.png=1.000=1=0=1===CrossFade==,
99999=-nosongbg-=1.000=0=0=0 // don't automatically add -songbackground-
;
#KEYSOUNDS:;
#ATTACKS:
;

//---------------dance-single - ----------------
#NOTEDATA:;
#CHARTNAME:;
#STEPSTYPE:dance-single;
#DESCRIPTION:;
#CHARTSTYLE:;
#DIFFICULTY:Hard;
#METER:7;
#RADARVALUES:0.480879,0.537403,0.416432,0.268945,0.000000,388.000000,340.000000,48.000000,31.000000,0.000000,0.000000,0.000000,0.000000,0.000000,0.480879,0.537403,0.416432,0.268945,0.000000,388.000000,340.000000,48.000000,31.000000,0.000000,0.000000,0.000000,0.000000,0.000000;
#CREDIT:Alchemy Jones;
#NOTES:
// measure 0
0000
0000
0000
0000
,  // measure 1
0000
0000
0000
0000
,  // measure 2
0000
0000
0000
0000
,  // measure 3
0000
0000
0000
0000
,  // measure 4
0000
0000
0000
0000
,  // measure 5
0000
0000
0000
0000
,  // measure 6
0000
0000
0000
0000
,  // measure 7
0000
0000
0000
0000
,  // measure 8
0000
0000
0000
0110
0000
0000
0000
0000
,  // measure 9
0001
0100
0001
0010
0000
0010
0100
0000
,  // measure 10
0000
1000
0001
0010
,  // measure 11
0100
1000
0010
0100
0000
0100
0010
0000
,  // measure 12
2000
0010
0100
0010
,  // measure 13
3001
0000
1000
0100
0000
0100
0010
0000
,  // measure 14
0002
0100
0010
0100
,  // measure 15
1003
0000
0001
0100
0000
0100
0010
0000
,  // measure 16
0000
0000
0000
0110
0000
0000
0000
0000
,  // measure 17
1000
0100
1000
0010
0000
0010
0100
0000
,  // measure 18
0000
0001
1000
0010
,  // measure 19
0100
0001
0010
0100
0000
0100
0010
0000
,  // measure 20
0200
0001
1000
0001
,  // measure 21
0310
0000
0100
1000
0000
1000
0001
0000
,  // measure 22
0200
1000
0001
1000
,  // measure 23
0310
0000
0100
0001
0000
0001
1000
0000
,  // measure 24
0001
0010
0001
0010
0100
0010
0100
0010
,  // measure 25
1000
0010
0100
0010
0001
0000
1010
0000
,  // measure 26
1000
0010
1000
0010
0100
0010
0100
0010
,  // measure 27
0001
0010
0100
0010
1000
0000
1001
0000
,  // measure 28
0100
0001
0100
0001
1000
0010
1000
0010
,  // measure 29
0001
0010
1000
0010
0001
0010
1000
0100
,  // measure 30
0000
0011
1001
2020
,  // measure 31
0000
3030
0000
0000
0000
1000
0001
0000
,  // measure 32
1000
0100
1000
0100
0010
0100
0010
0100
,  // measure 33
0001
0100
0010
0100
1000
0000
0101
0000
,  // measure 34
0001
0100
0001
0100
0010
0100
0010
0100
,  // measure 35
1000
0100
0010
0100
0001
0000
1001
0000
,  // measure 36
0100
1000
0100
1000
0001
0010
0001
0010
,  // measure 37
1000
0010
0001
0010
1000
0010
0001
0100
,  // measure 38
0000
1100
1001
0202
,  // measure 39
0000
0303
0000
0000
1000
0010
0100
0010
,  // measure 40
2002
0000
3003
0000
0110
0000
0000
0001
,  // measure 41
0000
0001
0010
0000
0001
0100
0001
2000
,  // measure 42
0100
0000
3100
0000
1100
0000
1000
0010
,  // measure 43
0000
0010
0100
0000
0001
0010
0100
0010
,  // measure 44
2002
0000
3003
0000
0110
0000
0000
1000
,  // measure 45
0000
1000
0010
0000
1000
0100
1000
0002
,  // measure 46
0100
0000
0103
0000
0101
0000
0001
0010
,  // measure 47
0000
0010
0100
0000
1000
0100
0010
0100
,  // measure 48
2002
0000
3003
0000
0110
0000
0000
0001
,  // measure 49
0000
0001
0100
0000
0010
1000
0010
0001
,  // measure 50
0000
0000
1010
0000
1010
0000
0100
1001
,  // measure 51
0000
0010
1001
0000
0001
0100
0010
0100
,  // measure 52
2002
0000
3003
0000
0110
0000
0000
1000
,  // measure 53
0000
1000
0100
0000
0010
0001
0010
1000
,  // measure 54
0000
0000
0011
0000
0011
0000
0100
1001
,  // measure 55
0000
0010
1001
0000
1000
0100
0010
0001
,  // measure 56
2002
0000
3003
0000
0110
0000
0000
0011
,  // measure 57
0000
1010
0011
0000
0100
1000
0010
2000
,  // measure 58
0001
0000
3001
0000
0011
0000
0100
0010
,  // measure 59
0000
0010
1000
0000
0001
0010
0100
1000
,  // measure 60
2002
0000
3003
0000
0110
0000
0000
1100
,  // measure 61
0000
0101
1100
0000
0001
0100
0010
0100
,  // measure 62
0000
0101
1001
1100
,  // measure 63
0220
0000
0330
0000
0001
0010
0100
1000
,  // measure 64
2002
0000
3003
0000
0010
1000
0010
0100
,  // measure 65
0010
1000
0100
0010
0100
1000
0020
0000
,  // measure 66
0130
0001
0100
0010
0100
0001
0010
0100
,  // measure 67
0010
0001
0200
0000
0000
0020
0000
0300
,  // measure 68
1030
0100
0010
0100
1000
0010
0100
0010
,  // measure 69
0000
0101
1100
0000
0001
0100
0010
0000
,  // measure 70
0100
0001
0010
0001
0100
0000
0100
0010
,  // measure 71
0000
0010
1000
0010
0100
0001
1000
0002
,  // measure 72
0000
0000
0103
0010
1000
0100
0010
0001
;

//---------------dance-single - ----------------
#NOTEDATA:;
#CHARTNAME:;
#STEPSTYPE:dance-single;
#DESCRIPTION:;
#CHARTSTYLE:;
#DIFFICULTY:Medium;
#METER:5;
#RADARVALUES:0.328436,0.443326,0.242918,0.303648,0.000000,265.000000,237.000000,28.000000,35.000000,0.000000,0.000000,0.000000,0.000000,0.000000,0.328436,0.443326,0.242918,0.303648,0.000000,265.000000,237.000000,28.000000,35.000000,0.000000,0.000000,0.000000,0.000000,0.000000;
#CREDIT:Alchemy Jones;
#NOTES:
0000
0000
0000
0000
,
0000
0000
0000
0000
,
0000
0000
0000
0000
,
0000
0000
0000
0000
,
0000
0000
0000
0000
,
0000
0000
0000
0000
,
0000
0000
0000
0000
,
0000
0000
0000
0000
,
0000
0000
0000
0001
0000
0000
0000
0000
,
1000
0010
1000
0002
0000
0000
0003
0000
,
0000
0010
0001
1000
,
0001
0010
0001
2000
0000
0000
3000
0000
,
0000
0200
0000
0010
,
0310
0000
0001
0100
0001
0000
0000
0000
,
0000
0200
0000
0010
,
0310
0000
1000
0100
1000
0000
1001
0000
,
0000
0000
0000
1000
0000
0000
0000
0000
,
0001
0100
0001
2000
0000
0000
3000
0000
,
0000
0100
1000
0001
,
1000
0100
1000
0002
0000
0000
0003
0000
,
0000
0020
0000
0100
,
0130
0000
1000
0010
1000
0000
0000
0000
,
0000
0020
0000
0100
,
0130
0000
0001
0010
0001
0000
1001
0000
,
1000
0100
0010
0001
,
1000
0010
1000
0100
1000
0000
0000
0000
,
0001
0010
0100
1000
,
0001
0010
0001
0100
0001
0000
0000
0000
,
1000
0010
1000
0000
0001
0010
0001
0000
,
1000
0100
1000
0001
0100
0000
0000
0000
,
0000
1001
0110
1001
,
0000
0000
0000
1001
,
0010
1000
0001
0100
,
0010
0100
0010
1000
0001
0000
0000
0000
,
0010
0001
1000
0100
,
0010
0100
0010
0001
1000
0000
0000
0000
,
0001
0100
0001
0000
1000
0100
1000
0000
,
0001
0010
0001
1000
0010
0000
0000
0000
,
0000
1001
0110
1001
,
0000
0000
0000
0000
0010
0100
0010
0000
,
2002
0000
0000
0000
3003
0000
0000
0001
,
0000
0001
0100
0000
0010
1000
0010
0200
,
0000
0000
0001
0000
0001
0000
0000
0010
,
0000
0310
0000
0000
0010
0100
0010
0000
,
2002
0000
0000
0000
3003
0000
0000
1000
,
0000
1000
0100
0000
0010
0001
0010
0200
,
0000
0000
1000
0000
1000
0000
0000
0010
,
0000
0310
0000
0000
0010
0100
0010
0000
,
2002
0000
0000
0000
3003
0000
0000
0010
,
0000
0010
1000
0000
0001
0100
0001
0020
,
0000
0000
0100
0000
0100
0000
0000
0001
,
0000
0031
0000
0000
0010
1000
0010
0000
,
2002
0000
0000
0000
3003
0000
0000
0010
,
0000
0010
0001
0000
1000
0100
1000
0010
,
0000
0110
1001
0110
,
1001
0000
0000
0000
0010
0001
0010
0000
,
0220
0000
0000
0000
0330
0000
0000
0001
,
0000
0001
1000
0000
0010
0100
0010
2000
,
0000
0000
0100
0000
0100
0000
0000
0001
,
0000
3001
0000
0000
0010
1000
0010
0000
,
0220
0000
0000
0000
0330
0000
0000
1000
,
0000
1000
0001
0000
0010
0100
0010
0001
,
0000
1001
0110
1001
,
0220
0000
0330
0000
1000
0001
1000
0000
,
0220
0330
0001
0010
,
0100
2000
0000
0000
,
3001
0100
0010
1000
,
0100
0000
0020
0000
0000
0002
0030
0000
,
1003
0010
0100
0001
,
0010
0000
0200
0000
0000
2000
0000
0000
,
3300
0000
0011
0000
0011
0000
0000
1010
,
0000
1010
0000
0000
1000
0100
0010
0001
,
0000
2000
0002
0000
,
3003
0000
0000
0000
;

//---------------dance-single - ----------------
#NOTEDATA:;
#CHARTNAME:;
#STEPSTYPE:dance-single;
#DESCRIPTION:;
#CHARTSTYLE:;
#DIFFICULTY:Easy;
#METER:3;
#RADARVALUES:0.237961,0.316662,0.147486,0.095432,0.000000,192.000000,175.000000,17.000000,11.000000,0.000000,0.000000,0.000000,0.000000,0.000000,0.237961,0.316662,0.147486,0.095432,0.000000,192.000000,175.000000,17.000000,11.000000,0.000000,0.000000,0.000000,0.000000,0.000000;
#CREDIT:Alchemy Jones;
#NOTES:
0000
0000
0000
0000
,
0000
0000
0000
0000
,
0000
0000
0000
0000
,
0000
0000
0000
0000
,
0000
0000
0000
0000
,
0000
0000
0000
0000
,
0000
0000
0000
0000
,
0000
0000
0000
0000
,
0000
0000
1001
0000
,
1000
0000
0001
0000
,
0010
0100
0010
0000
,
0100
0010
0100
0000
,
2000
0100
0100
3100
,
0002
0100
0100
0103
,
0000
2000
0010
0010
,
3010
0002
0010
0010
,
0013
0000
1001
0000
,
0001
0000
1000
0000
,
0100
0010
0100
0000
,
0010
0100
0010
0000
,
0002
0010
0010
0013
,
2000
0010
0010
3010
,
0002
0100
0100
0103
,
2000
0100
0100
3100
,
0001
0001
1000
1000
,
0001
1000
0001
0000
,
1000
1000
0001
0001
,
1000
0001
1000
0000
,
0010
0010
0100
0100
,
0010
1000
0100
0000
,
0000
1000
0001
1000
,
0000
0000
0000
1001
,
1000
1000
0001
0001
,
1000
0001
1000
0000
,
0001
0001
1000
1000
,
0001
1000
0001
0000
,
0010
0010
0100
0100
,
0010
0001
0100
0000
,
0000
1001
0110
1001
,
0000
0000
0000
0000
,
1001
0000
0100
0000
,
0010
0000
1000
0000
,
0001
0001
0001
0000
,
1000
1000
1000
0000
,
1001
0000
0100
0000
,
0010
0000
0001
0000
,
1000
1000
1000
0000
,
0001
0001
0001
0000
,
1001
0000
0010
0000
,
0001
0000
0100
0000
,
0010
0010
0010
0000
,
0100
0100
0100
0000
,
1001
0000
0010
0000
,
1000
0000
0100
0000
,
0010
0010
0010
0000
,
0100
0100
0100
0000
,
1001
0000
0110
0000
,
1000
0000
0001
0000
,
1000
0100
1000
0000
,
0001
0100
0001
0000
,
1001
0000
0100
0000
,
0010
0000
1000
0001
,
1000
0000
1001
0110
,
2002
0000
3003
0000
,
1001
0000
0001
0000
,
0100
0000
0010
0000
,
0001
0000
0100
0000
,
1000
0000
0010
0000
,
0100
0000
1000
0000
,
0010
0000
0001
0000
,
0100
0000
0010
0000
,
0001
0000
0100
0000
,
2000
0000
0000
0000
,
3000
0000
0000
0000
;
