#TITLE:COLD HEART;
#SUBTITLE:(PNAU Remix);
#ARTIST:ELTON JOHN & DUA LIPA;
#TITLETRANSLIT:;
#SUBTITLETRANSLIT:;
#ARTISTTRANSLIT:;
#GENRE:;
#CREDIT:;
#BANNER:COLD HEART (PNAU Remix).png;
#BACKGROUND:COLD HEART (PNAU Remix) - bg.png;
#LYRICSPATH:;
#CDTITLE:;
#MUSIC:COLD HEART (PNAU Remix).ogg;
#OFFSET:-0.255000;
#SAMPLESTART:50.415627;
#SAMPLELENGTH:12.000000;
#LASTBEATHINT:198.000000;
#SELECTABLE:YES;
#BPMS:0.000000=116.000000
;
#STOPS:
;
#BGCHANGES:-0.500=COLD HEART (PNAU Remix).avi=1.000=0=0=0=StretchNoLoop==CrossFade_Fastest==,
197.000=COLD HEART (PNAU Remix) - bg.png=1.000=1=0=1===CrossFade==,
99999=-nosongbg-=1.000=0=0=0 // don't automatically add -songbackground-
;
#KEYSOUNDS:;
#ATTACKS:;

//---------------dance-single - ----------------
#NOTES:
     dance-single:
     :
     Hard:
     8:
     0.445863,0.436028,0.096627,0.144940,0.294712,323.000000,313.000000,10.000000,15.000000,0.000000,0.000000,0.445863,0.436028,0.096627,0.144940,0.294712,323.000000,313.000000,10.000000,15.000000,0.000000,0.000000:
0000
0000
0000
0000
,
0000
0000
0000
0000
,
0000
0000
0000
0000
,
0000
0000
0000
0000
,
0010
0001
0000
0000
0000
0000
1000
0010
0000
0000
1000
0100
0000
0000
1000
0000
,
0001
0100
0000
0000
0000
0000
0001
0010
0000
0000
0001
0100
0000
0000
0001
0000
,
1000
0100
0000
0000
0000
0000
1000
0001
0000
0000
1000
0100
0000
0000
1000
0000
,
0001
0100
0000
0000
0100
0000
0100
0000
0001
0000
1000
0000
1000
0000
0100
0000
,
1000
0000
0001
0000
0000
0000
1000
0001
0000
0000
1000
0100
0000
0000
1000
0000
,
0010
0100
0000
0000
0001
0000
0010
0000
0100
0000
0010
0000
0001
0000
1000
0000
,
2000
0000
0000
0000
0000
3000
0001
0010
0000
0000
0001
1000
0000
0000
0001
0000
,
0010
0100
0000
0000
0100
0000
0100
0000
1000
0000
0001
0000
0001
0000
0100
0000
,
0001
0000
1000
0000
0000
0000
0001
1000
0000
0000
0001
0100
0000
0000
0001
0000
,
0010
0100
0000
0000
1000
0000
0010
0000
0100
0000
0010
0000
1000
0000
0001
0000
,
0002
0000
0000
0000
0000
0003
1000
0010
0000
0000
1000
0001
0000
0000
1000
0000
,
0010
0100
0000
0000
0100
0000
0001
0000
0001
0000
0010
0000
0010
0000
1000
0000
,
1000
0000
0010
0000
0000
0000
0001
0010
0000
0000
0001
0100
0000
0000
0010
0000
,
1000
0100
0000
0000
0100
0000
1000
0000
1000
0000
0010
0000
0010
0000
0001
0000
,
0001
0000
0010
0000
0000
0000
1000
0010
0000
0000
1000
0100
0000
0000
0010
0000
,
0001
0100
0000
0000
0010
0000
1000
0000
0001
0000
1000
0000
0020
0000
0100
0000
,
0130
0001
0020
0100
0130
1000
0001
1000
,
0010
0100
0000
0000
0001
0000
0010
0000
0100
0000
0010
0000
0001
0000
0010
0000
,
0100
0000
1000
0000
0000
0000
0001
0100
0000
0000
0001
1000
0000
0000
0010
1000
,
0010
1000
0010
0000
0000
0000
0100
0010
0100
0000
0000
0000
0000
0000
0000
0000
,
0101
0000
1000
0010
0100
0010
1000
0010
,
0100
0001
0100
1000
1000
0100
0100
0001
,
0010
1001
0100
1001
,
1000
0010
0001
0010
1000
0010
0100
0001
,
1000
0000
0001
0010
0100
0010
0001
0010
,
0100
1000
0100
0001
0001
0100
0100
1000
,
0010
0000
0000
0000
1001
0000
0000
0000
0100
0000
0000
0000
1001
0000
0001
0010
,
0001
0010
0001
0000
0000
0000
0010
0100
0010
0000
0000
0000
1001
0000
0000
0000
,
1000
0010
1000
0010
0100
0010
0100
0002
,
0010
0023
0000
0230
1000
2300
0000
3020
,
0100
0130
1001
0000
0010
0000
1001
0000
,
0001
0010
1000
0010
0001
0010
0100
1000
,
0001
0010
0001
0010
0100
0010
0100
2000
,
0010
3020
0000
0230
0001
0302
0000
0023
,
0100
0000
0230
0000
0000
0000
0310
0000
0001
0000
1000
0000
0000
0000
1000
0010
,
1000
0010
1000
0000
0000
0000
0010
0100
0010
0000
0000
0000
1100
0000
0000
0000
,
0011
0000
0000
0000
0000
0000
0100
0001
0000
0000
0001
1000
0000
0000
1000
0100
,
0010
0000
0000
0000
0000
0000
0100
1000
0000
0000
1000
0001
0000
0000
0001
0100
,
0010
0000
0000
0000
0000
0000
0100
0010
0000
0000
0010
1000
0000
0000
1000
0001
,
0010
0000
0000
0000
0000
0000
0100
0010
0000
0000
0010
0001
0000
0000
0001
1000
,
0010
0000
0000
0000
0000
0000
0100
0001
0000
0000
0001
0010
0000
0000
0010
0001
,
1000
0000
0000
0000
0000
0000
0100
1000
0000
0000
1000
0010
0000
0000
0010
1000
,
0001
0000
0100
0000
0001
0000
1000
0000
0000
0000
0100
0000
1000
0000
0001
0100
,
0001
0100
0001
0000
0000
0000
0100
0010
0100
0000
0000
0000
0000
0000
0000
0000
;

//---------------dance-single - ----------------
#NOTES:
     dance-single:
     :
     Medium:
     6:
     0.310586,0.344233,0.154603,0.193254,0.000000,225.000000,209.000000,16.000000,20.000000,0.000000,0.000000,0.310586,0.344233,0.154603,0.193254,0.000000,225.000000,209.000000,16.000000,20.000000,0.000000,0.000000:
0000
0000
0000
0000
,
0000
0000
0000
0000
,
0000
0000
0000
0000
,
0000
0000
0000
0000
,
0010
0000
0000
1000
0010
1000
0001
1000
,
0100
0000
0000
0001
0010
0001
1000
0001
,
0100
0000
0000
0010
0100
0010
1000
0001
,
1000
0000
0100
1000
0100
0020
0000
0002
,
0000
0030
0000
0100
0000
1000
0000
0103
,
0010
0000
0100
0001
0000
0001
0000
2002
,
0000
0003
0000
0010
0000
0001
0000
3010
,
0100
0000
0100
0001
0100
0020
0000
2000
,
0000
0030
0000
0100
0000
0001
0000
3100
,
0010
0000
0100
0000
1000
1000
0000
2002
,
0000
3000
0000
0010
0000
1000
0000
0013
,
0000
0000
0000
0010
0000
0010
0000
0011
,
0000
0100
0001
0020
0000
0000
0000
0030
,
0000
0000
0100
1000
0000
1000
0010
0200
,
0000
0000
0000
0010
0000
0001
0000
0310
,
0000
0000
0001
0100
0000
0100
0010
0100
,
0000
0001
0010
0200
0000
1000
0000
0310
,
0000
0100
1000
0100
0000
0010
0000
0220
,
0000
0300
0000
0100
0000
0001
0000
0130
,
0100
0100
0000
1000
1000
0000
0000
0000
,
1001
0000
0001
0100
0001
0100
0010
0100
,
0020
0000
1030
0100
0000
0100
0000
0110
,
0000
0000
0010
0001
0000
1000
0000
1001
,
0000
0001
0010
0001
0200
0001
0000
0301
,
0000
0000
0000
1000
0000
0001
0000
1001
,
0000
1000
0010
1000
0200
1000
0000
1300
,
0000
0010
0000
1000
0000
0100
0000
0010
,
0010
0010
0000
0001
0001
0000
0001
0100
,
0000
0100
0010
0100
0000
0100
0001
0100
,
0000
0001
0010
0001
0000
1000
0100
1000
,
0000
0000
1000
0010
0000
0100
0000
0110
,
0000
1000
0001
0000
1000
0001
1000
0100
,
0000
0100
0010
0100
0000
0100
1000
0100
,
0000
1000
0010
1000
0000
0001
0100
0001
,
0000
1001
0000
0110
0000
1001
0000
0010
,
0010
0010
0000
1000
1000
0000
1100
0000
,
0101
0000
0000
0001
0010
0001
1000
0001
,
0100
0000
0000
1000
0010
1000
0002
0000
,
2000
0000
3003
0000
0001
1000
0001
0100
,
0001
0010
0001
0101
,
1100
0000
0000
1000
0010
1000
0001
1000
,
0100
0000
0000
0001
0010
0001
2000
0000
,
0002
0000
0000
0000
3003
0000
0000
0100
,
0100
0100
0000
0010
0010
0000
0000
0000
;

//---------------dance-single - ----------------
#NOTES:
     dance-single:
     :
     Easy:
     3:
     0.184971,0.229489,0.096627,0.173928,0.000000,134.000000,124.000000,10.000000,18.000000,0.000000,0.000000,0.184971,0.229489,0.096627,0.173928,0.000000,134.000000,124.000000,10.000000,18.000000,0.000000,0.000000:
// measure 0
0000
0000
0000
0000
,  // measure 1
0000
0000
0000
0000
,  // measure 2
0000
0000
0000
0000
,  // measure 3
0000
0000
0000
0000
,  // measure 4
1000
0000
0010
1000
,  // measure 5
0100
0000
0010
0001
,  // measure 6
0100
0000
0100
0001
,  // measure 7
0010
0000
0100
1000
,  // measure 8
0002
0000
1003
1000
,  // measure 9
0010
0000
0100
0001
,  // measure 10
2000
0000
3001
0001
,  // measure 11
0010
0000
0100
0010
,  // measure 12
0002
0000
1003
1000
,  // measure 13
0010
0000
0100
0010
,  // measure 14
2000
0000
3001
0001
,  // measure 15
0010
0000
0100
0100
,  // measure 16
0100
0000
1000
1000
,  // measure 17
0100
0000
0010
0100
,  // measure 18
2000
0000
3001
0001
,  // measure 19
0100
0000
1000
0001
,  // measure 20
0020
0000
0200
0000
,  // measure 21
0330
0000
1000
0100
,  // measure 22
0001
0000
0100
0000
,  // measure 23
1001
0000
0110
0000
,  // measure 24
1001
0100
0001
0010
,  // measure 25
0100
0100
1000
1000
,  // measure 26
0010
0000
1000
0010
,  // measure 27
0100
0100
0001
0001
,  // measure 28
0010
0000
0010
0001
,  // measure 29
0100
0000
0010
0000
,  // measure 30
0110
0000
1000
0001
,  // measure 31
1001
0000
0110
0000
,  // measure 32
0010
1000
0001
0100
,  // measure 33
0020
0030
2000
3000
,  // measure 34
0200
0300
1000
0100
,  // measure 35
0001
0000
0001
0100
,  // measure 36
1000
0000
0100
1000
,  // measure 37
0020
0030
2000
3000
,  // measure 38
0200
0300
0010
0000
,  // measure 39
1001
0000
0110
1000
,  // measure 40
0002
0000
1000
0100
,  // measure 41
1003
0000
0010
0001
,  // measure 42
2000
0000
0001
0100
,  // measure 43
3001
0000
0100
1000
,  // measure 44
0002
0000
0010
1000
,  // measure 45
0013
0000
0100
0002
,  // measure 46
2000
0000
0000
3003
,  // measure 47
1001
0000
0110
0000
;
