#TITLE:CLARITY;
#SUBTITLE:;
#ARTIST:PISCEAN;
#TITLETRANSLIT:;
#SUBTITLETRANSLIT:;
#ARTISTTRANSLIT:;
#GENRE:;
#CREDIT:ALCHEMY JONES;
#BANNER:CLARITY.png;
#BACKGROUND:Clarity-bg.png;
#LYRICSPATH:;
#CDTITLE:;
#MUSIC:Clarity.ogg;
#OFFSET:-5.856000;
#SAMPLESTART:76.081001;
#SAMPLELENGTH:12.000000;
#SELECTABLE:YES;
#BPMS:0.000000=123.000000
;
#STOPS:
;
#BGCHANGES:-12.004802=CLARITY.avi=1.000=0=0=0=StretchNoLoop==CrossFade_Fastest==,
206.000=CLARITY-bg.png=1.000=1=0=1===CrossFade==,
99999=-nosongbg-=1.000=0=0=0 // don't automatically add -songbackground-
;
#KEYSOUNDS:;
#ATTACKS:;

//---------------dance-single - ----------------
#NOTES:
     dance-single:
     :
     Hard:
     8:
     0.441802,0.504206,0.000000,0.185557,0.742227,350.000000,350.000000,0.000000,21.000000,0.000000,0.000000,0.441802,0.504206,0.000000,0.185557,0.742227,350.000000,350.000000,0.000000,21.000000,0.000000,0.000000:
0000
0000
0000
0000
,
0001
0000
0000
0002
0000
0000
0000
0000
1000
0000
0000
2003
0000
0000
0000
0000
,
0010
0000
0000
3020
0000
0000
0000
0000
0100
0000
0000
0230
0000
0000
0000
0000
,
0302
0000
0000
0010
0000
0000
0013
0000
2000
0000
0000
0010
0000
0000
3010
0000
,
0002
0000
0000
0100
0000
0000
0103
0000
2000
0000
0000
0100
0000
0000
3100
0000
,
0002
0000
0000
1000
0000
0000
1003
0000
0200
0000
0000
0001
0000
0000
0301
0000
,
2000
0000
0000
0010
0000
0000
3010
0000
0002
0000
0000
0100
0000
0000
0103
0000
,
0020
0000
0000
1030
0000
0000
0100
0000
0002
0000
0000
0103
0000
0000
1000
0000
,
0020
0000
0000
0130
0000
0000
0010
0000
2000
0000
0000
3010
0000
0000
0001
0000
,
0010
0000
0000
1000
0000
0000
0100
0000
0000
0001
0000
0000
1000
0000
0000
0010
,
0000
0000
0001
0000
0000
1000
0000
0000
0010
0000
0000
0100
0001
0100
0001
0100
,
0010
0000
0000
1000
0000
1000
0001
0000
0010
0000
0000
0100
0000
1000
0010
0000
,
0100
0000
0000
0001
0000
0001
0010
0000
0100
0000
0000
1000
0000
0010
0100
0000
,
0001
0000
0000
1000
0000
1000
0100
0000
0010
0000
0000
0001
0000
1000
0010
0000
,
0100
0000
0000
0010
0000
0010
1000
0000
0001
0000
0000
0010
0000
0100
1000
0000
,
0001
0000
0000
0010
0000
0000
1000
0000
0010
0000
0000
0001
0000
0000
0100
0000
,
1000
0000
0000
0100
0000
0000
0001
0000
1000
0000
0000
0100
0000
0000
0001
0000
,
0100
0000
0000
0010
0000
0010
0001
0000
1000
0000
0000
0010
0000
0010
1000
0000
,
0001
0000
0000
0010
0000
0010
0001
0000
1000
0000
0000
0010
1000
0010
1000
0010
,
0100
0000
0000
0001
0000
0010
0000
0000
0100
0000
0000
1000
0000
0010
0000
0000
,
0100
0000
0000
0001
0000
0010
0000
0000
0100
0000
0000
1000
0000
0001
0000
0000
,
0100
0000
0000
0010
0000
1000
0000
0000
0100
0000
0000
0010
0000
0001
0000
0000
,
1000
0000
0000
0010
0000
0100
0000
0000
0001
0000
0000
0100
0000
0010
0000
0000
,
1000
0000
0000
0100
0000
0000
1000
0000
0001
0000
0000
0100
0000
0000
0001
0000
,
1000
0000
0000
0010
0000
0000
1000
0000
0001
0000
0000
0010
0000
0000
0001
0000
,
2000
0000
0000
0010
0000
0000
0010
0000
3020
0000
0000
0100
0000
0000
0100
0000
,
0230
0000
0000
0001
0000
0000
0001
0000
0002
0000
0000
0000
0000
0000
0303
0000
,
0000
0000
0010
0000
0000
1000
0000
0000
0000
0010
0000
0100
0000
0001
0100
0000
,
0000
0000
0001
0000
0000
1000
0000
0000
0000
0001
0000
0010
0000
0100
1000
0000
,
0000
0000
0010
0000
0000
1000
0000
0000
0000
0001
0000
0010
0000
0001
0100
0000
,
0000
0000
0010
0000
0000
1000
0000
0000
0000
0100
0000
0010
0000
0100
1000
0000
,
0000
0000
0001
0000
0000
0100
0000
0000
0000
0010
0000
1000
0000
0100
1000
0000
,
0100
0000
0000
0001
0000
0000
0100
0000
1000
0000
0000
0100
0000
0010
0001
0000
,
0100
0000
0000
1000
0000
0000
0100
0000
0001
0000
0000
0010
0000
0100
1000
0000
,
0010
0000
0000
0001
0000
0000
0010
0000
1000
0000
0000
0100
0000
0010
0001
0000
,
2000
0000
0000
0001
0000
0000
0001
0000
0100
0000
0000
3100
0010
0100
0010
0100
,
1000
0000
0000
0001
0000
0001
0100
0000
0010
0000
0000
1000
0000
0001
0100
0000
,
0010
0000
0000
1000
0000
1000
0100
0000
0010
0000
0000
0001
0000
1000
0100
0000
,
0010
0000
0000
0001
0000
0001
1000
0000
0010
0000
0000
0100
0000
0001
1000
0000
,
0010
0000
0000
1000
0000
1000
0001
0000
0010
0000
0000
0100
0000
1000
0001
0000
,
0010
0000
0000
1000
0000
0000
0010
0000
0001
0000
0000
0100
0000
0000
1000
0000
,
0100
0000
0000
0001
0000
0000
1000
0000
0100
0000
0000
0001
0000
0000
0100
0000
,
1000
0010
0000
0100
0000
0100
0001
0000
0010
0100
0000
1000
0000
1000
0010
0000
,
0100
0001
0000
0010
0000
0010
0100
0000
1000
0001
0000
0100
0000
0100
0010
0000
,
1000
0100
0000
1000
0001
1000
0000
0000
0001
0100
0000
0000
1000
0100
0000
0000
,
0001
0010
0000
0001
1000
0001
0000
0000
1000
0010
0000
0000
0001
0010
0000
0000
,
1000
0001
0000
1000
0010
1000
0000
0000
0001
0100
0000
0000
1000
0100
0000
0000
,
0001
1000
0000
0001
0100
0001
0000
0000
1000
0100
0000
0000
0001
0100
0000
0000
,
0001
0000
0000
0100
0000
0000
1000
0000
0100
0000
0000
0001
0000
0000
1000
0000
,
0100
0000
0000
0001
0000
0000
0100
0000
1000
0000
0000
0010
0000
0000
0001
0000
,
0010
0000
0000
1000
0000
0000
0100
0000
0010
0000
0000
1000
0000
0000
0010
0000
,
0001
0000
0000
0100
0000
0000
0010
0000
0001
0000
0000
0010
0000
0000
1000
0000
;

//---------------dance-single - ----------------
#NOTES:
     dance-single:
     :
     Medium:
     6:
     0.251196,0.320858,0.070688,0.547834,0.123704,199.000000,191.000000,8.000000,62.000000,0.000000,0.000000,0.251196,0.320858,0.070688,0.547834,0.123704,199.000000,191.000000,8.000000,62.000000,0.000000,0.000000:
0000
0000
0000
0000
,
0002
0000
0023
0000
,
0230
0000
2300
0000
,
3001
0100
0002
0000
0000
0000
0000
2000
,
0000
0000
0000
3003
0000
0000
0000
0100
,
1000
0010
2000
0000
0000
0000
0000
0002
,
0000
0000
0000
3003
0000
0000
0000
0020
,
0000
0230
0000
2300
0000
3020
0000
0230
,
0000
0302
0000
0003
0000
0000
2000
0002
,
0000
3003
0020
0000
,
0200
0000
0330
0000
,
1000
0000
0000
1000
0000
0000
1000
0000
0010
0000
0000
0010
0000
0000
0010
0000
,
0100
0000
0000
0100
0000
0000
0100
0000
0001
0000
0000
0001
0000
0000
0001
0000
,
0010
0000
0000
0010
0000
0000
0010
0000
0100
0000
0000
0100
0000
0000
0100
0000
,
1000
0000
0000
1000
0000
0000
1000
0000
0001
0000
0000
0001
0000
0000
0002
0000
,
0000
2003
0000
3002
0000
0023
0000
0230
,
0000
2300
0000
0000
3000
0000
0020
0200
,
0000
0000
0000
0330
,
0001
0000
0000
0001
0000
0000
0001
0000
1000
0000
0000
1000
0000
0000
1000
0000
,
0020
0000
0000
1030
0200
0000
0000
0310
,
0002
0000
0000
0103
0020
0000
0000
1030
,
0002
0000
0000
0013
0200
0000
0000
1300
,
0002
0000
0000
0103
0020
0000
0000
0130
,
0001
0000
0000
0001
0000
0000
0001
0000
1000
0000
0000
1000
0000
0000
1000
0000
,
0100
0000
0000
0100
0000
0000
0100
0000
1000
0000
0000
1000
0000
0000
1000
0000
,
0001
0000
0000
1000
0000
0000
0001
0000
0100
0000
0000
0001
0000
0000
0100
0000
,
0010
0000
0000
1000
0000
0000
0010
0000
1000
0000
0000
0001
0000
0000
1000
0000
,
0100
0010
0001
0100
,
0010
1000
0100
1000
,
0010
0100
0001
1000
,
0100
1000
0010
0100
,
0001
0010
0200
0000
,
2300
0000
3200
0000
,
0320
0000
0032
0000
,
0203
0000
0320
0000
,
2030
0000
0000
3000
,
0001
0000
0000
0001
0000
0000
0001
0000
0100
0000
0000
0100
0000
0000
0100
0000
,
0010
0000
0000
0010
0000
0000
0010
0000
1000
0000
0000
1000
0000
0000
1000
0000
,
0100
0000
0000
0100
0000
0000
0100
0000
0010
0000
0000
0010
0000
0000
0010
0000
,
0001
0000
0000
0001
0000
0000
0001
0000
1000
0000
0000
1000
0000
0000
2000
0000
,
0000
3002
0000
2003
0000
3200
0000
0320
,
0000
0032
0000
0000
0003
0000
0200
0020
,
0000
0000
0000
0330
,
2000
3002
0203
0320
,
1030
0100
0011
0101
,
0010
1000
0101
1100
,
0001
0010
1100
1010
,
0100
0000
0001
0000
1010
0000
0011
0002
,
0000
0023
0000
0230
0000
2300
0000
3020
,
0000
0230
0000
0300
0000
0000
0002
2000
,
0000
0000
0000
3003
,
1000
0000
0000
0001
0000
0000
1000
0000
0100
0000
0000
0010
0000
0000
0100
0000
;

//---------------dance-single - ----------------
#NOTES:
     dance-single:
     :
     Easy:
     2:
     0.153999,0.321631,0.097196,0.397621,0.000000,122.000000,111.000000,11.000000,45.000000,0.000000,0.000000,0.153999,0.321631,0.097196,0.397621,0.000000,122.000000,111.000000,11.000000,45.000000,0.000000,0.000000:
// measure 0
0000
0000
0000
0000
,  // measure 1
2000
0000
0000
0000
,  // measure 2
3020
0000
0000
0000
,  // measure 3
0230
0000
0000
0000
,  // measure 4
0302
0000
0000
0000
,  // measure 5
0203
0000
0000
0000
,  // measure 6
0320
0000
0000
0000
,  // measure 7
2030
0000
3002
0000
,  // measure 8
2003
0000
3020
0000
,  // measure 9
0230
0000
0000
0000
,  // measure 10
0000
0000
0000
0300
,  // measure 11
0001
0002
0000
0000
,  // measure 12
2003
0000
0000
3000
,  // measure 13
0010
0020
0000
0000
,  // measure 14
0230
0000
0000
0300
,  // measure 15
0001
0001
1000
1000
,  // measure 16
0010
0100
0010
0100
,  // measure 17
2002
0000
0000
0000
,  // measure 18
0000
0000
3003
0000
,  // measure 19
0010
0010
0100
0100
,  // measure 20
0010
0010
1000
1000
,  // measure 21
0001
0001
1000
1000
,  // measure 22
0100
0100
0010
0010
,  // measure 23
0002
0000
0203
0000
,  // measure 24
0320
0000
2030
0000
,  // measure 25
3002
0000
2003
0000
,  // measure 26
3020
0000
0230
0000
,  // measure 27
0301
0000
1000
0000
,  // measure 28
0001
0000
0100
0000
,  // measure 29
0001
0000
1000
0000
,  // measure 30
0100
0000
1000
0000
,  // measure 31
0001
0000
0020
0000
,  // measure 32
0032
0000
2003
0000
,  // measure 33
3020
0000
0230
0000
,  // measure 34
0302
0000
2003
0000
,  // measure 35
3020
0000
0000
0030
,  // measure 36
1000
2000
0000
3000
,  // measure 37
0020
0000
0000
0030
,  // measure 38
0100
0200
0000
0300
,  // measure 39
0002
0000
0000
0003
,  // measure 40
0100
0100
0010
0010
,  // measure 41
1000
0001
1000
0001
,  // measure 42
2002
0000
3003
0000
,  // measure 43
0220
0000
0000
0330
,  // measure 44
0001
1001
1000
1001
,  // measure 45
0100
0110
0010
0110
,  // measure 46
1000
1001
0001
1001
,  // measure 47
0010
0110
0100
0110
,  // measure 48
1000
1000
0001
0001
,  // measure 49
0100
0010
0100
0010
,  // measure 50
2000
0000
3200
0000
,  // measure 51
0320
0000
0032
0000
,  // measure 52
0003
0000
0000
0000
;
