#VERSION:0.83;
#TITLE:BREAK MY SOUL;
#SUBTITLE:;
#ARTIST:BEYONCÉ;
#TITLETRANSLIT:;
#SUBTITLETRANSLIT:;
#ARTISTTRANSLIT:;
#GENRE:;
#ORIGIN:;
#CREDIT:;
#BANNER:BREAK MY SOUL.png;
#BACKGROUND:BREAK MY SOUL-bg.png;
#PREVIEWVID:;
#JACKET:BREAK MY SOUL-jacket.png;
#CDIMAGE:;
#DISCIMAGE:;
#LYRICSPATH:;
#CDTITLE:;
#MUSIC:BREAK MY SOUL.ogg;
#OFFSET:-0.237000;
#SAMPLESTART:71.198006;
#SAMPLELENGTH:12.000000;
#SELECTABLE:YES;
#BPMS:0.000=114.988;
#STOPS:132.000=1.565;
#DELAYS:;
#WARPS:;
#TIMESIGNATURES:0.000=4=4;
#TICKCOUNTS:0.000=4;
#COMBOS:0.000=1;
#SPEEDS:0.000=1.000=0.000=0;
#SCROLLS:0.000=1.000;
#FAKES:;
#LABELS:0.000=Song Start;
#LASTSECONDHINT:121.329208;
#BGCHANGES:7.750=BREAK MY SOUL.avi=1.000=1=0=0=StretchNoLoop==CrossFade==,
226.750=BREAK MY SOUL-bg.png=1.000=1=0=1===CrossFade==,
99999=-nosongbg-=1.000=0=0=0 // don't automatically add -songbackground-
;
#KEYSOUNDS:;
#ATTACKS:
;

//---------------dance-single - ----------------
#NOTEDATA:;
#CHARTNAME:;
#STEPSTYPE:dance-single;
#DESCRIPTION:;
#CHARTSTYLE:;
#DIFFICULTY:Hard;
#METER:8;
#RADARVALUES:0.503940,0.517266,0.197347,0.106896,0.390583,429.000000,405.000000,24.000000,13.000000,0.000000,0.000000,0.000000,0.000000,0.000000,0.503940,0.517266,0.197347,0.106896,0.390583,429.000000,405.000000,24.000000,13.000000,0.000000,0.000000,0.000000,0.000000,0.000000;
#CREDIT:Alchemy Jones;
#NOTES:
0000
0000
0000
0000
,
0000
0000
0000
0000
,
0001
0000
0000
0000
1000
0000
0000
0001
0000
0000
0100
0000
0000
0001
0000
1000
,
0100
0000
0000
0000
1000
0000
0001
0100
0001
0000
1000
0100
1000
0000
0000
0010
,
1000
0000
0000
0000
0001
0000
0000
1000
0000
0000
0100
0000
0000
1000
0000
0001
,
0100
0000
0000
0000
0001
0000
1000
0100
1000
0000
0001
0100
0001
0000
0000
0000
,
1000
0010
0100
0010
1000
0100
0010
0001
,
0100
0000
0010
0000
0100
0000
0001
0000
1000
0000
0100
0000
0010
0001
0010
0002
,
0000
0000
0000
0003
0100
0010
0100
0020
0000
0000
0000
0030
1000
0100
1000
0200
,
0000
0000
0000
0300
0010
0000
0000
0001
0000
0000
1000
0000
0000
0010
0000
0100
,
0001
0000
0000
0000
1000
0000
0010
1000
0001
0000
0200
0000
0000
0310
0000
0010
,
1000
0000
0000
0000
0001
0000
0010
0001
1000
0000
0200
0000
0000
0310
0000
0010
,
0001
0000
0000
0000
1000
0000
0100
1000
0001
0000
0020
0000
0000
0130
0000
0100
,
1000
0000
0000
0000
0001
0000
0100
0001
1000
0000
0020
0000
0000
0130
0000
0100
,
0001
0100
0010
0000
1010
0000
0011
0000
,
1000
0100
0010
0000
0011
0000
1010
0000
,
0001
1000
0010
0000
1100
0000
0101
0000
,
1000
0001
0010
0000
1100
0000
0101
0000
,
0010
0000
0000
0000
1010
0000
0000
0010
0000
0000
1000
0000
0000
0100
0000
0100
,
0010
0000
0000
0000
0011
0000
0000
0010
0000
0000
0001
0000
0000
0100
0000
0100
,
0010
0000
0000
0000
0101
0000
0000
0001
0000
0000
1000
0000
0000
0001
0000
0001
,
0010
0000
0000
0000
1100
0000
0000
1000
0000
0000
0001
0000
0000
1000
0000
1000
,
0010
0000
0101
0000
0001
1000
0100
0000
,
0010
0000
0000
0000
1100
0000
0000
0000
1000
0000
0100
0000
0010
0001
1000
0000
,
0010
0000
1001
0000
0001
0010
0100
0010
,
0001
0000
0100
0000
0010
0000
0100
0000
0001
0000
0010
0000
0100
1000
0000
1000
,
0010
0100
0010
0100
0001
0100
0001
0100
,
0010
0000
0000
0000
1010
0000
0000
1000
0000
0000
0001
0000
0100
0001
0000
0001
,
0010
0100
0010
0100
1000
0100
1000
0100
,
0010
0000
0000
0000
0011
0000
0000
0001
0000
0000
1000
0000
0100
0010
0000
0010
,
0001
0100
0001
0100
0010
0100
0010
0100
,
0001
0000
0000
0000
1010
0000
0000
1000
0000
0000
0001
0000
0100
0010
0000
0010
,
1000
0100
1000
0100
0010
0100
0010
0100
,
1000
0000
0000
0000
0010
0000
1000
0000
0001
0000
0010
0001
1000
0000
0100
0000
,
0010
0100
0000
1000
0010
0000
1000
0000
0001
0000
0100
0001
1000
0000
0100
0000
,
1000
0001
0000
0001
0010
0000
0001
0000
1000
0000
0010
1000
0001
0000
0100
0000
,
0010
0100
0000
0001
0010
0000
0001
0000
1000
0000
0100
1000
0001
0000
0100
0000
,
0001
1000
0010
0000
1000
0000
0100
0000
1000
0000
0100
0000
0001
0000
0100
0000
,
1000
0100
0001
0100
0001
0100
1000
0100
,
0001
0100
1000
0010
1000
0010
0001
0010
,
1000
0010
0001
0100
1000
0010
0100
0001
,
0010
0100
1000
0000
1100
0000
0001
0000
,
0101
0000
0000
0000
1000
0000
0000
0000
1100
0000
0000
1000
0000
0001
0010
0000
,
0100
0000
1000
0010
0200
0000
0301
0000
,
0011
0000
0000
0000
1000
0000
0000
0000
1010
0000
0000
0001
0000
1000
0010
0000
,
0100
0000
0001
0010
0200
0000
0310
0001
,
0100
0000
0000
0000
0010
0000
1000
0000
0100
0000
0000
1000
0000
0100
0010
0000
,
0001
0000
1000
0010
0200
0000
0310
1000
,
0100
0000
0000
0000
0010
0000
0001
0000
0100
0000
0000
0001
0000
0010
0100
0000
,
2000
0000
3010
0100
0001
0010
0100
0001
,
0100
0000
0010
0000
0001
0000
0100
0000
0010
0000
1000
0100
1000
0000
0001
1000
,
0001
0000
0010
0100
1000
0010
0100
1000
,
0100
0000
0010
0000
1000
0000
0100
0000
0010
0000
0001
0100
0001
0000
1000
0001
,
1000
0000
0000
0100
1000
0000
0001
1000
0001
0000
1000
0010
1000
0000
0001
0010
,
0001
0000
0000
0100
0001
0000
1000
0001
0000
0000
0000
0100
1000
0000
0001
1000
,
0000
0000
0000
0010
1000
0000
0001
1000
0000
0000
0000
0010
0001
0000
1000
0001
,
0000
0100
0000
0100
0010
0000
0000
0000
1010
0000
0000
0001
0000
0010
0002
0000
,
2000
0003
0000
3000
0000
0000
0000
0000
0000
0000
0000
0000
0000
0000
0000
0000
;

//---------------dance-single - ----------------
#NOTEDATA:;
#CHARTNAME:;
#STEPSTYPE:dance-single;
#DESCRIPTION:;
#CHARTSTYLE:;
#DIFFICULTY:Medium;
#METER:5;
#RADARVALUES:0.352406,0.376604,0.197347,0.131565,0.000000,300.000000,276.000000,24.000000,16.000000,0.000000,0.000000,0.000000,0.000000,0.000000,0.352406,0.376604,0.197347,0.131565,0.000000,300.000000,276.000000,24.000000,16.000000,0.000000,0.000000,0.000000,0.000000,0.000000;
#CREDIT:Alchemy Jones;
#NOTES:
0000
0000
0000
0000
,
0000
0000
0000
0000
,
0001
0100
1000
0010
,
0001
0000
0010
0000
0100
0010
0100
0000
,
1000
0100
0001
0010
,
1000
0000
0010
0000
0100
0010
0100
0000
,
0010
1000
0100
0001
,
0010
0000
1000
0000
0100
0000
0010
0100
,
0010
0000
0001
0100
0001
0000
1000
0100
,
1000
0001
0010
0100
,
1000
0000
0010
1000
0001
0100
0000
0100
,
0001
0000
0010
0001
1000
0100
0000
0100
,
1000
0000
0100
1000
0001
0010
0000
0010
,
0001
0000
0100
0001
1000
0010
0000
0010
,
1000
1010
0100
0101
,
0010
1010
0100
0101
,
0010
0011
0100
1100
,
0010
0011
0100
1100
,
1000
0000
0001
0000
0100
0010
0000
0100
,
0001
0000
1000
0000
0100
0010
0000
0100
,
1000
0000
0001
0000
0010
0100
0000
0010
,
0001
0000
1000
0000
0010
0100
0000
0010
,
1000
0000
1001
0000
0010
0001
1000
0000
,
0100
0000
1001
0000
0010
1000
0100
0000
,
0010
0000
1001
0000
1000
0010
0100
0000
,
0001
0010
0100
0000
1000
0001
0100
0010
,
2000
3200
0320
0032
,
1003
0000
1001
0000
0010
1000
0001
0100
,
0002
0023
0230
2300
,
3001
0000
1001
0000
0010
0001
1000
0100
,
2000
3020
0230
0302
,
1003
0000
1001
0000
0001
0010
0100
1000
,
0001
1001
0010
2001
,
3001
0000
1000
0010
1000
0100
1000
0000
,
1001
0000
0001
0010
0001
0100
0001
0000
,
1001
0000
1000
0010
1000
0100
1000
0000
,
1001
0000
0001
0010
0001
0100
0001
0000
,
1001
0000
0010
1000
0100
0000
0010
0000
,
0100
0000
0010
0001
0100
0000
0010
0000
,
0100
0000
0010
1000
0100
0000
0010
0000
,
0100
0000
1000
0100
0010
0001
0010
0100
,
1000
0100
0010
0000
0001
0000
0000
0000
,
1000
0000
0000
0000
0100
0000
0010
0001
,
0100
0000
0100
0001
0020
0000
0030
0000
,
0001
0000
0000
0000
1000
0000
0010
1000
,
0100
0000
0100
1000
0020
0000
0130
0000
,
0001
0000
1000
0000
0100
0000
0010
0001
,
0100
0000
0100
0001
0020
0000
0130
1000
,
0001
0000
1000
0001
0100
0000
0010
1000
,
0001
0010
0001
0100
,
1000
0000
0010
0000
0001
0000
0100
0010
,
0100
0010
1000
0100
,
0001
0000
0010
0000
1000
0000
0100
0010
,
0100
0000
1000
0001
1000
0001
1000
0001
,
1000
0010
1000
0001
,
0010
0100
1000
0001
,
0100
0010
0110
1001
,
0110
1001
0000
0000
;

//---------------dance-single - ----------------
#NOTEDATA:;
#CHARTNAME:;
#STEPSTYPE:dance-single;
#DESCRIPTION:;
#CHARTSTYLE:;
#DIFFICULTY:Easy;
#METER:3;
#RADARVALUES:0.206745,0.328090,0.057560,0.065782,0.000000,176.000000,169.000000,7.000000,8.000000,0.000000,0.000000,0.000000,0.000000,0.000000,0.206745,0.328090,0.057560,0.065782,0.000000,176.000000,169.000000,7.000000,8.000000,0.000000,0.000000,0.000000,0.000000,0.000000;
#CREDIT:Alchemy Jones;
#NOTES:
// measure 0
0000
0000
0000
0000
,  // measure 1
0000
0000
0000
0000
,  // measure 2
1000
1000
0010
0100
,  // measure 3
0001
0001
0010
0001
,  // measure 4
1000
1000
0010
0100
,  // measure 5
0001
0001
1000
0001
,  // measure 6
2000
3000
0200
0300
,  // measure 7
0020
0030
0002
0003
,  // measure 8
1000
0000
0001
0000
,  // measure 9
1000
0000
0000
0000
,  // measure 10
0010
0100
0010
0000
,  // measure 11
0100
0010
0100
0000
,  // measure 12
0001
1000
0001
0000
,  // measure 13
1000
0001
1000
0000
,  // measure 14
0001
0001
0000
0000
,  // measure 15
0010
0020
0000
0030
,  // measure 16
0100
0100
0000
0000
,  // measure 17
1000
2000
0000
3000
,  // measure 18
0001
0010
0100
0000
,  // measure 19
0010
0100
1000
0000
,  // measure 20
0010
1000
0001
0000
,  // measure 21
1000
0001
0100
0000
,  // measure 22
0010
1000
0100
0000
,  // measure 23
0100
1000
0010
0000
,  // measure 24
1000
0010
0100
0001
,  // measure 25
1000
0100
0010
0001
,  // measure 26
0100
1000
0010
0002
,  // measure 27
0000
0003
0000
0000
,  // measure 28
1000
0100
0001
0010
,  // measure 29
1000
0000
0000
1000
,  // measure 30
0010
0001
0100
2000
,  // measure 31
0000
3000
0000
0001
,  // measure 32
0010
1000
0100
0001
,  // measure 33
1001
1000
0010
0100
,  // measure 34
0000
1000
0100
0010
,  // measure 35
0000
0001
0100
0010
,  // measure 36
0000
0001
0010
0100
,  // measure 37
0000
1000
1100
0001
,  // measure 38
0101
1000
1100
0001
,  // measure 39
0101
1000
1100
0001
,  // measure 40
0101
0010
0001
0100
,  // measure 41
1000
0010
0000
0001
,  // measure 42
0000
1000
0000
0100
,  // measure 43
0100
0000
1000
0000
,  // measure 44
0001
0000
1000
0010
,  // measure 45
0010
0000
1000
0000
,  // measure 46
0001
0000
1000
0100
,  // measure 47
0100
0000
1000
0000
,  // measure 48
0001
0000
1000
0010
,  // measure 49
0010
1000
0001
1000
,  // measure 50
0001
0010
0100
0010
,  // measure 51
0010
0001
1000
0001
,  // measure 52
1000
0010
0100
0010
,  // measure 53
0010
1000
1000
0001
,  // measure 54
0001
0010
0100
0010
,  // measure 55
0100
1000
0001
1000
,  // measure 56
0001
0100
0010
0100
,  // measure 57
0100
0000
0000
0000
;
