#TITLE:BIRTH IN REVERSE;
#SUBTITLE:;
#ARTIST:ST. VINCENT;
#TITLETRANSLIT:;
#SUBTITLETRANSLIT:;
#ARTISTTRANSLIT:;
#GENRE:;
#CREDIT:;
#BANNER:BIRTH IN REVERSE.png;
#BACKGROUND:BIRTH IN REVERSE-bg.png;
#LYRICSPATH:;
#CDTITLE:;
#MUSIC:BIRTH IN REVERSE.ogg;
#OFFSET:-0.367000;
#SAMPLESTART:37.898792;
#SAMPLELENGTH:12.000000;
#SELECTABLE:YES;
#BPMS:0.000000=162.022995
;
#STOPS:
;
#BGCHANGES:-1.000=BIRTH IN REVERSE.avi=1.000=1=0=0=StretchNoLoop==CrossFade==,
254.000=BIRTH IN REVERSE-bg.png=1.000=1=0=1===CrossFade==,
99999=-nosongbg-=1.000=0=0=0 // don't automatically add -songbackground-
;
#KEYSOUNDS:;
#ATTACKS:;

//---------------dance-single - ----------------
#NOTES:
     dance-single:
     :
     Hard:
     8:
     0.515638,0.508021,0.300007,0.290632,0.075002,385.000000,353.000000,32.000000,31.000000,0.000000,0.000000,0.515638,0.508021,0.300007,0.290632,0.075002,385.000000,353.000000,32.000000,31.000000,0.000000,0.000000:
// measure 0
0000
0000
0000
0000
,  // measure 1
0000
0000
0000
0000
,  // measure 2
1000
0100
0010
0001
,  // measure 3
1000
0000
0100
0000
0010
0000
0001
0100
,  // measure 4
1000
0000
0100
0001
0000
1000
0000
1000
,  // measure 5
0001
0000
0000
0100
1000
0100
0010
0000
,  // measure 6
1000
0100
0010
0001
,  // measure 7
1000
0101
1010
0101
,  // measure 8
1000
0000
0100
0010
0000
0100
0000
1000
,  // measure 9
0001
1000
0000
0100
0001
0100
2000
0000
,  // measure 10
3001
0100
0002
0000
1003
0010
0100
0010
,  // measure 11
2000
0000
3001
0100
0020
0000
1030
0000
,  // measure 12
1100
0000
0100
1000
0010
0000
0011
0000
,  // measure 13
0101
0000
0000
0000
0012
0000
0000
0000
0103
0000
0000
0000
0010
0000
0000
0010
,  // measure 14
1000
0000
0000
1000
0001
0000
0000
0001
0010
0000
0000
0010
0001
0000
0000
0001
,  // measure 15
1000
0000
0000
1000
0010
0000
0000
0010
0100
0000
0000
0100
0001
0000
0000
0000
,  // measure 16
1001
0000
0100
1000
0100
0000
1020
0000
,  // measure 17
0031
0000
0000
0000
1020
0000
0000
0000
0031
0000
0000
0000
0010
0000
0000
0010
,  // measure 18
1000
0000
0000
1000
0010
0000
0000
0010
0100
0000
0000
0100
0001
0000
0000
0001
,  // measure 19
1000
0000
0000
1000
0100
0000
0000
0100
1000
0000
0000
1000
0001
0000
0000
0000
,  // measure 20
1010
0000
0100
1000
0000
0010
0000
0100
,  // measure 21
0001
0100
0000
0001
0010
0001
2000
0000
,  // measure 22
3010
1000
0020
0000
0130
0010
0001
0010
,  // measure 23
2000
0000
3100
1000
0020
0000
0000
0030
,  // measure 24
1100
0000
0000
0011
0000
1010
0000
0000
,  // measure 25
0202
0000
0000
0000
0303
0000
1000
0100
,  // measure 26
0001
0100
1000
0000
1001
0000
0001
0100
,  // measure 27
1000
0100
0001
0000
1001
0000
1000
0100
,  // measure 28
0010
0100
1000
0100
0001
0000
0001
0100
,  // measure 29
0010
0100
0001
0100
1000
0000
0001
0100
,  // measure 30
1000
0100
0001
0000
1001
0000
1000
0100
,  // measure 31
0001
0100
1000
0000
1001
0000
0001
0100
,  // measure 32
0010
0100
0001
0100
1000
0000
1000
0100
,  // measure 33
0010
0100
1000
0100
0001
0000
1000
0010
,  // measure 34
0001
0010
1000
0000
1001
0000
0001
0010
,  // measure 35
1000
0010
0001
0000
1001
0000
1000
0010
,  // measure 36
0100
0010
1000
0010
0001
0000
0001
0010
,  // measure 37
0100
0010
0001
0010
1000
0000
0001
0100
,  // measure 38
1000
0100
0001
0000
1001
0000
1000
0100
,  // measure 39
0001
0100
1000
0000
1001
0000
0001
0010
,  // measure 40
0100
0010
0001
0010
1000
0000
1000
0010
,  // measure 41
0100
0010
1000
0010
0001
0000
0020
0000
,  // measure 42
0032
0203
0302
2003
,  // measure 43
3020
0230
0000
0320
,  // measure 44
2030
3200
0302
0023
,  // measure 45
0032
0203
2300
3001
,  // measure 46
0001
0000
0001
0200
1000
0000
0001
0000
,  // measure 47
1300
0000
0100
0001
0010
0000
0001
0100
,  // measure 48
1000
0100
0001
0000
0011
0000
1000
0100
,  // measure 49
0001
0100
1000
0000
1010
0000
0100
0010
,  // measure 50
0001
0010
1000
0100
0001
0000
0001
0100
,  // measure 51
1000
0010
0001
0010
0100
0000
0001
0010
,  // measure 52
1000
0010
0001
0000
0101
0000
1000
0010
,  // measure 53
0001
0010
1000
0000
1100
0000
0001
0010
,  // measure 54
0100
0010
0001
0100
1000
0000
1000
0100
,  // measure 55
0001
0010
0100
0010
0001
0000
1000
0100
,  // measure 56
0001
0100
1000
0000
1001
0000
0001
0100
,  // measure 57
1000
0100
0001
0000
1001
0000
1000
0010
,  // measure 58
0100
1000
0100
0001
0010
0000
0010
0001
,  // measure 59
0100
1000
0100
0010
1000
0000
0010
1000
,  // measure 60
0100
1000
0010
0000
0110
0000
0100
0001
,  // measure 61
0010
0001
0100
0000
0110
0000
0001
0100
,  // measure 62
1000
0100
0001
0010
1000
0000
0022
0000
,  // measure 63
0000
0000
0000
0033
;

//---------------dance-single - ----------------
#NOTES:
     dance-single:
     :
     Medium:
     5:
     0.345544,0.388486,0.318758,0.403135,0.000000,258.000000,224.000000,34.000000,43.000000,0.000000,0.000000,0.345544,0.388486,0.318758,0.403135,0.000000,258.000000,224.000000,34.000000,43.000000,0.000000,0.000000:
0000
0000
0000
0000
,
0000
0000
0000
0000
,
1000
0100
0010
0001
,
0100
0101
0001
0011
,
0000
0000
1000
0000
0000
1000
0000
0000
,
0010
0000
0000
0100
0010
0100
0000
0000
,
0001
0010
0100
1000
,
0010
1010
1000
1100
,
0100
0000
0100
1000
0000
1000
0000
1000
,
0010
0100
0000
0100
0001
0100
0000
0000
,
0001
0000
0001
0010
0000
0010
0000
0100
,
0010
0000
0100
0000
,
1100
0000
0000
0110
0000
0110
0000
0000
,
1001
2000
0020
3030
,
0001
0010
0100
1000
,
0010
1010
1000
1100
,
1000
0000
1000
0010
0000
0000
1200
0000
,
1300
1200
1300
0000
,
0010
1000
0001
0100
,
0001
0101
0001
0011
,
0001
0000
0001
0100
0000
0100
0000
0100
,
0010
0100
0000
0001
0100
0001
0010
0000
,
0100
1000
0000
1000
0000
0000
0002
0000
,
1003
0200
0020
0330
,
1001
0000
0000
0110
0000
0110
0000
0000
,
1001
0000
0000
0001
1000
0100
0010
0000
,
0001
0100
0101
0010
,
1000
0100
1100
0020
,
0000
0000
0030
0001
0200
0000
0010
0000
,
0020
0330
0000
0100
,
0001
0010
0011
0100
,
1000
0010
1010
0002
,
0000
0003
0000
1000
0020
0000
0100
0000
,
0130
0000
0000
0001
0010
0200
0000
0000
,
0000
0000
0300
1000
0010
0200
0000
0000
,
0000
0300
0100
2002
,
0000
3003
0000
0010
0100
0000
0110
0000
,
0110
0000
0000
1000
0100
0020
0000
0000
,
0000
0030
0000
0001
0100
0020
0000
0000
,
0000
0030
0000
1000
0200
0000
2000
0000
,
3300
0000
0000
1000
0020
0000
1000
0000
,
2000
0000
0000
3030
0000
0000
0010
0000
,
0100
0010
0100
0002
,
2003
0002
3003
0001
,
1000
0001
1000
0200
,
0320
0230
2300
0100
,
3100
0000
0100
1000
0200
0000
0010
0000
,
0310
0000
0001
0100
0001
1000
0010
0000
,
1000
0100
1100
0010
,
0001
0100
0101
0020
,
0000
0030
0000
0100
1000
0000
0010
1000
,
0100
0000
0000
1000
0001
0000
0100
0000
,
0001
0010
0011
0100
,
1000
0010
1010
0200
,
0000
0300
0000
0001
0020
0000
0100
0000
,
0130
0000
0000
1000
0010
0000
2020
0000
,
0000
3030
0000
0001
0010
0000
0022
0000
,
0000
0033
0000
1000
0010
0000
0200
0000
,
0000
0300
0000
0001
0010
0000
0110
0000
,
0110
0000
0000
0010
0001
0200
0000
0000
,
0000
0300
0000
0010
1000
0200
0000
0000
,
0000
0300
0000
0010
0001
0000
2000
0000
,
0000
3000
0000
0010
0100
0000
0220
0000
,
0000
0000
0000
0330
;

//---------------dance-single - ----------------
#NOTES:
     dance-single:
     :
     Easy:
     3:
     0.231702,0.388486,0.215630,0.215630,0.000000,173.000000,150.000000,23.000000,23.000000,0.000000,0.000000,0.231702,0.388486,0.215630,0.215630,0.000000,173.000000,150.000000,23.000000,23.000000,0.000000,0.000000:
0000
0000
0000
0000
,
0000
0000
0000
0000
,
0010
0100
0010
0100
,
1000
0001
1000
0001
,
0000
1000
0000
0010
,
0000
1000
0000
0000
,
0010
0100
0010
0100
,
0001
1000
0001
1000
,
0000
0001
0000
0100
,
0000
0001
0000
2000
,
0000
0100
3100
0000
,
0000
1000
0001
1000
,
0000
0100
0000
0001
,
0000
1001
0110
0000
,
0001
1000
0001
1000
,
0010
0100
0010
0100
,
0000
0001
0000
1001
,
0000
1001
0000
0000
,
1000
0001
1000
0001
,
0010
0100
0010
0100
,
0000
0001
0000
0010
,
0000
0001
0000
0200
,
0000
0010
0310
0000
,
0000
0110
0110
0000
,
0001
0000
0100
0000
,
1000
0000
0000
2000
,
0000
3000
1001
0002
,
0000
0003
1001
1000
,
0000
0100
0000
0010
,
0000
0001
0000
0200
,
0000
0300
1001
0020
,
0000
0030
1001
0001
,
0000
0010
0000
0100
,
0000
1000
0000
0002
,
0000
0003
1001
2000
,
0000
3000
1001
0001
,
0000
1000
0000
0100
,
0000
0010
0000
0001
,
1000
0001
0001
0100
,
0010
0100
0100
0002
,
0000
0000
0000
2000
,
0000
0000
3003
0001
,
0100
0001
0020
0100
,
0100
0200
0330
1000
,
0010
1000
0200
0010
,
0010
0020
0330
0001
,
0001
0002
0003
1000
,
1000
1001
0000
0020
,
0000
0030
0110
0200
,
0000
0300
0110
0001
,
0000
0010
0000
0100
,
0000
1000
0000
0002
,
0000
0003
1001
2000
,
0000
3000
1001
0010
,
0000
1000
0000
0001
,
0000
0100
0000
0020
,
0000
0030
0110
0200
,
0000
0300
0110
1000
,
0000
0001
0000
0100
,
0000
0010
0000
0001
,
1000
1001
1001
1000
,
0001
1001
1001
0020
,
0000
0000
0000
0200
,
0000
0000
0000
0330
;
