#TITLE:BEAUTIFUL LIFE;
#SUBTITLE:;
#ARTIST:MAKJ & PURARI;
#TITLETRANSLIT:;
#SUBTITLETRANSLIT:;
#ARTISTTRANSLIT:;
#GENRE:;
#CREDIT:;
#BANNER:BEAUTIFUL LIFE.png;
#BACKGROUND:BEAUTIFUL LIFE - bg.png;
#LYRICSPATH:;
#CDTITLE:;
#MUSIC:BEAUTIFUL LIFE.ogg;
#OFFSET:-0.113000;
#SAMPLESTART:69.948761;
#SAMPLELENGTH:12.000000;
#SELECTABLE:YES;
#BPMS:0.000000=145.000000
;
#STOPS:60.000000=1.241000
;
#BGCHANGES:15.750=BEAUTIFUL LIFE.avi=1.000=1=0=1===CrossFade==,
229.000=BEAUTIFUL LIFE - bg.png=1.000=0=0=1===CrossFade_Faster==,
99999=-nosongbg-=1.000=0=0=0 // don't automatically add -songbackground-
;
#KEYSOUNDS:;
#ATTACKS:;

//---------------dance-single - ----------------
#NOTES:
     dance-single:
     :
     Hard:
     8:
     0.482840,0.594547,0.368199,0.094410,0.089689,358.000000,319.000000,39.000000,10.000000,0.000000,0.000000,0.482840,0.594547,0.368199,0.094410,0.089689,358.000000,319.000000,39.000000,10.000000,0.000000,0.000000:
0000
0000
0000
0000
,
0000
0000
0000
0000
,
0000
0000
0000
0000
,
0000
0000
0000
0000
,
1010
0000
1000
0000
0010
0000
1000
0001
,
0000
0010
0000
0011
0000
0011
0000
0001
,
0101
0100
0110
0010
,
1010
0000
1000
0000
0100
0000
0010
0100
0010
0100
0010
0000
1001
0000
0000
0000
,
0001
0100
0010
1000
,
0001
0000
0100
0000
0010
0000
1000
0100
,
0010
0001
1000
0100
,
0010
0000
0000
0000
0001
0000
0000
0000
1000
0000
0000
0000
0100
0000
0010
0001
,
0100
0001
0100
0001
0100
0010
0100
0010
,
1000
0010
1000
0010
1000
0001
1000
0001
,
1000
0100
1000
0000
0010
0000
0010
0000
0100
0001
0100
0000
0010
0000
0010
0000
,
0110
0000
1010
0000
1000
0010
0100
0010
,
1000
0001
0000
0000
0000
0011
0000
0001
,
0010
0001
0100
0000
0001
0010
0100
0010
,
0001
0000
1000
0000
0000
0000
1010
0000
0000
0000
1010
0000
0000
1000
0100
0000
,
0010
0001
0000
0000
0001
0100
0010
0100
,
0001
0000
1000
0000
0000
0000
0000
0000
0000
0000
1010
0000
0000
1000
0001
0000
,
0100
0010
0110
0000
1000
0100
1100
0000
,
0001
0000
0100
0000
0101
0000
0001
0000
1001
0000
1000
0000
0010
0100
0010
0100
,
0010
1000
0200
0000
0000
0000
0000
0000
,
0000
0000
0000
0000
,
0300
1000
1000
0010
,
0100
0000
0001
0000
0010
0001
0000
0001
,
1000
0010
0200
0000
0302
0000
2000
0000
,
3003
0000
0100
0000
0100
1000
0000
1000
,
0001
0100
0001
0000
0001
0000
0010
0000
,
0100
0000
1000
0000
0010
1000
0000
1000
,
0001
0010
0200
0000
2300
0000
0002
0000
,
3003
0000
0001
0010
0100
1000
0000
1000
,
0010
0100
0001
0000
0010
0100
0010
1000
,
0010
0001
0000
0000
0000
2100
0000
3001
,
0100
1000
0000
0000
0010
0100
0010
0001
,
0010
1000
0000
0000
0000
0102
0000
1003
,
0100
0001
0000
0000
0100
0010
0100
0001
,
0100
1000
0000
0000
0000
0021
0000
1030
,
0010
0001
0101
0000
0010
1000
1100
0000
,
0100
1000
1010
0000
0101
0000
0011
0000
,
1100
0000
1001
0000
0001
0010
0100
0010
,
0001
1000
0000
0000
0000
1010
0000
1000
,
0010
1000
0100
0000
1000
0010
0100
0010
,
1000
0000
0001
0000
0000
0000
0011
0000
0000
0000
0011
0000
0000
0001
0100
0000
,
0010
1000
0000
0000
1000
0100
0010
0100
,
1000
0000
0001
0000
0000
0000
0000
0000
0000
0000
0011
0000
0000
0001
0010
0000
,
0001
0100
0110
0000
1000
0100
0010
0100
,
1000
0000
0010
0000
0100
0000
0001
0000
0010
0000
0100
0010
0100
0010
0100
0000
,
1001
0000
0001
0010
0100
0010
0001
0010
,
0100
0010
0001
1000
0001
0100
0001
1000
,
0001
0100
0010
1000
0100
1000
0010
1000
,
0100
0000
0010
0000
0001
0000
0010
0000
0100
0000
1000
0000
0010
0100
0010
0100
,
0010
0100
0010
0000
1001
0000
0000
0000
1000
0000
0010
0000
0100
0000
0010
0000
,
1000
0000
0010
0000
0100
0000
0010
0000
1000
0000
0001
0000
1000
0100
0010
0000
,
0001
0100
0101
0000
1000
0100
1100
0000
,
1000
0000
0010
0000
1010
0000
0001
0000
0011
0000
1000
0000
0010
0100
0010
0100
,
0010
1000
1001
0000
0000
0000
0000
0000
;

//---------------dance-single - ----------------
#NOTES:
     dance-single:
     :
     Medium:
     5:
     0.345271,0.459423,0.283230,0.132174,0.000000,256.000000,226.000000,30.000000,14.000000,0.000000,0.000000,0.345271,0.459423,0.283230,0.132174,0.000000,256.000000,226.000000,30.000000,14.000000,0.000000,0.000000:
0000
0000
0000
0000
,
0000
0000
0000
0000
,
0000
0000
0000
0000
,
0000
0000
0000
0000
,
0001
0000
0010
0000
0001
0000
0010
0100
,
0000
0100
0000
0010
0000
0010
0000
0000
,
1001
0001
1001
1000
,
2002
0000
0000
3003
,
1000
0100
1000
0100
,
0010
0001
0010
0001
,
0100
0001
0100
0001
,
1000
0010
1000
0010
,
1000
0100
1000
0100
0010
0100
0010
0100
,
0010
0001
0010
0001
1000
0001
1000
0001
,
2000
0000
0002
0000
,
3003
0000
1001
0000
1000
0010
0100
0010
,
1000
0010
0000
0000
0000
0010
0000
0010
,
1000
0100
0000
0000
0010
0001
0100
0001
,
0010
0001
0000
0001
0000
0001
0000
0010
,
0001
0100
0000
0000
0001
0010
0100
0010
,
0001
0010
0000
0000
0000
0010
0000
0010
,
0001
1001
1000
1001
,
0001
1001
0110
2002
,
3003
0220
0000
0000
,
0000
0000
0000
0000
,
0330
1000
1000
0000
,
0000
0000
1000
0000
0010
0100
0000
0100
,
0010
1000
0010
0100
,
0000
0000
0001
0000
1000
0100
0000
0100
,
1000
0001
0001
0000
,
0000
0000
0001
0000
0010
0100
0000
0100
,
0010
0001
0010
0100
,
0000
0000
1000
0100
0010
0002
0000
0200
,
0000
0000
0303
0000
1000
0010
1000
0010
,
1000
0010
0000
0000
0000
1001
0000
1000
,
0010
0100
0000
0000
0001
0010
0001
0010
,
0001
0010
0000
0000
0000
1001
0000
0001
,
0010
0100
0000
0000
1000
0001
1000
0001
,
1000
0001
0000
0000
0000
1001
0000
0001
,
0010
1001
0000
0110
,
0000
1001
0110
1001
,
0110
0000
1001
0000
0001
0010
0100
0010
,
0001
0010
0000
0000
0000
0010
0000
0010
,
0001
0100
0000
0000
0010
1000
0100
1000
,
0010
1000
0000
1000
0000
1000
0000
0010
,
1000
0100
0000
0000
1000
0010
0100
0010
,
1000
0010
0000
0000
0000
0010
0000
0010
,
1000
1001
0001
1001
,
1000
2002
0000
0000
,
3003
0000
0110
0000
1000
0010
0100
0010
,
1000
0010
0000
0000
0000
0010
0000
0010
,
1000
0100
0000
0000
0010
0001
0100
0001
,
0010
0001
0000
0001
0000
0001
0000
0010
,
0001
0100
0000
0000
0001
0010
0100
0010
,
0001
0010
0000
0000
0000
0010
0000
0010
,
0001
1001
1000
1001
,
0001
1001
0110
2002
,
3003
0110
0000
0000
;

//---------------dance-single - ----------------
#NOTES:
     dance-single:
     :
     Easy:
     3:
     0.223887,0.378348,0.207702,0.094410,0.000000,166.000000,144.000000,22.000000,10.000000,0.000000,0.000000,0.223887,0.378348,0.207702,0.094410,0.000000,166.000000,144.000000,22.000000,10.000000,0.000000,0.000000:
// measure 0
0000
0000
0000
0000
,  // measure 1
0000
0000
0000
0000
,  // measure 2
0000
0000
0000
0000
,  // measure 3
0000
0000
0000
0000
,  // measure 4
1000
0100
0010
0000
,  // measure 5
0001
0000
1000
0000
,  // measure 6
0001
0100
0010
0000
,  // measure 7
2000
0000
0000
3000
,  // measure 8
0001
0100
0001
0100
,  // measure 9
0001
0100
0001
0100
,  // measure 10
0010
1000
0010
1000
,  // measure 11
0010
1000
0010
1000
,  // measure 12
0100
1000
0100
1000
,  // measure 13
0001
0010
0001
0010
,  // measure 14
0220
0000
0000
0330
,  // measure 15
1001
0001
0100
0001
,  // measure 16
0100
0010
0000
0010
,  // measure 17
0000
1000
0100
1000
,  // measure 18
0100
0010
0010
0010
,  // measure 19
0000
0001
0010
0001
,  // measure 20
0010
0100
0000
0100
,  // measure 21
0000
0110
0000
1001
,  // measure 22
0000
0110
1001
0220
,  // measure 23
0330
2000
0000
0000
,  // measure 24
0000
0000
0000
0000
,  // measure 25
3000
0001
0001
0000
,  // measure 26
0000
0010
0000
1000
,  // measure 27
0000
0100
0100
0100
,  // measure 28
0000
0001
0000
0001
,  // measure 29
0000
1000
1000
0000
,  // measure 30
0000
0010
0000
0001
,  // measure 31
0000
0100
0100
0100
,  // measure 32
0000
1000
0000
2000
,  // measure 33
0000
3000
0010
0000
,  // measure 34
1000
0000
0100
0000
,  // measure 35
0010
0000
1000
0000
,  // measure 36
0100
0000
0001
0000
,  // measure 37
0010
0000
0001
0000
,  // measure 38
0100
0000
0010
0000
,  // measure 39
0100
0110
0000
1001
,  // measure 40
0000
0110
1001
0110
,  // measure 41
1001
0110
0100
0010
,  // measure 42
0100
0010
0000
1000
,  // measure 43
1000
1000
0000
0100
,  // measure 44
0010
0100
0010
0001
,  // measure 45
0001
1001
1000
0001
,  // measure 46
1000
0001
0000
0010
,  // measure 47
0010
0010
0000
1000
,  // measure 48
0001
2000
0000
0000
,  // measure 49
3000
0001
0010
0001
,  // measure 50
0100
0001
0000
0110
,  // measure 51
0000
1001
1000
0010
,  // measure 52
1000
0010
0100
0100
,  // measure 53
0100
1001
0001
0100
,  // measure 54
0001
0100
0000
0110
,  // measure 55
0000
1001
0000
0110
,  // measure 56
0000
2002
0000
0000
,  // measure 57
0000
3003
0000
0000
;
