#VERSION:0.83;
#TITLE:BABY GIRL;
#SUBTITLE:;
#ARTIST:DISCO LINES;
#TITLETRANSLIT:;
#SUBTITLETRANSLIT:;
#ARTISTTRANSLIT:;
#GENRE:;
#ORIGIN:;
#CREDIT:;
#BANNER:BABY GIRL.png;
#BACKGROUND:BABY GIRL-bg.png;
#PREVIEWVID:;
#JACKET:BABY GIRL-jacket.png;
#CDIMAGE:600x600bb (2).jpg;
#DISCIMAGE:;
#LYRICSPATH:;
#CDTITLE:;
#MUSIC:BABY GIRL.ogg;
#OFFSET:-0.053000;
#SAMPLESTART:71.435829;
#SAMPLELENGTH:12.000000;
#SELECTABLE:YES;
#DISPLAYBPM:121.000000;
#BPMS:0.000=121.000,
175.000=10.083,
175.500=30.250,
176.000=121.000;
#STOPS:142.750=0.496;
#DELAYS:;
#WARPS:;
#TIMESIGNATURES:0.000=4=4;
#TICKCOUNTS:0.000=4;
#COMBOS:0.000=1;
#SPEEDS:0.000=1.000=0.000=0;
#SCROLLS:0.000=1.000;
#FAKES:;
#LABELS:0.000=Song Start;
#LASTSECONDHINT:103.725502;
#BGCHANGES:-0.357=BABY GIRL.avi=1.000=0=0=0=StretchNoLoop==CrossFade_Fastest==,
201.000=BABY GIRL-bg.png=1.000=1=0=1===CrossFade==,
99999=-nosongbg-=1.000=0=0=0 // don't automatically add -songbackground-
;
#KEYSOUNDS:;
#ATTACKS:
;

//---------------dance-single - ----------------
#NOTEDATA:;
#CHARTNAME:;
#STEPSTYPE:dance-single;
#DESCRIPTION:;
#CHARTSTYLE:;
#DIFFICULTY:Hard;
#METER:9;
#RADARVALUES:0.512201,0.557192,0.261638,0.164735,0.499050,370.000000,343.000000,27.000000,17.000000,0.000000,0.000000,0.000000,0.000000,0.000000,0.512201,0.557192,0.261638,0.164735,0.499050,370.000000,343.000000,27.000000,17.000000,0.000000,0.000000,0.000000,0.000000,0.000000;
#CREDIT:Alchemy Jones;
#DISPLAYBPM:121.000000;
#NOTES:
0000
0000
0000
0000
,
0000
0000
0000
0000
,
0000
0000
0000
0000
,
0000
0000
0000
0000
,
0000
0000
0001
0000
0010
0000
0010
0002
0000
0000
1003
0000
0200
0000
0000
0000
,
0300
0000
1000
0000
0010
0000
0010
2000
0000
0000
3001
0000
0200
0000
0000
0000
,
0300
0000
0001
0000
1000
0000
0100
0010
0000
0000
0001
0000
1000
0000
0010
0100
,
0000
0101
0000
1100
0000
1010
0000
0011
,
0000
0000
0010
0100
1000
0000
1000
0001
0000
0001
1000
0000
0010
0000
0100
0000
,
0010
1000
0010
0000
0100
0001
0100
0000
0000
0000
0001
0010
0100
0010
0001
0000
,
1000
0000
1000
0010
0100
0000
0100
0001
0000
0001
0010
0000
0100
0000
1000
0000
,
0000
0000
0001
0000
0100
0000
0010
1000
0000
1000
0100
0000
2010
0000
0000
0000
,
0000
0000
3010
0100
0001
0000
0001
1000
0000
1000
0001
0000
0010
0000
0100
0000
,
0010
0001
0010
0000
0100
1000
0100
0000
0000
0000
1000
0010
0100
0010
1000
0000
,
0001
0000
0001
0010
0100
0000
0100
1000
0000
1000
0010
0000
0100
0000
0001
0000
,
0000
0000
1000
0000
0100
0000
0010
0001
0000
0001
0100
0000
0011
0000
0000
0000
,
1001
0000
0000
0000
0101
0000
0000
0000
0001
1000
0001
0000
1000
0010
1000
0000
,
0100
0001
0100
1000
0000
1100
0000
0011
,
0001
0000
0010
0100
0001
0000
0001
0100
0000
0100
1000
0000
0002
0000
0000
0000
,
0003
0000
0100
0000
1000
0000
1000
0100
0000
0100
0001
0000
0011
0000
0000
0000
,
1001
0000
0000
0000
1100
0000
0000
0000
1000
0001
1000
0000
0001
0010
0001
0000
,
0100
1000
0100
0001
0000
0101
0000
1010
,
1000
0000
0010
0100
1000
0000
1000
0100
0000
0100
0001
0000
2000
0000
0000
0000
,
3000
0000
0100
0000
0001
0000
0001
0100
0000
0100
1000
0000
0002
0000
0000
0000
,
0013
0000
0000
0001
0000
0000
1000
0000
0100
0000
0000
0001
0000
0000
0100
0000
,
0000
1000
0000
0000
1000
0000
0000
1000
0000
0000
0010
0000
0000
0010
0000
0000
,
0010
0000
0000
1000
0000
0000
0001
0000
0100
0000
0000
1000
0000
0000
0100
0000
,
0000
0001
0000
0000
0001
0000
0000
0001
0000
0000
0010
0000
1001
0000
0000
0000
,
0100
0000
0000
0001
0000
0000
1000
0000
0010
0000
0000
0001
0000
0000
0010
0000
,
0000
1000
0000
0000
1000
0000
0000
1000
0000
0000
0100
0000
0000
0100
0000
0000
,
0100
0000
0000
1000
0000
0000
0001
0000
0010
0000
0000
1000
0000
0000
0010
0000
,
0000
0001
0000
0000
0001
0000
0000
0001
0000
0000
0100
0000
0000
0100
0000
0000
,
0102
1000
0000
1003
,
2100
0001
0000
3001
,
1001
0100
1001
0010
,
1010
0000
0000
0000
0101
0000
0000
0000
0011
0000
0000
0000
1100
0000
0100
0010
,
1000
0000
1000
0010
0000
0010
0001
0000
0100
0000
0010
0000
0100
0001
0100
0000
,
0010
1000
0010
0000
0000
0000
1000
0100
0010
0100
1000
0000
0001
0000
0001
0100
,
0010
0000
0010
1000
0000
1000
0100
0000
0010
0000
0001
0000
0000
0000
1000
0000
,
0010
0000
0100
0001
0000
0001
0010
0000
0102
0000
0000
0000
0000
0000
0103
0010
,
0001
0000
0001
0010
0000
0010
1000
0000
0100
0000
0010
0000
0100
1000
0100
0000
,
0010
0001
0010
0000
0000
0000
0001
0100
0010
0100
0001
0000
1000
0000
1000
0100
,
0010
0000
0010
0001
0000
0001
0100
0000
0020
0000
0000
0000
0030
0000
0100
0000
,
0010
0000
0010
1000
0000
1000
0100
0000
0020
0000
0000
0000
0030
0000
1100
0011
,
0010
0000
0010
0001
1000
0000
1000
0010
0000
0010
0001
0000
0020
0000
0000
0000
,
0030
0000
0100
0000
0001
0000
0001
0010
0000
0010
1000
0000
0020
0000
0000
0000
,
0030
0000
0001
0100
0010
0000
0010
1000
0000
1000
0001
0000
0010
0000
0100
0000
,
1000
0010
1000
0000
0100
1000
0100
0000
0000
0000
0010
0001
0100
0001
0010
0000
,
0100
0000
0100
1000
0001
0000
0001
0100
0000
0100
1000
0000
0200
0000
0000
0000
,
0300
0000
0010
0000
1000
0000
1000
0100
0000
0100
0001
0000
0200
0000
0000
0000
,
0300
0000
0000
0000
;

//---------------dance-single - ----------------
#NOTEDATA:;
#CHARTNAME:;
#STEPSTYPE:dance-single;
#DESCRIPTION:;
#CHARTSTYLE:;
#DIFFICULTY:Medium;
#METER:5;
#RADARVALUES:0.346082,0.363386,0.184116,0.125974,0.000000,250.000000,231.000000,19.000000,13.000000,0.000000,0.000000,0.000000,0.000000,0.000000,0.346082,0.363386,0.184116,0.125974,0.000000,250.000000,231.000000,19.000000,13.000000,0.000000,0.000000,0.000000,0.000000,0.000000;
#CREDIT:Alchemy Jones;
#DISPLAYBPM:121.000000;
#NOTES:
0000
0000
0000
0000
,
0000
0000
0000
0000
,
0000
0000
0000
0000
,
0000
0000
0000
0000
,
1000
0000
0000
0000
0001
1000
0001
0000
,
1000
0000
0000
0000
1000
0001
0001
0000
,
1001
0000
1001
0000
,
1001
1001
1001
1001
,
0001
0010
0001
0000
0001
1000
0001
0000
,
0010
0001
1000
0100
0000
1000
0010
0000
,
0010
1000
0001
1000
0010
1000
0002
0000
,
0003
0010
0001
1000
0001
0010
0002
0000
,
1003
0010
1000
0000
1000
0001
1000
0000
,
0100
1000
0001
0010
0000
0001
0010
0000
,
0010
0001
1000
0001
0010
0001
2000
0000
,
3000
0010
1000
0001
1000
0010
2000
0000
,
3001
0101
1000
1100
,
0010
0100
0010
0100
0000
0000
1001
0000
,
1000
1000
0010
0000
0100
0100
0001
0000
,
0010
0001
1000
0000
0001
0000
1001
0000
,
1000
1100
0001
0101
,
0010
0100
0010
0100
0000
0000
1001
0000
,
0001
0001
0010
0000
0100
0100
1000
0000
,
0010
1000
0001
0000
1000
0001
0200
0000
,
0301
0000
0010
0000
,
1000
0000
0100
0000
0001
0010
0100
0000
,
1000
0000
0010
0000
,
0001
0000
0100
0000
1000
0010
0100
0000
,
0001
0000
0100
0000
,
1000
0000
0010
0000
0001
0100
0010
0000
,
1000
0000
0100
0000
,
0001
0000
0010
0000
1000
0100
0010
0000
,
0001
0000
0001
0000
,
1000
0000
1000
0000
,
1001
0000
0110
0000
,
1001
0000
0110
0000
1001
0000
0010
1000
,
0010
0000
0010
0100
0010
0000
1000
0010
,
0100
0001
0000
0000
1001
0000
0010
0001
,
0100
0001
0010
0001
0200
0000
0300
0010
,
1000
0100
1000
0010
2000
0000
3100
0001
,
0100
0000
0100
0010
0100
0000
0001
0100
,
0010
1000
0000
0001
1000
0000
0100
1000
,
0010
1000
0100
1000
0020
0000
0030
0100
,
0001
0010
0001
0100
0002
0000
1003
0001
,
1000
0100
0010
0100
1000
0100
0020
0000
,
0030
0001
0010
0100
0010
0001
0020
0000
,
0031
0010
0100
0000
0010
0100
1000
0000
,
0010
1000
0001
0100
0000
0001
0010
0000
,
0001
0100
0010
0100
0001
0100
0020
0000
,
0030
1000
0010
0100
0010
1000
0020
0000
,
0030
0000
0000
0000
;

//---------------dance-single - ----------------
#NOTEDATA:;
#CHARTNAME:;
#STEPSTYPE:dance-single;
#DESCRIPTION:;
#CHARTSTYLE:;
#DIFFICULTY:Easy;
#METER:2;
#RADARVALUES:0.167504,0.242257,0.058142,0.096903,0.000000,121.000000,115.000000,6.000000,10.000000,0.000000,0.000000,0.000000,0.000000,0.000000,0.167504,0.242257,0.058142,0.096903,0.000000,121.000000,115.000000,6.000000,10.000000,0.000000,0.000000,0.000000,0.000000,0.000000;
#CREDIT:Alchemy Jones;
#DISPLAYBPM:121.000000;
#NOTES:
// measure 0
0000
0000
0000
0000
,  // measure 1
0000
0000
0000
0000
,  // measure 2
0000
0000
0000
0000
,  // measure 3
0000
0000
0000
0000
,  // measure 4
0020
0000
0000
0030
,  // measure 5
0200
0000
0000
0300
,  // measure 6
1000
0000
0001
0000
,  // measure 7
0010
0010
0010
0000
,  // measure 8
0001
1000
0100
0000
,  // measure 9
1000
0000
0001
0000
,  // measure 10
0010
0010
0100
0100
,  // measure 11
0000
1000
0001
1001
,  // measure 12
0000
0001
0100
0000
,  // measure 13
0001
0000
1000
0000
,  // measure 14
0010
0010
0100
0100
,  // measure 15
0000
0001
1000
0000
,  // measure 16
0001
0001
0001
0000
,  // measure 17
1000
0000
1000
0000
,  // measure 18
0010
1000
0100
0000
,  // measure 19
0010
0001
0100
0000
,  // measure 20
1000
1000
1000
0000
,  // measure 21
0001
0000
0001
0000
,  // measure 22
0010
0001
0100
0000
,  // measure 23
0010
1000
0100
0000
,  // measure 24
0010
0000
0001
0000
,  // measure 25
0200
0000
0300
0000
,  // measure 26
0010
0000
1000
0000
,  // measure 27
0200
0000
0300
0000
,  // measure 28
0010
0000
0001
0000
,  // measure 29
0100
1000
0010
0000
,  // measure 30
0010
0000
1000
0000
,  // measure 31
0100
0001
0010
0000
,  // measure 32
0002
0000
0000
0003
,  // measure 33
2000
0000
0000
3000
,  // measure 34
0002
0003
2000
3000
,  // measure 35
1001
0110
1001
1000
,  // measure 36
0001
0010
0000
0001
,  // measure 37
0000
1000
0000
0100
,  // measure 38
0100
0010
0010
0000
,  // measure 39
0001
1000
1001
0000
,  // measure 40
1000
0010
0000
1000
,  // measure 41
0000
0001
0000
0100
,  // measure 42
0100
0010
0010
0000
,  // measure 43
1000
0000
0001
0000
0000
0000
2000
3000
,  // measure 44
0001
0001
1000
1000
,  // measure 45
0000
0010
0100
0110
,  // measure 46
0000
0100
0001
0000
,  // measure 47
0100
0000
0010
0000
,  // measure 48
1000
1000
0001
0001
,  // measure 49
0000
0100
0010
0200
,  // measure 50
0300
0000
0000
0000
;
