#TITLE:AS IT WAS;
#SUBTITLE:;
#ARTIST:HARRY STYLES;
#TITLETRANSLIT:;
#SUBTITLETRANSLIT:;
#ARTISTTRANSLIT:;
#GENRE:;
#CREDIT:;
#BANNER:AS IT WAS.png;
#BACKGROUND:AS IT WAS - bg.png;
#LYRICSPATH:;
#CDTITLE:;
#MUSIC:AS IT WAS.ogg;
#OFFSET:-0.090000;
#SAMPLESTART:34.529247;
#SAMPLELENGTH:12.000000;
#LASTBEATHINT:302.000000;
#SELECTABLE:YES;
#BPMS:0.000000=174.000000
;
#STOPS:
;
#BGCHANGES:-0.500=AS IT WAS.avi=1.000=1=0=1===CrossFade==,
306.000=AS IT WAS - bg.png=1.000=1=0=1===CrossFade==,
99999=-nosongbg-=1.000=0=0=0 // don't automatically add -songbackground-
;
#KEYSOUNDS:;
#ATTACKS:;

//---------------dance-single - ----------------
#NOTES:
     dance-single:
     :
     Hard:
     8:
     0.584620,0.597992,0.343413,0.124010,0.000000,429.000000,393.000000,36.000000,13.000000,0.000000,0.000000,0.584620,0.597992,0.343413,0.124010,0.000000,429.000000,393.000000,36.000000,13.000000,0.000000,0.000000:
// measure 0
0000
0000
0000
0000
,  // measure 1
0000
0000
0000
0000
,  // measure 2
0000
0000
0000
0000
,  // measure 3
0000
0000
0000
0000
,  // measure 4
1000
0100
0010
0001
0000
0001
0000
0100
,  // measure 5
0000
0100
0000
0001
0010
0010
0100
0000
,  // measure 6
1000
0010
0100
0001
0000
0001
0000
1000
,  // measure 7
0000
1000
0000
0010
0100
0000
0100
0000
,  // measure 8
0010
1000
0010
0000
0100
0001
0100
0000
,  // measure 9
0001
0000
0010
0100
0000
0100
0010
0000
,  // measure 10
0010
0001
0010
0000
0100
1000
0100
0000
,  // measure 11
1000
0000
0010
0100
0000
0100
0010
0000
,  // measure 12
1000
0000
0010
0000
0100
0001
0010
0000
,  // measure 13
0100
0000
1000
0010
0000
0010
0100
0000
,  // measure 14
0001
0010
0100
0000
0100
0010
0001
0000
,  // measure 15
1000
0000
0010
0100
0000
0100
0001
0000
,  // measure 16
0010
0001
0010
0000
0100
1000
0100
0000
,  // measure 17
1000
0000
0010
0100
0000
0100
0010
0000
,  // measure 18
0010
1000
0010
0000
0100
0001
0100
0000
,  // measure 19
0001
0000
0010
0100
0000
0100
0010
0000
,  // measure 20
0001
0000
0010
0000
0100
1000
0010
0000
,  // measure 21
0100
0000
0001
0010
0000
0010
0100
0000
,  // measure 22
1000
0010
0100
0000
0100
0010
1000
0000
,  // measure 23
0001
0000
0001
0010
0000
0010
0100
0000
,  // measure 24
1000
0100
0010
0100
1000
0100
0010
0100
,  // measure 25
1000
0000
1000
0010
0000
0010
0100
0000
,  // measure 26
0001
0100
0010
0100
0001
0100
0010
0100
,  // measure 27
0001
0000
0001
0010
0000
0010
0100
0000
,  // measure 28
1000
0010
0100
0000
0100
0010
1000
0000
,  // measure 29
1000
0010
0100
0000
0100
0010
1000
0000
,  // measure 30
1010
1010
0110
0101
,  // measure 31
0011
0000
0000
1100
0000
0000
0101
0000
,  // measure 32
0001
0010
0100
0010
0001
0010
0100
0010
,  // measure 33
0001
0000
0001
0100
0000
0100
0010
0000
,  // measure 34
1000
0010
0100
0010
1000
0010
0100
0010
,  // measure 35
1000
0000
1000
0100
0000
0100
0010
0000
,  // measure 36
0001
0010
0100
0000
0100
0010
0001
0000
,  // measure 37
0001
0010
0100
0000
0100
0010
0001
0000
,  // measure 38
0011
0011
0110
1100
,  // measure 39
1010
0000
0000
0101
0000
0000
1100
0000
,  // measure 40
1000
0010
0100
0001
0000
0001
0000
0100
,  // measure 41
0000
0100
0000
0001
0010
0010
0100
0000
,  // measure 42
1000
0010
0100
0001
0000
0001
0000
1000
,  // measure 43
0000
1000
0000
0010
0100
0000
0100
0000
,  // measure 44
0001
0010
0100
1000
0000
1000
0000
0100
,  // measure 45
0000
0100
0000
1000
0010
0010
0100
0000
,  // measure 46
0011
1010
1100
0101
,  // measure 47
2001
0000
0000
0010
0000
0000
3001
0000
,  // measure 48
0001
0100
0001
0100
0001
1000
0001
1000
,  // measure 49
0100
1000
0100
1000
0001
1000
0001
1000
,  // measure 50
0001
0100
0001
0100
0001
1000
0001
1000
,  // measure 51
0100
1000
0100
1000
0000
1000
0001
0000
,  // measure 52
1000
0100
1000
0100
1000
0001
1000
0001
,  // measure 53
0100
0001
0100
0001
1000
0001
1000
0001
,  // measure 54
1000
0100
1000
0100
1000
0001
1000
0001
,  // measure 55
0100
0001
0100
0001
0000
0001
1000
0000
,  // measure 56
1000
0010
0100
0001
0000
0001
0000
1000
,  // measure 57
0000
1000
0000
0100
0010
0010
0001
0000
,  // measure 58
0012
1003
2010
3001
,  // measure 59
0102
1003
2100
3001
,  // measure 60
0021
0130
2100
3010
,  // measure 61
1020
0130
0102
1003
,  // measure 62
2100
3001
0102
1003
,  // measure 63
2100
3001
0102
1003
,  // measure 64
0001
0010
0001
0000
1000
0100
1000
0000
,  // measure 65
0001
0010
0100
1000
0010
0100
0001
0000
,  // measure 66
1000
0100
0010
0001
1000
0010
0100
0001
,  // measure 67
0010
0100
1000
0001
0100
0010
1000
0000
,  // measure 68
0001
0100
0010
1000
0001
0010
0100
1000
,  // measure 69
0010
0100
0001
1000
0100
0010
0001
0000
,  // measure 70
1000
1010
0001
0011
,  // measure 71
1000
0110
0110
1001
,  // measure 72
0001
0010
0100
1000
0000
1000
0000
0100
,  // measure 73
0000
0100
0000
1000
0010
0010
0100
0000
;

//---------------dance-single - ----------------
#NOTES:
     dance-single:
     :
     Easy:
     4:
     0.263011,0.316584,0.038157,0.104932,0.000000,193.000000,189.000000,4.000000,11.000000,0.000000,0.000000,0.263011,0.316584,0.038157,0.104932,0.000000,193.000000,189.000000,4.000000,11.000000,0.000000,0.000000:
0000
0000
0000
0000
,
0000
0000
0000
0000
,
0000
0000
0000
0000
,
0000
0000
0000
0000
,
1000
0000
0010
0000
,
0100
0100
0001
0000
,
0001
0000
0010
0000
,
0100
0100
1000
0000
,
0010
0000
1000
0000
,
0100
0000
0010
0000
,
0100
0000
1000
0000
,
0010
0000
0100
0000
,
0001
0010
0100
1000
,
0001
0000
0010
0000
,
0001
0000
0100
0000
,
1001
0000
0110
0000
,
0100
0001
1000
0000
,
0100
0000
0010
0000
,
0100
1000
0001
0000
,
0100
0000
0010
0000
,
0100
0001
0010
0000
,
0100
0000
0010
0000
,
0100
1000
0010
0000
,
0200
0000
0010
0310
,
0001
0001
0010
0010
,
0002
0000
0003
0001
,
1000
1000
0010
0010
,
2000
0000
3000
1000
,
0010
0000
1000
0000
,
0100
0000
0001
0000
,
0010
1000
0100
1000
,
0002
0000
0100
0103
,
1000
1000
0010
0010
,
2000
0000
3000
1000
,
0001
0001
0010
0010
,
0002
0000
0003
0001
,
0010
0000
0001
0000
,
0100
0000
1000
0000
,
0010
0001
0100
0001
,
2000
0000
0100
3100
,
0001
0000
0100
0000
,
0010
0010
1000
0001
,
1000
0000
0100
0000
,
0010
0010
0001
1000
,
0001
0000
0010
0000
,
0100
0100
1000
0001
,
1000
0100
0010
0001
,
2000
0000
0000
3000
,
0001
0001
1000
1000
,
0010
0010
1000
1000
,
0001
0010
0001
1000
,
0001
0100
0001
0000
,
1000
1000
0001
0001
,
0010
0010
0001
0001
,
1000
0010
1000
0001
,
1000
0100
1000
0000
,
0001
0000
1000
0000
,
0010
0010
0010
1001
,
0001
0000
0010
0000
,
0100
0000
1000
0000
,
0001
0000
0010
0000
,
0100
0000
1000
0000
,
0001
0000
0010
0000
,
0100
0000
1000
0000
,
0010
1000
0100
1000
,
0002
0000
0000
0003
,
1000
0000
0010
0000
,
0100
0000
0001
0000
,
1000
0000
0010
0000
,
0100
0000
0001
0000
,
2002
0000
0000
0000
,
3003
0010
0010
0010
,
1000
0000
0010
0000
,
0100
0100
0001
0001
;

//---------------dance-single - ----------------
#NOTES:
     dance-single:
     :
     Medium:
     6:
     0.431992,0.492464,0.257560,0.248021,0.000000,317.000000,290.000000,27.000000,26.000000,0.000000,0.000000,0.431992,0.492464,0.257560,0.248021,0.000000,317.000000,290.000000,27.000000,26.000000,0.000000,0.000000:
0000
0000
0000
0000
,
0000
0000
0000
0000
,
0000
0000
0000
0000
,
0000
0000
0000
0000
,
0001
0010
0001
1000
0000
1000
0000
0010
,
0000
0010
0000
1000
0001
0000
0001
0000
,
1000
0010
1000
0001
0000
0001
0000
0010
,
0000
0010
0000
0001
0100
0000
0100
0000
,
0010
1000
0001
0100
,
0001
0000
1000
0100
0000
0100
1000
0000
,
0010
0001
1000
0100
,
1000
0000
0001
0100
0000
0100
0001
0000
,
1000
0000
0100
0000
0010
0001
0010
0000
,
0001
0000
1000
0010
0000
0010
1000
0000
,
0001
0000
0100
0000
0010
1000
0010
0000
,
1000
0000
0001
0010
0000
0010
0001
0000
,
0100
0001
1000
0010
,
1000
0000
0001
0010
0000
0010
0001
0000
,
0100
1000
0001
0010
,
0001
0000
1000
0010
0000
0010
1000
0000
,
0001
0000
0010
0000
0100
1000
0100
0000
,
1000
0000
0001
0100
0000
0100
0001
0000
,
1000
0000
0010
0000
0100
0001
0100
0000
,
0001
0000
0000
0010
0000
0000
0100
0000
,
1000
0010
1000
0000
1000
0100
1000
0000
,
0010
0000
0000
0100
0000
0000
0001
0000
,
0001
0010
0001
0000
0001
0100
0001
0000
,
0010
0000
0000
0100
0000
0000
1000
0000
,
1000
0010
1000
0000
1000
0001
1000
0000
,
1000
0100
0010
0001
,
0100
0100
0010
0010
,
1001
0000
0000
0110
0000
0000
1001
0000
,
0001
0100
0001
0000
0001
0010
0001
0000
,
1001
0000
0000
0110
0000
0000
1001
0000
,
1000
0100
1000
0000
1000
0010
1000
0000
,
0100
0000
0000
0010
0000
0000
0001
0000
,
0001
0100
0001
0000
0001
1000
0001
0000
,
0001
0010
0100
1000
,
0010
0010
0100
0100
,
1001
0000
0000
0110
0000
0000
1001
0000
,
1000
0100
1000
0001
0000
0001
0000
0100
,
0000
0100
0000
0002
0000
0000
2003
0000
,
3001
0010
0001
1000
0000
1000
0000
0010
,
0000
0010
0000
2000
0000
0000
3002
0000
,
1003
0010
1000
0001
0000
0001
0000
0010
,
0000
0010
0000
0001
1000
0000
1000
0000
,
0001
0001
1000
1000
,
0110
0000
0000
0001
0000
0000
0100
0000
,
0010
0010
0100
0100
,
0001
0000
0001
0000
1000
0100
1000
0000
,
0001
0100
0001
0000
1000
0100
1000
0000
,
0001
0000
0001
0010
0000
0010
0001
0000
,
0010
0010
0100
0100
,
1000
0000
1000
0000
0001
0100
0001
0000
,
1000
0100
1000
0000
0001
0100
0001
0000
,
1000
0000
1000
0010
0000
0010
1000
0000
,
0001
0010
0001
1000
0000
1000
0000
0010
,
0000
0010
0000
1000
0100
0000
0100
0000
,
2010
0000
0200
3300
,
1002
0000
0200
0303
,
0012
0000
0200
0303
,
2001
0000
0200
3300
,
0021
0000
0200
0330
,
2100
0000
0002
3003
,
1000
1000
0010
0010
,
1001
0000
0000
0110
0000
0000
1001
0000
,
0012
0000
0200
0303
,
2001
0000
0200
3300
,
2010
0000
0200
3300
,
1002
0000
0200
0303
,
2002
0000
0000
3003
,
0000
0110
0110
0110
,
1000
0010
1000
0001
0000
0001
0000
0010
,
0000
0010
0000
0001
0100
0000
0100
0000
;
