#TITLE:AMPLIFIER;
#SUBTITLE:;
#ARTIST:VENUS;
#TITLETRANSLIT:;
#SUBTITLETRANSLIT:;
#ARTISTTRANSLIT:;
#GENRE:;
#CREDIT:;
#BANNER:AMPLIFIER.png;
#BACKGROUND:AMPLIFIER-bg.png;
#LYRICSPATH:;
#CDTITLE:;
#MUSIC:AMPLIFIER.ogg;
#OFFSET:-2.104000;
#SAMPLESTART:38.117603;
#SAMPLELENGTH:12.000000;
#SELECTABLE:YES;
#BPMS:0.000000=113.987999
;
#STOPS:147.750000=1.053000
;
#BGCHANGES:-4.232=AMPLIFIER.avi=1.000=0=0=0=StretchNoLoop==CrossFade_Fastest==,
213.750=AMPLIFIER-bg.png=1.000=0=0=1===CrossFade_Faster==,
99999=-nosongbg-=1.000=0=0=0 // don't automatically add -songbackground-
;
#KEYSOUNDS:;
#ATTACKS:;

//---------------dance-single - ----------------
#NOTES:
     dance-single:
     :
     Hard:
     8:
     0.439881,0.511497,0.188353,0.139218,0.528208,376.000000,353.000000,23.000000,17.000000,0.000000,0.000000,0.439881,0.511497,0.188353,0.139218,0.528208,376.000000,353.000000,23.000000,17.000000,0.000000,0.000000:
// measure 0
0000
0000
0000
0000
,  // measure 1
0000
0000
0000
0000
,  // measure 2
0000
0000
0000
0000
,  // measure 3
0000
0000
0000
0000
,  // measure 4
0010
1000
0001
0000
0011
0000
1100
0000
,  // measure 5
1000
0010
0100
0000
1001
0000
0110
0000
,  // measure 6
0001
0010
0100
0010
0001
1000
0010
1000
,  // measure 7
0001
1100
0011
0110
,  // measure 8
1000
0001
0010
0100
0010
0000
1100
2010
,  // measure 9
0010
3001
0010
0100
0010
0000
0101
0012
,  // measure 10
0010
1003
0010
0100
0010
0000
1010
0012
,  // measure 11
0010
0000
1003
0000
0010
0000
0000
0000
0200
0000
0000
0310
0000
1000
0000
0001
,  // measure 12
0000
0000
0010
0000
0100
0000
0000
0000
1000
0000
0000
0010
0000
0100
0000
0001
,  // measure 13
0000
0000
0010
0000
0010
0000
0000
0000
0001
0000
0000
0100
0000
0010
0000
1000
,  // measure 14
0000
0000
0100
0000
0100
0000
0000
0000
1000
0000
0000
0001
0000
1000
0000
0010
,  // measure 15
0000
1000
0002
0000
0020
0000
0033
0000
,  // measure 16
0011
0101
1100
0101
,  // measure 17
1010
0000
0001
0000
0010
0000
0100
0010
0100
0000
0100
1000
0000
0001
0000
0010
,  // measure 18
0000
0100
1000
0000
1000
0000
0010
0000
0001
0000
0010
1000
0000
1000
0000
0001
,  // measure 19
0000
0010
0100
0010
0100
0000
0010
0000
0001
1000
0000
0001
0000
0100
0000
0010
,  // measure 20
0000
0000
0100
0000
0001
0000
0000
0000
1000
0000
0000
0100
0000
1000
0000
0010
,  // measure 21
0000
0000
1000
0000
0010
0000
0100
0010
0100
0000
0100
0001
0000
1000
0000
0010
,  // measure 22
0000
0100
0001
0000
0001
0000
0010
0000
1000
0000
0010
0001
0000
0001
0000
1000
,  // measure 23
0000
0010
0100
0010
0100
0000
0010
0000
1000
0001
0000
1000
0000
0100
0000
0010
,  // measure 24
0000
0100
2000
0000
0002
0000
0000
3003
,  // measure 25
0010
0000
0001
0000
0010
0000
0001
0000
0010
0000
0001
1000
0000
0010
0000
0100
,  // measure 26
0000
0000
0001
0000
1000
0000
0000
0000
0010
0000
1000
0001
0000
0010
0000
0100
,  // measure 27
0000
0000
1000
0000
0001
0000
0000
0000
1000
0000
0100
0010
0000
0001
0000
0100
,  // measure 28
0000
0010
0100
0000
0002
0000
0000
0003
,  // measure 29
1000
0000
0100
0000
0010
0000
0001
0000
0010
0000
0000
0010
0100
0000
0000
0000
,  // measure 30
1000
0000
0010
0000
0100
0000
0001
0000
0010
0000
0000
0010
0100
0000
0000
0000
,  // measure 31
1000
0000
0001
0000
0100
0000
0010
0000
1000
0000
0000
1000
0100
0000
0000
0000
,  // measure 32
0010
0001
1000
0000
0200
0000
0000
0000
,  // measure 33
0300
1001
0000
1010
,  // measure 34
0000
0101
0000
0011
,  // measure 35
0000
1100
0002
0000
,  // measure 36
0003
0000
0000
0000
0000
0000
0000
0000
2000
0000
0000
0000
0000
3010
0000
0200
,  // measure 37
0001
0000
0001
0000
0002
0000
0000
0000
0303
0000
0010
0000
0001
0000
1000
0001
,  // measure 38
1000
0000
1000
0100
0000
0010
0000
0001
0000
1000
0010
0100
0010
0000
0100
0000
,  // measure 39
0001
0000
1000
0100
0000
0100
0000
0010
0000
0001
0100
0001
0100
0000
0001
0000
,  // measure 40
0010
0100
0000
0010
0000
0001
0000
1000
0000
0000
0001
0000
0010
0000
0000
0000
,  // measure 41
0100
0000
0000
1000
0000
0010
0000
0001
0000
0000
0010
0000
1000
0000
0001
1000
,  // measure 42
0001
0000
0001
0100
0000
0010
0000
1000
0000
0001
0010
0100
0010
0000
0100
0000
,  // measure 43
1000
0000
0001
0100
0000
0100
0000
0010
0000
1000
0100
1000
0100
0000
1000
0000
,  // measure 44
0010
0100
0000
0010
0000
1000
0000
0001
0000
0000
1000
0000
0010
0000
0000
0000
,  // measure 45
0100
0000
0000
0001
0000
0010
0000
1000
0010
0100
1000
0000
0010
1000
0001
0000
,  // measure 46
0010
0000
0001
1000
0000
0100
0000
0001
0100
0010
0001
0000
0100
0001
1000
0000
,  // measure 47
0100
0000
1000
0001
0000
0010
0000
1000
0010
0001
0100
0000
0001
1000
0010
0000
,  // measure 48
0100
0000
0010
1000
0000
0100
0000
1000
0000
0000
0001
0000
1000
0000
0000
0000
,  // measure 49
0200
0000
0000
1300
0000
0010
0000
0001
0010
0100
0001
0000
0010
0001
1000
0000
,  // measure 50
0010
0000
1000
0001
0000
0100
0000
1000
0100
0010
1000
0000
0100
1000
0001
0000
,  // measure 51
0100
0000
0001
1000
0000
0010
0000
0001
0010
1000
0100
0000
1000
0001
0010
0000
,  // measure 52
0100
0000
0010
0001
0000
0100
0000
0001
0000
0000
1000
0000
0001
0000
0000
0000
,  // measure 53
0200
0000
0000
0301
0000
0010
0000
1000
0000
0000
0002
0000
0000
0000
0000
0000
,  // measure 54
0000
0000
0000
0000
0000
0003
0000
0000
0000
0000
0000
0000
0000
0000
0000
0000
;

//---------------dance-single - ----------------
#NOTES:
     dance-single:
     :
     Medium:
     5:
     0.315872,0.328594,0.098271,0.204732,0.000000,270.000000,258.000000,12.000000,25.000000,0.000000,0.000000,0.315872,0.328594,0.098271,0.204732,0.000000,270.000000,258.000000,12.000000,25.000000,0.000000,0.000000:
0000
0000
0000
0000
,
0000
0000
0000
0000
,
0000
0000
0000
0000
,
0000
0000
0000
0000
,
0010
1000
0001
0000
0010
0000
0100
0000
,
0010
0001
1000
0000
0010
0000
0100
0000
,
0001
0100
0001
0100
0010
0100
0010
0100
,
0002
0010
0100
0013
,
1000
0010
1000
0010
2000
0000
3100
0000
,
0001
0010
0001
0010
0002
0000
0103
0000
,
0010
0100
0010
0100
0020
0000
0200
0000
,
0000
0000
0330
0000
0002
0000
1003
0100
,
0020
0002
0033
1000
,
0010
0100
0001
0000
1000
0000
0001
0000
,
0010
0100
1000
0000
0001
0000
1000
0100
,
0010
0001
2000
0000
0002
0000
3003
0000
,
1001
1001
0110
1001
,
0001
0010
0100
0000
0010
0100
1000
0000
,
0010
1000
0010
1000
0001
1000
0001
0000
,
0010
0001
0010
0000
0001
0100
0001
1000
,
0001
1001
0100
1001
,
1000
0010
0100
0000
0010
0100
0001
0000
,
0010
0001
0010
0001
1000
0001
1000
0000
,
0010
1000
0010
0000
1000
0100
1000
0001
,
1000
1001
0100
1001
,
1000
0010
1000
0010
1000
0000
0001
0000
,
0010
0001
0100
0000
0001
0000
1000
0000
,
0010
1000
0100
0000
1000
0000
0001
0000
,
0100
0001
0010
0000
0200
0000
0000
0000
,
1300
0010
1000
0000
0200
0000
0310
0000
,
0001
0100
0001
0000
0020
0000
0130
0000
,
1000
0010
0100
0001
2000
0000
3001
0000
,
0010
0001
0100
0000
0020
0000
0000
0000
,
0030
0001
0000
0100
,
0000
1000
0000
0010
,
0000
1000
0200
0000
,
0300
0000
0020
0000
,
0031
0001
0002
0000
1003
0100
0010
0000
,
0100
0010
0001
0000
0100
0001
0100
0001
,
1000
0001
1000
0000
0100
1000
0100
0000
,
1000
0010
1000
0001
1000
0000
1001
0000
,
0010
0000
1001
0000
0001
0100
0010
0000
,
0100
0010
1000
0000
0100
1000
0100
1000
,
0001
1000
0001
0000
0100
0001
0100
0000
,
0001
0010
0001
1000
0001
0000
1001
0000
,
0010
0000
1001
0000
1000
0001
1000
0010
,
2000
0000
3100
0000
0001
1000
0001
0010
,
0002
0000
0103
0000
1000
0010
1000
0100
,
2000
0000
3001
0000
0010
0001
0100
0000
,
0020
0000
0030
0000
0001
1000
0001
0100
,
0002
0000
0013
0000
1000
0001
1000
0100
,
2000
0000
3010
0000
0001
0010
0001
0100
,
0002
0000
1003
0000
0010
1000
0100
0000
,
0010
0000
0100
1000
0010
0000
0000
0000
;

//---------------dance-single - ----------------
#NOTES:
     dance-single:
     :
     Easy:
     3:
     0.203562,0.262876,0.163785,0.180164,0.000000,174.000000,154.000000,20.000000,22.000000,0.000000,0.000000,0.203562,0.262876,0.163785,0.180164,0.000000,174.000000,154.000000,20.000000,22.000000,0.000000,0.000000:
0000
0000
0000
0000
,
0000
0000
0000
0000
,
0000
0000
0000
0000
,
0000
0000
0000
0000
,
0010
1000
0001
0000
,
0010
0001
1000
0000
,
0001
0100
1000
0010
,
0001
1000
0001
1000
,
0100
1000
0010
1001
,
0100
0001
0010
1001
,
0100
1000
0010
2002
,
0000
3003
0000
0000
,
2000
0000
3000
0010
,
1000
0100
0100
0010
,
0001
0100
0100
0010
,
1000
0001
0020
0030
,
0110
0110
0110
0110
,
1000
0001
0100
0000
,
0100
0001
0010
0000
,
0001
1000
0200
0000
,
0300
0110
0000
1001
,
0001
1000
0100
0000
,
0100
1000
0010
0000
,
1000
0001
0200
0000
,
0000
0020
0000
0330
,
1000
0010
1000
0010
,
0100
0001
0010
0100
,
1000
0010
0100
0010
,
1000
0100
0020
0000
,
0130
1000
0100
0100
,
0010
0001
0010
0010
,
0001
1000
0001
0001
,
1001
0000
0220
0000
,
0330
0001
0000
0100
,
0000
1000
0000
0010
,
0000
0001
0000
0100
,
0000
1000
0000
0010
,
0001
0001
0001
1000
,
0010
0000
0010
1000
,
0100
0000
1000
0001
,
0020
0000
0030
0110
,
0000
1001
1000
0001
,
0010
0000
0010
0001
,
0100
0000
0001
1000
,
0020
0000
0030
1001
,
0110
1001
0001
0010
,
0002
1003
0010
1000
,
0020
0130
0001
0100
,
0002
1003
1001
0000
,
0220
0330
1000
0010
,
2000
3001
0010
0001
,
0020
0130
1000
0100
,
2000
3001
1001
0000
,
0220
0000
0330
0000
;
