#VERSION:0.83;
#TITLE:24 HOURS;
#SUBTITLE:;
#ARTIST:AGNES;
#TITLETRANSLIT:;
#SUBTITLETRANSLIT:;
#ARTISTTRANSLIT:;
#GENRE:;
#ORIGIN:;
#CREDIT:;
#BANNER:24 HOURS.png;
#BACKGROUND:24 HOURS - bg.png;
#PREVIEWVID:;
#JACKET:24 HOURS - jacket.png;
#CDIMAGE:;
#DISCIMAGE:;
#LYRICSPATH:;
#CDTITLE:;
#MUSIC:24 HOURS.ogg;
#OFFSET:0.005000;
#SAMPLESTART:65.906837;
#SAMPLELENGTH:12.000000;
#SELECTABLE:YES;
#BPMS:0.000=120.011;
#STOPS:;
#DELAYS:;
#WARPS:;
#TIMESIGNATURES:0.000=4=4;
#TICKCOUNTS:0.000=4;
#COMBOS:0.000=1;
#SPEEDS:0.000=1.000=0.000=0;
#SCROLLS:0.000=1.000;
#FAKES:;
#LABELS:0.000=Song Start;
#BGCHANGES:0.000=24 HOURS.avi=1.000=1=0=1===CrossFade==,
197.000=24 HOURS - bg.png=1.000=1=0=1===CrossFade==,
99999=-nosongbg-=1.000=0=0=0 // don't automatically add -songbackground-
;
#KEYSOUNDS:;
#ATTACKS:
;

//---------------dance-single - ----------------
#NOTEDATA:;
#CHARTNAME:;
#STEPSTYPE:dance-single;
#DESCRIPTION:;
#CHARTSTYLE:;
#DIFFICULTY:Hard;
#METER:7;
#RADARVALUES:0.451960,0.458274,0.264460,0.137127,0.093051,323.000000,296.000000,27.000000,14.000000,0.000000,0.000000,0.000000,0.000000,0.000000,0.451960,0.458274,0.264460,0.137127,0.093051,323.000000,296.000000,27.000000,14.000000,0.000000,0.000000,0.000000,0.000000,0.000000;
#CREDIT:Alchemy Jones;
#NOTES:
// measure 0
0000
0000
0000
0000
,  // measure 1
0000
0000
0000
0000
,  // measure 2
0000
0000
0000
0000
,  // measure 3
0001
1000
0001
0100
0000
0100
0010
1000
,  // measure 4
0000
1000
0001
0010
0001
0100
0010
0100
,  // measure 5
0000
0001
1000
0100
0000
0100
0010
0001
,  // measure 6
0000
0001
1000
0010
1000
0100
0010
0100
,  // measure 7
0000
1000
0010
0100
0000
0001
0010
0100
,  // measure 8
2000
0000
0000
0000
0000
3000
1000
1000
,  // measure 9
0001
0001
0010
0100
0100
1000
0010
0100
,  // measure 10
0001
0100
0010
0000
0000
2002
0000
3003
,  // measure 11
1000
1000
0010
0100
0100
0001
0010
0100
,  // measure 12
1000
0010
1000
0000
0001
0000
0000
0000
0000
0000
2002
0000
0000
0000
3003
0000
,  // measure 13
0010
0010
0001
0100
0100
0001
1000
0010
,  // measure 14
1000
0100
0010
0000
0000
1002
0000
0013
,  // measure 15
0000
0000
0100
0000
1000
0000
0001
0000
0100
0000
0000
0010
0000
0000
0100
0000
,  // measure 16
0000
1010
0000
0101
0000
1001
0000
0000
,  // measure 17
1000
1000
0100
0010
0010
0001
0100
0010
,  // measure 18
1000
0010
0100
0000
0000
2002
0000
3003
,  // measure 19
1010
0000
0101
0000
0010
1000
0100
0010
,  // measure 20
0001
0100
0001
0000
1000
0000
0000
0000
0000
0000
2002
0000
0000
0000
3003
0000
,  // measure 21
0010
0010
1000
0100
0100
1000
0001
0010
,  // measure 22
0001
0000
0000
0100
0000
0000
0010
0000
0000
0000
2001
0000
0000
0000
3010
0000
,  // measure 23
0000
0000
0100
0000
0001
0000
1000
0000
0100
0000
0000
0010
0000
0000
0100
0000
,  // measure 24
0000
0011
0000
1100
0000
1001
0000
0110
,  // measure 25
0000
0001
0001
0101
0000
1000
1000
1100
,  // measure 26
0000
0010
0100
0001
0010
0100
1000
0010
,  // measure 27
0100
0010
0100
0000
0002
0000
0000
0000
0003
0000
1000
0000
0010
0000
0100
0000
,  // measure 28
0001
1000
0001
0000
0010
0000
0100
0000
1000
0010
0000
0000
0100
0000
0110
0000
,  // measure 29
0000
1000
1000
1100
0000
0001
0001
0101
,  // measure 30
0000
0010
0100
1000
0010
0100
0001
0010
,  // measure 31
0100
0010
0100
0000
2000
0000
0000
0000
3000
0000
0001
0000
0010
0000
0100
0000
,  // measure 32
1000
0001
1000
0000
0010
0000
0100
0000
0001
0010
0000
0000
0110
0000
0000
0000
,  // measure 33
0100
1000
0100
1000
0100
0010
0100
0010
,  // measure 34
0011
0000
0101
0000
1001
0001
0100
0000
,  // measure 35
0010
1000
0100
1000
0000
0010
0100
0010
,  // measure 36
0000
0000
1000
0001
0000
0000
0010
0000
0000
0000
0001
1000
0000
0000
0010
0000
,  // measure 37
0100
0001
0100
0001
0100
0010
0100
0010
,  // measure 38
1010
0000
1100
0000
1001
1000
0100
0000
,  // measure 39
0010
0001
0100
0001
0000
0010
0100
0010
,  // measure 40
0000
0000
0001
1000
0000
0000
0010
0000
0000
0000
1000
0001
0000
0000
0010
0000
,  // measure 41
0100
1000
0100
1000
0010
1000
0010
0100
,  // measure 42
0001
0100
0001
0010
0001
0010
0100
0010
,  // measure 43
0000
0000
0001
1000
0000
0000
0100
0000
0000
0000
1000
0001
0000
0000
0100
0000
,  // measure 44
0001
0010
0001
1000
0000
0010
1000
0010
,  // measure 45
0100
0001
0100
0001
0010
0001
0010
0100
,  // measure 46
1000
0100
1000
0010
1000
0010
0100
0010
,  // measure 47
0000
0000
1000
0001
0000
0000
0100
0000
0000
0000
0001
1000
0000
0000
0100
0000
,  // measure 48
1000
0010
1000
0001
0000
0001
1000
0200
,  // measure 49
0000
0300
0000
0000
;

//---------------dance-single - ----------------
#NOTEDATA:;
#CHARTNAME:;
#STEPSTYPE:dance-single;
#DESCRIPTION:;
#CHARTSTYLE:;
#DIFFICULTY:Medium;
#METER:5;
#RADARVALUES:0.331624,0.361795,0.225280,0.127332,0.000000,237.000000,214.000000,23.000000,13.000000,0.000000,0.000000,0.000000,0.000000,0.000000,0.331624,0.361795,0.225280,0.127332,0.000000,237.000000,214.000000,23.000000,13.000000,0.000000,0.000000,0.000000,0.000000,0.000000;
#CREDIT:Alchemy Jones;
#NOTES:
0000
0000
0000
0000
,
0000
0000
0000
0000
,
0000
0000
0000
0000
,
0010
1000
0001
0100
,
0010
0000
1000
0010
1000
0010
0100
0001
,
0000
0010
0001
1000
,
0100
0000
0010
0001
0010
0001
1000
0100
,
0000
1000
0001
0010
,
0200
0000
0000
0300
,
0010
0001
1000
0000
0001
0000
0100
0000
,
0010
1000
0001
0000
0000
1001
0000
0000
,
0100
0001
1000
0000
0001
0000
0010
0000
,
0100
1000
0001
0000
0000
1001
0000
0000
,
0001
0010
0001
0000
1000
0100
1000
0000
,
0010
1000
0001
0000
0000
1001
0000
0000
,
0010
1000
0100
0000
0010
0000
0001
0100
,
0000
0100
0000
0110
0000
0110
0000
0000
,
0100
1000
0001
0000
1000
0000
0010
0000
,
0100
0001
1000
0000
0000
1001
0000
0000
,
0110
0000
1001
0000
1000
0100
1000
0100
,
0010
0001
0010
0000
0000
1001
0000
0000
,
1000
0100
1000
0000
0001
0010
0001
0000
,
0200
0000
0000
0301
0000
1001
0000
0000
,
0100
0001
0010
0000
0100
0000
1000
0010
,
0000
0010
0000
0110
0000
0110
0000
1001
,
0000
0000
0000
1100
0000
0000
0000
0101
,
0000
0000
0001
1000
0000
0001
0100
0001
,
0100
0002
0000
0003
0000
0010
0100
0010
,
0100
1000
0001
1000
0002
0000
0003
2100
,
0000
3100
0000
0102
0000
0103
0000
2002
,
0000
0000
3003
0000
0010
1000
0010
0000
,
0100
0001
0100
0000
0000
0010
0100
0010
,
0100
0001
1000
0001
1000
0000
1001
0000
,
1000
0001
0010
0000
0001
1000
0010
0000
,
1001
0000
1001
0000
0010
0001
0100
0000
,
0010
1000
0100
1000
0000
0010
1000
0200
,
0000
0000
0300
0000
,
0001
1000
0010
0000
1000
0001
0010
0000
,
1001
0000
1001
0000
0010
1000
0100
0000
,
0010
0001
0100
0001
0000
0010
0001
0200
,
0000
0000
0000
0000
0000
0300
0000
0000
,
0001
1000
0001
0010
0000
0010
0001
1000
,
0000
1000
0010
0100
0000
0100
0001
2000
,
0000
0000
3000
0100
,
0010
0001
0100
0000
0010
1000
0100
0000
,
1000
0001
1000
0010
0000
0010
1000
0001
,
0000
0001
0010
0100
0000
0100
1000
0002
,
0000
0000
0003
0100
,
0100
0010
1000
0100
0000
0010
0001
0200
,
0000
0300
0000
0000
;

//---------------dance-single - ----------------
#NOTEDATA:;
#CHARTNAME:;
#STEPSTYPE:dance-single;
#DESCRIPTION:;
#CHARTSTYLE:;
#DIFFICULTY:Easy;
#METER:3;
#RADARVALUES:0.226680,0.289436,0.166512,0.097948,0.000000,162.000000,145.000000,17.000000,10.000000,0.000000,0.000000,0.000000,0.000000,0.000000,0.226680,0.289436,0.166512,0.097948,0.000000,162.000000,145.000000,17.000000,10.000000,0.000000,0.000000,0.000000,0.000000,0.000000;
#CREDIT:Alchemy Jones;
#NOTES:
0000
0000
0000
0000
,
0000
0000
0000
0000
,
0000
0000
0000
0000
,
0010
0010
0000
0001
,
0000
0100
0100
1000
,
0010
0010
0000
1000
,
0000
0100
0100
0001
,
0010
0010
0000
0100
,
0200
0000
0000
0300
,
0001
0001
0100
0100
,
0020
0030
0000
1001
,
0001
0001
0100
0100
,
0010
0010
0000
1001
,
1000
1000
0100
0100
,
0020
0030
0000
1001
,
1000
1000
0100
0100
,
0010
0010
0010
0010
,
1001
0001
0001
0010
,
0010
0200
0300
1001
,
1000
1000
0010
0010
,
0200
0300
0000
1001
,
1000
1000
0010
0010
,
0200
0300
0000
1001
,
0001
0010
0100
0001
,
0010
0010
0010
0010
,
1001
0000
0110
0000
,
1001
0000
0110
0000
,
1000
0100
0001
0010
,
1000
0100
1001
1001
,
1001
0000
0110
0000
,
1001
0000
0110
0000
,
0001
0100
1000
0010
,
0001
0200
0010
0310
,
1000
1000
0010
0010
,
0100
0001
1000
0001
,
0010
0000
1000
0000
,
0001
0000
0100
0000
,
0001
0001
0010
0010
,
0100
1000
0001
1000
,
0010
0000
0001
0000
,
1000
0000
0100
0000
,
1000
0100
1000
0100
,
0010
0001
0010
0001
,
2000
0000
3000
0000
,
0001
0100
1000
0010
,
0001
0100
0001
0100
,
0010
1000
0010
1000
,
0002
0000
0003
0000
,
1000
0100
0001
0010
,
2000
3000
0000
0000
;
