#TITLE:Tribal Revival;
#ARTIST:Prophecy;
#BANNER:Tribal Revival.png;
#BACKGROUND:Tribal Revival-bg.png;
#MUSIC:Tribal Revival.mp3;
#OFFSET:-0.038;
#SELECTABLE:YES;
#CREDIT:converted by Vyhd;
#BPMS:0.000=140.00;
#STOPS:;
#BGCHANGES:;

//----------------dance-single - Basic----------------
#NOTES:
     dance-single:
     FFR R2:
     Basic:
     1:
     -1.000,-1.000,-1.000,-1.000,-1.000:
1000
0000
1000
0000
,
0001
0000
0001
0000
,
0100
0000
0100
0000
,
0010
0000
0010
0000
,
1000
0000
0001
0000
,
1000
0000
0001
0000
,
0100
0000
0010
0000
,
0100
0010
1000
0001
,
1001
1010
0101
1001
,
0011
1100
0110
1001
,
1010
0110
0011
1001
,
0011
0110
1100
1001
,
1000
1001
0001
0101
,
0100
0110
0010
1010
,
1000
1100
0100
0110
,
0010
0001
0000
0001
,
1001
1000
0100
0010
,
1001
0100
0010
1000
,
1001
0001
0010
0100
,
0110
1000
0010
0100
,
0101
0001
1000
0100
,
1100
1000
0100
0010
,
0011
1000
0001
0100
,
0010
1000
0001
0100
,
1001
0000
0000
1100
0000
0011
0000
0000
,
1001
0000
0000
0011
0000
1100
0000
0000
,
0110
0000
0000
1010
0000
0101
0000
0000
,
0110
0000
0000
0101
0000
1010
0000
0000
,
1001
0101
1001
1010
,
1001
0011
1001
1100
,
1000
0100
0010
0001
,
1000
0010
0100
0001
,
1001
1000
0001
0001
,
0100
0100
0010
0010
,
1000
1000
0100
0100
,
0010
0010
0001
0001
,
1000
1000
0001
0001
,
0100
0100
0010
0010
,
1000
1000
0001
0001
,
0010
0010
0100
0100
,
1001
0000
0000
1000
0000
0000
0001
0000
,
1001
0000
0000
0001
0000
0000
0100
0000
,
0110
0000
0000
0010
0000
0000
1000
0000
,
1001
0011
1100
1001
,
1000
0010
0100
0001
,
1000
0100
0010
0001
,
1000
1000
0100
0100
,
0010
0010
0001
0001
,
1001
1100
1000
0100
,
0011
1001
0001
0100
,
0110
1001
1000
0001
,
0101
0011
1000
0100
,
0110
1001
1000
0010
,
0110
1001
1000
0001
,
0101
0011
1000
0100
,
0010
0001
1000
0010
,
1001
1100
0000
1000
,
0011
1001
0000
0001
,
1001
1100
0000
0010
,
0110
0110
1001
1001
,
1010
0110
0000
0001
,
1001
0110
0000
1000
,
1010
1001
0000
0010
,
0110
1001
0000
0001
,
1000
1000
0100
0001
,
0100
0100
1000
0010
,
0100
0100
0001
0010
,
0100
0100
1000
0010
,
0001
0001
1000
1000
,
0010
0010
0100
0001
,
1000
0001
1000
0010
,
1000
0100
0010
0001
,
1001
0000
0000
1000
,
1010
0000
0000
0010
,
0110
0000
0000
0100
,
0101
0000
0000
0001
,
1001
0000
0110
0000
,
1010
0000
0110
0000
,
0101
0000
0011
0000
,
1100
0000
1001
1001
,
0110
1000
0100
0010
,
1000
0100
0010
1000
,
0100
0010
1000
0100
,
0010
1000
0100
0010
,
1001
0000
0000
0011
0000
0000
1100
0000
,
1001
0000
0000
1100
0000
0000
0011
0000
,
1001
0000
0000
1001
0000
0000
1001
0000
,
1000
0000
0000
0001
0000
0000
0100
0000
,
0220
0000
0000
0000
,
0330
0000
0000
0000
,
;

//----------------dance-single - Another----------------
#NOTES:
     dance-single:
     FFR R2:
     Another:
     5:
     -1.000,-1.000,-1.000,-1.000,-1.000:
1001
0000
1000
0000
0001
1000
0000
1000
,
0010
0100
0000
0100
0000
0001
1000
0000
,
1001
0000
0001
0000
1000
0001
0000
0001
,
0100
0010
0000
0010
0000
1000
0001
0000
,
1010
0000
1000
0000
0100
0010
0000
0010
,
0001
0010
0000
0010
0000
0100
1000
0000
,
0202
0000
0000
0000
,
0000
0000
0000
0000
0000
0303
0000
0000
,
1000
1000
0100
0100
,
0010
0000
0010
0000
0001
1000
0001
1000
,
0010
0010
0100
0100
,
0001
0000
0001
0000
1000
0100
1000
0010
,
1000
1001
0001
0101
,
0100
0110
0010
1010
,
1000
1100
0100
0110
,
0020
0000
0000
0000
0000
0030
0000
0000
,
1001
0000
1000
0001
1000
0000
0001
1000
,
0001
1001
1000
1100
,
1001
0000
0001
1000
0001
0000
1000
0001
,
1000
1001
0001
0011
,
0110
0000
1000
0100
1000
0000
0001
0010
,
0001
0011
0010
1100
,
1010
0000
0100
0001
0100
0001
0100
0000
,
0100
0001
0100
0010
0100
0000
0110
0000
,
1001
0000
0000
0100
0000
0010
0000
0100
,
1000
0000
0000
0100
0000
0010
0000
0100
,
1000
0000
0000
0001
0000
0010
0000
0001
,
1000
0000
0000
0010
0000
0100
0000
0001
,
1000
0000
1000
0100
0010
0000
0110
0000
,
0100
0000
0100
0010
0001
0000
0011
0000
,
0001
0010
0001
0100
0001
0100
0001
0010
,
0100
1000
0100
1000
0001
0010
0001
0010
,
0100
0100
1000
1000
,
0001
0000
0001
0000
0010
0000
0010
0100
,
1000
1000
0010
0010
,
0100
0000
0100
0000
0001
0000
0001
0100
,
0010
0010
1000
1000
,
0100
0000
0100
0000
1000
0000
1000
0001
,
0010
0010
0010
0010
,
0100
0100
0100
0100
,
1002
0000
0000
0000
0000
0000
0000
1003
0000
0000
0000
0000
0100
0000
0000
0000
,
0012
0000
0000
0010
0000
0000
0103
0000
0000
0000
0000
0000
1000
0000
0000
0000
,
2010
0000
0000
0000
0000
0000
0000
3001
0000
0000
0000
0000
0100
0000
0000
0000
,
1020
0000
0000
1000
0000
0000
0130
0000
0000
0000
0000
0000
1000
0000
0000
0000
,
1000
0010
0100
0001
,
1000
0100
0010
0001
,
1000
0100
0010
0001
1000
0100
0010
0001
,
1000
0010
0100
0001
0010
0100
0010
0001
,
2000
0100
3100
0010
,
0002
0010
0013
0100
,
2000
0001
3001
0100
,
0020
0000
1000
0000
1030
0000
0001
0100
,
0020
1000
1030
0100
,
2000
0001
3001
0010
,
0002
0100
0103
0010
,
0200
0301
0002
1003
,
2001
0000
3100
0000
1000
0100
1000
0000
,
1020
0000
0130
0000
0010
0100
0010
0000
,
0201
0000
0310
0000
0100
0010
0100
0000
,
2001
3100
1002
0013
,
1000
1000
1000
0000
0100
0100
0100
0000
,
0010
0010
0010
0000
0001
0001
0001
0000
,
1000
0100
1000
0000
0100
0010
0100
0000
,
0010
0001
0010
0000
0001
0100
0001
0000
,
1000
0001
1000
0100
0010
0001
0010
0000
,
0001
0010
0001
0100
0010
1000
0010
0000
,
1000
0100
1000
0001
0100
0010
0100
0000
,
0010
1000
0010
0100
0001
0010
0001
0000
,
1000
0010
0100
0001
0010
0100
1000
0000
,
0010
0001
0100
0010
1000
0100
0010
0000
,
1000
0001
0100
0010
1000
0100
0010
0000
,
1000
0100
0010
0001
0100
0010
1000
0000
,
1000
0100
1000
0000
0010
0100
0010
0000
,
1000
0100
1000
0000
0001
0010
0001
0000
,
1000
0010
0100
0000
0001
0100
0010
0000
,
1000
0010
0100
0000
0001
0100
0010
0000
,
2000
0000
0000
0100
0000
0000
0000
0000
3100
0000
0000
0000
0000
0000
0000
0000
,
0020
0000
0000
0001
0000
0000
0000
0000
0031
0000
0000
0000
0000
0000
0000
0000
,
2000
0000
0000
0001
0000
0000
0000
0000
3001
0000
0000
0000
0000
0000
0000
0000
,
0002
0000
0000
1000
0000
0000
0000
0000
1003
0000
0000
0000
1001
0000
0000
0000
,
1000
1000
0010
0010
,
1000
1000
0100
0100
,
1000
1000
0001
0001
,
0100
0100
0010
0010
,
1001
0000
0000
0100
0000
0000
0001
0000
,
1000
0000
0000
0100
0000
0000
0001
0000
,
1001
0000
0000
1001
0000
0000
1001
0000
,
1000
0001
0000
0001
1000
0000
0110
0000
,
2002
0000
0000
0000
,
3003
0000
0000
0000
,
;

//----------------dance-single - Maniac----------------
#NOTES:
     dance-single:
     FFR R2:
     Maniac:
     8:
     -1.000,-1.000,-1.000,-1.000,-1.000:
1001
0000
0100
0010
0100
0001
0000
1000
,
0100
0010
0000
0001
0100
0010
0000
1000
,
1001
0000
0010
0100
0010
1000
0000
0001
,
0010
0100
0000
1000
0010
0100
0000
0001
,
1010
0000
1000
0010
0100
0001
0000
0100
,
0010
1000
0000
0100
0010
0001
0000
0100
,
0101
0000
0001
0100
0010
1000
0000
0010
,
0100
0001
0000
0010
0100
1000
0000
0010
,
1000
0100
0000
0010
0001
0010
0000
0100
,
1000
0100
0000
0010
0001
0010
0001
0010
,
0100
1000
0000
0100
0010
0100
0000
1000
,
0001
1000
0000
0010
0100
0001
0100
0001
,
1000
0100
0001
0100
1000
0100
0010
0100
,
1000
0100
0001
0100
1000
0100
0010
0001
,
0010
0001
1000
0001
0010
0001
0100
0001
,
0010
0001
1000
0000
0010
0001
0100
0000
,
1000
0100
1000
0100
0010
0001
0010
0100
,
1000
0100
1000
0100
0010
0001
0010
0100
,
1000
0010
1000
0010
0100
0001
0100
0010
,
1000
0010
1000
0010
0100
0001
0100
0010
,
1000
0001
1000
0001
0100
0010
1000
0010
,
1000
0001
1000
0001
0100
0010
1000
0010
,
0100
0010
0100
0010
1000
0001
0100
0001
,
0100
0010
0100
0010
1000
0001
0100
0001
,
1010
0000
0000
1100
0000
0011
0000
0001
,
1001
0000
0000
1100
0000
0011
0000
0001
,
1010
0000
0000
0110
0000
1100
0000
0001
,
1010
0000
0000
0110
0000
1100
0000
0001
,
1000
0000
1000
0000
1000
0000
0100
0000
0001
0000
0001
0000
0001
0000
0100
0010
,
1000
1000
1000
0100
0001
0001
0001
0010
,
1000
0100
1000
0000
1000
0100
1000
0000
0001
0010
0001
0000
0001
0010
0001
0010
,
0100
1000
0100
0000
0100
1000
0100
0000
0010
0001
0010
0100
1000
0100
0010
0001
,
1000
0100
0010
0100
1000
0010
0100
0001
,
1000
0100
0010
0001
0100
0010
1000
0010
,
0100
0001
0100
0001
1000
0010
1000
0010
,
1000
0100
0010
0001
0010
0100
1000
0010
,
1000
0010
0100
0010
0100
0001
0100
0010
,
1000
0100
0010
0001
1000
0001
0010
0100
,
1000
0010
0100
0001
1000
0010
0100
0001
,
0100
0010
1000
0001
0100
0010
1000
0010
,
0100
0000
0001
0000
0000
0000
0001
0010
0000
0000
0100
0000
1000
0000
0000
0000
,
1000
0000
0000
0100
0000
0000
0100
0000
0000
0000
0001
0000
1000
0000
0000
0000
,
0010
0000
1000
0000
0000
0000
1000
0100
0000
0000
0010
0000
0001
0000
0000
0000
,
0001
0000
0000
0010
0000
0000
0000
0000
0000
0000
1000
0000
0001
0000
0000
0000
,
1001
0000
0000
0000
1010
0000
0000
0000
1001
0000
0000
0001
0000
0000
0001
0000
,
1010
0000
0000
0000
1001
0000
0000
0000
0101
0000
0000
1000
0000
1000
0100
0000
,
0001
0010
0001
0010
0001
0000
1000
0100
1000
0100
1000
0000
0010
0100
0010
0100
,
0001
1000
0001
1000
0001
0000
0100
0010
0100
0010
0100
0001
0100
0010
1000
0000
,
1001
0100
0010
1000
0001
0100
0010
1000
,
0001
0010
0100
1000
0000
0010
0100
1000
,
0010
0100
0001
1000
0010
0100
0001
1000
,
0100
0010
0001
1000
0100
0010
0001
1000
,
0001
0100
0010
1000
0001
0100
0010
1000
,
0001
0010
0100
1000
0001
0010
0100
1000
,
0010
0100
0001
1000
0010
0100
0001
1000
,
0100
0010
0001
1000
0100
0001
0010
1000
,
0001
0000
0001
0010
0001
0000
0001
0000
1000
0100
1000
0100
1000
0000
1000
0000
,
0100
0000
0100
0010
0100
0000
0100
0000
1000
0001
1000
0001
1000
0000
1000
0000
,
0010
0000
0010
0100
0010
0000
0010
0000
0100
0001
0100
0001
0100
0000
0100
0000
,
0001
0000
0001
1000
0001
0000
0001
0000
0010
0100
0010
0100
0010
0000
0010
0000
,
1000
0000
1000
0000
1100
0000
1000
0000
0001
0010
0001
0000
0011
0000
0001
0000
,
0100
0000
0100
0000
0110
0000
0100
0000
0010
1000
0010
0000
1010
0000
0010
0000
,
1000
0000
1000
0000
1001
0000
1000
0000
0010
1000
0010
0000
1010
0000
0010
0000
,
1000
0100
1000
0000
0100
0010
0100
0000
0010
0001
0010
0000
0001
0100
0001
0000
,
1000
0100
0000
0100
0000
0100
1000
0000
1000
0001
0000
0001
0000
0001
1000
0000
,
0100
0010
0000
0010
0000
0010
0100
0000
1000
0010
0000
0010
0000
0010
1000
0000
,
0001
0100
0000
0100
0000
0100
0001
0000
1000
0010
0000
0010
0000
0010
1000
0000
,
0010
0100
0000
0100
0000
0100
0010
0000
1000
0100
0000
0100
0000
0100
1000
0000
,
0100
0010
0000
0010
0000
0010
0100
1000
0100
0010
0000
0010
0000
0010
0100
0000
,
0010
0100
0000
0100
0000
0100
0010
0001
0010
0100
0000
0100
0000
0100
0010
0000
,
1000
0001
0000
0001
0000
0001
1000
0010
1000
0001
0000
0001
0000
0001
1000
0000
,
0001
1000
0000
1000
0000
1000
0001
0100
0001
0010
0000
0010
0000
0010
0001
0000
,
1000
0000
0000
0100
0000
0100
1000
0000
0001
0000
0000
0010
0000
0010
0001
0000
,
0100
0000
0000
0010
0000
0010
0100
0000
0001
0000
0000
1000
0000
1000
0001
0000
,
1000
0000
0000
0010
0000
0010
1000
0000
1000
0000
0000
0100
0000
0100
1000
0000
,
0010
0000
0000
0100
0000
0100
0010
0000
0100
0000
0000
0001
0000
0001
0100
0000
,
1000
0000
0000
1000
0000
0000
1000
0000
0100
0000
0000
0100
0000
0000
0100
0000
,
0010
0000
0000
0010
0000
0000
0010
0000
0001
0000
0000
0001
0000
0000
0001
0000
,
1000
0000
0000
1000
0000
0000
1000
0000
0010
0000
0000
0010
0000
0000
0010
0000
,
0100
0000
0000
0100
0000
0000
0100
0000
0000
0000
0000
0001
0000
0000
0001
0000
,
1001
1000
0100
0100
0010
0010
0001
0001
,
1000
1000
0100
0100
0010
0010
0001
0001
,
1000
1000
0010
0010
0100
0100
0001
0001
,
1000
1000
0010
0010
0100
0100
0001
0001
,
1001
0000
0000
1010
0000
0000
1100
0000
,
1001
0000
0000
1010
0000
0000
1100
0000
,
1001
0000
0000
0101
0000
0000
0011
0000
,
1000
0001
0000
0001
0100
0000
1010
0000
,
2002
0000
0000
0000
,
3003
0000
0000
0000
,
;

//----------------dance-single - SManiac----------------
#NOTES:
     dance-single:
     FFR R2:
     SManiac:
     10:
     -1.000,-1.000,-1.000,-1.000,-1.000:
1001
0000
0000
0010
0100
0000
0100
0000
0101
0000
0100
0001
0000
0001
0100
0000
,
0010
0000
0100
0001
0000
0001
0100
0000
0010
0000
0001
0010
0000
0010
0100
0000
,
2002
0000
3003
1000
0100
0000
0100
0000
0110
0000
0001
1000
0000
1000
0010
0000
,
0100
0000
0001
0010
0000
0010
0100
0000
1000
0000
0001
1000
0000
1000
0010
0000
,
2002
0000
3003
1000
0010
0000
0010
0000
0110
0000
1000
0001
0000
0100
0010
0000
,
1000
0000
0001
1000
0000
0010
0100
0000
0010
0000
1000
0001
0000
0001
1000
0000
,
2002
0000
3003
0100
0010
0000
0100
0000
1001
0000
1000
0100
1000
0000
1000
0000
,
0100
0000
0100
0010
0100
0000
0100
0000
0100
0010
0000
1000
0010
0100
0001
1000
,
0110
0000
0010
0000
0110
0000
0100
0000
0101
0000
0001
0000
1001
0000
1000
0010
,
1100
0000
0100
0000
0110
0000
0010
0000
0011
0000
0001
0000
0001
1000
0001
1000
,
0110
0010
1010
1010
1001
1000
1010
1010
,
1001
0000
0001
0000
0101
0000
0101
0000
0001
0100
0010
1000
0100
0010
0100
1000
,
0010
0100
0010
0000
1001
0000
1010
0000
1000
0001
1000
0000
1010
0000
1100
0000
,
0001
1000
0001
0000
0110
0000
1010
0000
0001
0100
0001
0010
0001
0010
0001
0100
,
0010
1000
0010
0000
0100
0001
0100
0000
0010
1000
0010
0000
0100
0001
0100
0000
,
1001
0000
1000
0010
0100
0000
0110
0000
0100
0000
0000
0010
0100
0001
0010
0001
,
1100
0000
1100
0000
0011
0000
0011
0000
1001
0000
1001
0000
1000
0001
1000
0001
,
1010
0000
1010
0000
0101
0000
0101
0000
0011
0000
0011
0000
0001
0100
0001
0100
,
1001
0000
1001
0000
0110
0000
0110
0000
0101
0000
0101
0000
0010
1000
0010
1000
,
0101
0000
0010
0100
0001
0000
0101
0000
0010
0001
0010
0100
1000
0001
1000
0100
,
0011
0000
0011
0000
1100
0000
1100
0000
1001
0000
1001
0000
1000
0010
1000
0010
,
1001
0000
1001
0000
0101
0000
0101
0000
1010
0000
1010
0000
0100
0010
0100
0010
,
0101
0000
0101
0000
0110
0000
0110
0000
1010
0000
1010
0000
0100
0001
0100
0001
,
1010
0000
1000
0100
0010
0100
1000
0000
0001
1000
0010
0100
0010
1000
0001
0100
,
2002
0000
3003
1010
0000
0101
0000
0101
,
2002
0000
3003
1010
0000
0101
0000
0101
,
1001
0100
0010
1010
0010
0101
0100
0101
,
1001
0100
0010
1010
0010
0101
0100
0101
,
1001
0000
1000
0001
1000
0000
1001
0000
0100
0000
0010
0001
0010
0000
0100
0010
,
0100
0000
1000
0000
0001
0000
1001
0000
0100
0000
0010
1000
0010
0000
0101
0000
,
1000
0001
1000
0001
0100
0001
0100
0001
1000
0010
1000
0010
0100
0010
0100
0010
,
1000
0100
1001
0000
0001
0010
1001
0000
1001
0010
1100
0000
1001
0100
0011
0100
,
1001
0100
0010
0100
1000
0010
0100
0001
,
1000
0100
0010
0001
0100
0010
1000
0010
,
0100
0001
0100
0001
1000
0010
1000
0010
,
1000
0100
0010
0001
0010
0100
1000
0010
,
1000
0010
0100
0010
0100
0001
0100
0010
,
1000
0100
0010
0001
1000
0001
0010
0100
,
1000
0010
0100
0001
1000
0010
0100
0001
,
0100
0010
1000
0001
0100
0010
1000
0001
,
1001
0000
1000
0001
1000
0001
1000
0000
0000
0000
0000
0000
0110
0000
0010
0000
,
1001
0000
0000
1010
0000
0000
1010
0000
0000
0000
1000
0000
0001
0000
0100
0000
,
1010
0000
1000
0010
1000
0010
1000
0010
0000
0000
0000
0000
0101
0000
0001
0000
,
1001
0000
0000
0101
0000
0000
0101
0000
0001
0000
1000
0000
0010
0000
0100
0000
,
0011
0000
0001
0010
0001
0010
0001
0010
0000
0000
0000
1100
0000
0000
1001
0000
,
1010
0000
1000
0010
1000
0010
1000
0010
0000
0000
0000
0101
0000
1000
0001
1000
,
0010
0100
0010
0100
0001
0100
0001
0100
0001
1000
0001
1000
0010
1000
0010
0100
,
0001
0010
0100
1000
0001
0010
0100
1000
0101
0010
1100
0010
1001
0100
1001
0010
,
1100
0000
0000
1000
0000
1000
0100
0000
0100
0010
0000
0010
0000
0010
0001
0000
,
1000
0000
0000
0010
0000
0010
0100
0000
0100
0001
0000
0001
0000
0001
1000
0100
,
0010
0000
0000
0010
0000
0010
0001
0000
0001
1000
0000
1000
0000
1000
0100
0000
,
0100
0000
0000
0100
0000
0100
1000
0000
1000
0001
0000
0001
0000
0001
0010
0000
,
1001
0000
0000
1010
0000
1000
0010
0000
0100
0001
0000
1001
0000
0010
0100
0000
,
1001
0000
0000
0101
0000
0001
0100
0000
0010
1000
0000
1001
0000
0100
0010
0000
,
0110
0000
0000
0011
0000
0010
0001
0000
1000
0100
0000
0110
0000
0001
1000
0001
,
0110
0000
0000
1000
0000
0100
1000
0000
0001
0010
0000
0110
0000
1000
0001
1000
,
0101
0000
0001
1000
0001
0000
1001
0000
0010
0100
0001
0100
0010
0000
1010
0000
,
1000
0100
0010
0100
1000
0000
1100
0000
0001
0100
0010
1000
0100
0000
1001
0000
,
1000
0100
0010
0001
0010
0000
0011
0000
0001
0100
0001
1000
0100
0000
1010
0000
,
1000
0010
0001
0010
0000
0000
1001
0000
0001
0010
1000
0010
0000
0000
1001
0000
,
1000
0100
1000
0100
1001
0000
0101
0000
0001
0100
0001
0100
0011
0000
1001
0000
,
0010
0100
0010
0100
0011
0000
1100
0000
1000
0010
1000
0010
1001
0000
0110
0000
,
1000
0001
1000
0001
1010
0000
0101
0000
0100
0010
0100
0010
1100
0000
1010
0000
,
1000
0001
1000
0001
1100
0000
0110
0000
0010
0001
0010
0001
1000
0100
1000
0100
,
1001
0000
0100
1001
0010
1000
0100
0000
0010
0001
0010
0100
1000
0000
0101
0000
,
1010
0000
0100
1010
0100
1000
0001
0000
0100
0010
0100
0001
0100
0000
1100
0000
,
0011
0000
0100
0011
1000
0010
0100
0000
1000
0100
0010
0100
1000
0000
0101
0000
,
1010
0000
0100
1010
0001
0010
0100
0000
0001
1000
0001
0100
0000
0100
0010
0000
,
0001
0010
0000
0010
0000
0010
0001
0000
0010
0100
0001
0100
0010
0000
1100
0000
,
0010
0100
0000
0100
0000
0100
0010
0000
0001
0010
0001
0100
0010
0000
1010
0000
,
0100
0010
0000
0010
0000
0010
0001
0000
0100
1000
0010
1000
0001
0000
1010
0000
,
0100
1000
0000
1000
0000
1000
0001
0000
0100
0010
0000
0010
0100
0000
0110
0000
,
1000
0000
0000
1000
0100
0000
0010
0000
0001
1000
0001
0100
0010
0000
0110
0000
,
0001
0000
0000
0001
0010
0000
0100
0000
1000
0001
1000
0010
0100
0000
0110
0000
,
0010
0000
0000
0010
1000
0000
0001
0000
0100
0010
0100
0001
0100
0000
0101
0000
,
0100
0000
0000
0100
0001
0000
1000
0000
0010
0100
0010
1000
0010
0000
1010
0000
,
0010
0000
0000
0010
0100
0000
1001
0000
0100
0000
0000
1000
0001
0000
0001
1000
,
0100
0000
0000
0100
0010
0000
1001
0000
0001
0000
0000
0001
1000
0000
1000
0001
,
0100
0000
0000
0010
1000
0000
1100
0000
0011
0000
0000
0001
0100
0000
0100
0010
,
1000
0000
0000
0100
0000
0100
0010
0000
0010
0001
0000
0001
0000
0001
1000
0000
,
1001
1100
1010
1010
1001
1001
0101
0101
,
1010
1010
0110
0110
0101
0101
0011
0011
,
1001
1001
0110
0110
1010
1010
1100
1100
,
1001
1001
0110
0110
0101
0101
1010
1010
,
1001
0000
0000
1010
0000
0000
0101
0000
,
1001
0000
0000
1010
0000
0000
0101
0000
,
1001
0000
0000
1001
0000
0000
1001
0000
,
0100
0010
0000
0010
0100
0000
0110
0000
,
2002
0000
0000
0000
,
3003
0000
0000
0000
,
;
