#TITLE:The Rains;
#ARTIST:Psychaesthetic;
#BANNER:The Rains.png;
#BACKGROUND:The Rains-bg.png;
#MUSIC:The Rains.mp3;
#OFFSET:-0.157;
#SELECTABLE:YES;
#CREDIT:converted by Vyhd;
#BPMS:0.000=135.00;
#STOPS:;
#BGCHANGES:;

//----------------dance-single - Basic----------------
#NOTES:
     dance-single:
     FFR R2:
     Basic:
     3:
     -1.000,-1.000,-1.000,-1.000,-1.000:
0000
0000
0000
0000
,
0000
0000
0000
0000
,
1000
0010
0100
0010
,
1001
0101
0100
0100
,
1000
0010
0100
1000
,
1001
1010
1100
0001
,
0001
1000
0100
0001
,
1001
0000
0000
1000
0000
0000
0000
0000
1000
0000
0001
0000
0000
0000
0000
0000
,
1001
1010
0101
0011
,
1001
1010
0110
0101
,
1001
1001
0110
0110
,
1001
0101
0110
1010
,
1010
1100
0011
1001
,
1010
1100
0011
0101
,
0110
0110
1001
1001
,
1010
1001
0101
1001
,
1000
0000
0010
0000
0010
0000
1000
0001
,
0000
0001
0000
0000
0010
0000
1000
0000
,
1000
0000
0100
0001
0000
0000
0010
0000
,
0010
1000
0000
1001
0000
0000
1001
0000
,
1000
0010
0100
0000
,
0001
0000
1000
0001
0000
1001
0000
0000
,
0100
1000
0100
0010
,
1000
0000
0010
0001
0000
0000
1001
0000
,
1000
0010
0001
0010
,
0010
1001
1010
0101
,
0001
0100
0100
1000
,
0101
0110
1100
0101
,
1000
0100
0010
0100
,
1000
0000
0000
0001
0000
0100
0000
0000
,
0001
1000
0100
1000
,
0010
0100
1000
0010
,
1001
0000
1000
0000
0001
0001
0000
0000
,
0101
0000
0001
0000
0100
0100
0000
0000
,
0020
0000
0000
1030
0000
0000
0002
0000
,
0000
0103
0000
0000
0020
1030
0020
0130
,
0001
0000
1000
0000
0010
0010
0000
0000
,
1001
0000
1000
0000
0001
0001
0000
0000
,
0020
0000
0000
1030
0000
0000
0002
0000
,
0000
0103
0000
0000
0020
1030
0020
0130
,
0001
0000
1000
0000
0010
0000
0000
0100
,
0001
0000
0010
0000
0100
0000
0000
1000
,
0001
0000
1000
0000
0010
0000
0000
0100
,
0001
0000
1000
0000
0100
0000
0000
0100
,
0001
0000
0100
0000
0100
0000
0000
0001
,
1000
0000
0100
0000
0100
0000
0000
1000
,
0001
0000
0010
0000
0001
1000
0000
1000
,
0010
0000
0010
0000
0100
0000
0001
0010
,
1000
0000
0010
0000
0000
1000
0000
0000
,
0001
0000
0000
0100
0000
0000
0001
0000
,
0010
0000
1000
0000
0100
0000
0000
0001
,
1000
0010
0100
1000
,
1000
0000
0010
0000
0000
0001
0000
0000
,
1000
0000
0000
0001
0000
0000
0010
0000
,
1000
0001
0010
0000
0010
0000
1000
0000
,
1000
0010
1000
0100
,
1000
1000
0001
0001
,
0100
0010
0000
1001
0000
0000
1001
0000
,
1000
1000
0100
0010
,
1000
0000
1000
0100
0000
0000
1001
0000
,
0001
0001
1000
1000
,
0010
0100
0000
1001
0000
0000
0000
0100
,
0010
1000
0000
1001
0000
0000
0001
0000
,
0100
0100
0010
0001
,
1100
0001
0101
1000
,
1000
0100
0000
1001
0000
0000
1000
0000
,
0010
0100
0000
1010
0000
1001
0000
0000
,
1000
0100
0000
1001
0000
0000
1000
0000
,
1001
0001
0101
0100
,
1000
0001
0000
0110
0000
0000
1000
0000
,
0010
0001
1000
0100
,
1000
0001
0000
1100
0000
0000
1000
0000
,
1001
0101
0100
1000
,
0101
1001
0100
1000
,
1001
0101
0100
0001
,
0100
0100
0001
0100
,
1000
0100
0010
1000
,
0001
0100
1000
0100
,
1000
0010
0100
0100
,
1000
0010
0100
1000
,
1001
1000
1001
0001
,
1000
0010
0000
1010
0000
0000
0000
0000
,
0001
1001
1000
1001
,
0001
0100
0000
0101
0000
0000
1001
0000
,
1000
0010
0101
0000
,
0001
0100
1001
0010
,
1000
0001
0100
1000
,
0100
0000
0100
0001
0000
0000
1001
0000
,
1001
0100
1010
0010
,
0001
0100
0000
1001
0000
0000
0000
0000
,
0010
0100
0000
1001
0000
1010
0000
0000
,
0010
1000
0000
0011
0000
0000
0000
0000
,
1001
0100
1010
1000
,
0001
0100
0000
1010
0000
0000
0001
0000
,
1000
0100
1000
0001
,
1000
0010
0100
1000
,
;

//----------------dance-single - Another----------------
#NOTES:
     dance-single:
     FFR R2:
     Another:
     6:
     -1.000,-1.000,-1.000,-1.000,-1.000:
0000
0000
0000
0000
,
0000
0000
0000
0000
,
1000
1000
0010
0000
0100
0001
0010
0100
,
1000
0001
0001
0000
0110
0010
1000
0001
,
1000
0100
0010
0001
0100
0001
1000
0100
,
0001
0100
1000
0000
1000
1000
0001
0000
,
0001
0100
0001
0010
0100
0010
0001
1000
,
1001
0000
0000
1010
0000
0000
0000
0000
1000
0001
1000
0000
0000
0000
0000
0000
,
1001
0000
1010
0000
0101
0001
0011
0000
,
1001
0000
1010
0000
0110
0100
0101
0000
,
1001
1001
0110
0110
,
1001
0000
0101
0000
0110
0010
1010
0000
,
1010
0000
1100
0000
0011
0001
1001
0000
,
1010
0000
1100
0000
0011
0001
0101
0000
,
0110
0110
1001
1001
,
1010
1000
1001
0000
0101
0001
1001
0000
,
1000
0100
0010
0001
0010
0100
1000
0001
,
0010
0001
0010
0001
0010
0100
1000
0010
,
1000
0010
0100
0001
0000
0001
0010
0100
,
0010
0001
1000
0010
0000
0000
1001
0000
,
1000
0001
0010
0001
0100
0000
0010
0100
,
0001
0000
1000
0001
0000
0001
0100
0000
,
0100
0010
1000
0010
0100
0001
0100
0010
,
1000
0100
0010
0001
0000
0000
1001
0000
,
1000
1000
0001
0000
0001
0100
0010
1000
,
0010
1001
1010
0101
,
0001
0001
0100
0000
0100
0010
1000
0010
,
0100
0001
0010
0100
1000
0001
0100
0000
,
1001
1000
0100
0000
0010
0001
0010
0100
,
1000
1000
0000
0001
0000
0010
0100
0010
,
0001
0001
1000
0010
0100
0010
1000
0001
,
0010
0001
0100
0001
1000
0100
0010
0001
,
1001
0000
0000
0000
1000
0000
0000
1000
0001
0000
0001
0000
0000
0000
0100
0000
,
0101
0000
0000
0000
0001
0000
0000
0001
0100
0000
0100
0000
0000
0000
0100
0000
,
0020
0000
0000
1030
0000
0000
0002
0000
,
0000
0103
0000
0000
0020
1030
0020
0130
,
0001
0000
0000
0000
1000
0000
0000
1000
0010
0000
0010
0000
0000
0000
0001
0000
,
1001
0000
0000
0000
1000
0000
0000
1000
0001
0000
0001
0000
0000
0000
0100
0000
,
0020
0000
0000
1030
0000
0000
0002
0000
,
0000
0103
0000
0000
0020
1030
0020
0130
,
0001
0001
1000
1000
0010
0010
0000
0100
,
0001
0001
0010
0010
0100
0100
0000
1000
,
0001
0001
1000
1000
0010
0010
0000
0100
,
0001
0001
1000
1000
0100
0100
0000
0100
,
0001
0010
0100
1000
0100
0010
0000
0001
,
1000
0010
0100
0001
0100
0010
0000
1000
,
0001
0100
0010
0100
0001
1000
0000
1000
,
0010
0100
0010
1000
0100
0010
0001
0010
,
1000
1000
0010
0001
0100
0010
1000
0010
,
0100
0000
0100
0000
1001
0000
0001
0100
,
0010
0010
1000
1000
0100
0010
0000
0001
,
1000
1000
0010
0010
0100
0001
1000
0010
,
1000
0100
0010
0001
0010
0001
1000
0010
,
1000
0100
0010
0001
0010
0001
1000
0010
,
1000
0001
0010
0100
0010
0001
1000
0010
,
1000
0100
0010
0100
1000
0001
0100
0010
,
1000
1000
0001
0001
,
0100
0010
0000
0010
1000
0000
1001
0000
,
1000
0100
1000
0010
0100
0001
0010
0001
,
1000
0010
1000
0100
0000
0000
1001
0000
,
0001
0001
1000
1000
,
0010
0100
0010
1000
0001
0010
0001
0100
,
0010
1000
0100
1000
0001
0100
0001
0010
,
0100
1000
0100
1000
0010
0100
0001
0100
,
1000
1000
0001
0100
0100
0010
1000
0001
,
1000
1000
0100
0010
0010
0001
1000
0100
,
0010
0010
0001
1000
1000
0010
0100
0001
,
1000
1000
0001
0100
0100
0010
1000
0010
,
1000
1000
0001
0100
0100
0010
1000
0001
,
1000
1000
0100
0010
0010
0001
1000
0100
,
0010
0010
0001
1000
1000
0010
0100
0001
,
1000
1000
0001
0100
0100
0010
1000
0010
,
1001
0001
0101
0000
0100
0010
1000
0010
,
0101
0001
1001
0000
0100
0010
1000
0010
,
1001
0001
0101
0000
0100
0010
0001
0010
,
0100
0001
0100
0010
0001
0010
0100
0001
,
1000
1000
0100
0100
0010
0001
1000
0100
,
0001
0001
0100
0100
1000
0010
0100
0001
,
1000
0100
0010
0001
0100
0001
0100
0010
,
1000
0100
0010
0001
0100
0001
1000
0100
,
1001
1000
1001
0001
,
1000
0010
0100
0010
0000
0010
1000
1000
,
0001
1001
1000
1001
,
0001
0100
0010
0100
0000
0000
1001
0000
,
1000
0100
0010
0001
0100
0010
1000
0000
,
0001
0010
0100
0010
0001
1000
0010
0000
,
1000
1000
0001
0001
0100
0010
1000
0001
,
0100
0010
0100
0001
0000
0001
1000
0000
,
0001
0010
0100
0001
0010
0100
0010
0100
,
0001
0100
0010
0001
0100
0010
0001
1000
,
0010
0100
1000
0010
0100
1000
0001
0100
,
0010
1000
0001
0010
1000
0001
1000
0100
,
1000
1000
0100
0010
0010
0001
1000
0100
,
0010
0010
0001
1000
1000
0100
0001
0100
,
1000
0001
1000
0100
1000
0001
0100
0010
,
1000
0001
0010
1000
0100
0010
1000
0000
,
;

//----------------dance-single - Maniac----------------
#NOTES:
     dance-single:
     FFR R2:
     Maniac:
     9:
     -1.000,-1.000,-1.000,-1.000,-1.000:
0000
0000
0000
0000
,
0000
0000
0000
0000
,
1000
0000
0001
0010
0001
0000
0100
0000
0010
1000
0001
0000
1100
0000
0011
0000
,
1001
0000
0000
1100
0000
0000
0000
0000
0001
0100
0001
0000
1000
0000
0100
0000
,
0010
0001
0010
0000
1000
0000
0010
0000
0001
1000
0100
0000
0010
0000
0100
0000
,
1000
0001
0010
0001
0100
0000
0000
0000
0100
0010
1000
0010
1000
0000
1001
0000
,
0001
0010
0001
0000
1000
0000
0010
0000
0100
0001
0010
0000
0100
0000
1000
0000
,
1001
0000
0000
0001
0010
0000
0000
0000
0100
1000
1000
0000
0000
0000
0000
0000
,
1001
1000
1100
1000
0101
0001
0011
0000
,
0101
0001
0011
0001
1100
1000
1010
0000
,
1000
0100
0011
0100
1000
0010
0101
0001
,
0101
0100
0110
0010
1000
0100
0011
0001
,
1000
1000
1010
0010
0100
0001
0101
0100
,
0010
1000
1001
0001
0100
0010
0110
0100
,
0001
1000
1001
0001
0010
0100
1100
1000
,
0001
0001
0101
0100
0010
1000
0100
0010
,
0002
1003
0020
0130
0002
0000
1003
0010
,
0000
0200
0000
0300
0001
0001
1001
0000
,
2000
3001
0200
0301
0000
0000
1001
1000
,
0020
0130
0000
0002
0000
0000
1003
0000
,
2000
3001
0200
0310
2000
0000
3001
0000
,
2002
3003
2000
3010
0000
0200
0000
0300
,
0002
1003
0020
1030
0000
0100
1001
0001
,
0200
0310
0002
1003
0000
0000
0001
0000
,
1000
0100
1000
0100
1000
0000
0001
0010
0000
0100
1000
0000
1001
0000
0110
0000
,
1000
0010
1000
0010
0100
0000
0100
0001
0010
0001
1000
0010
0100
0000
0100
0001
,
0010
0100
0010
0100
0010
0000
0010
0001
0000
0001
1000
0000
1001
0000
1010
0000
,
0101
0000
0000
0000
0000
0000
0000
0000
0000
0000
0000
0000
0000
0000
0000
0000
0000
0000
0101
0000
0000
0000
0000
0000
0000
0000
0000
0000
0000
0000
0000
0000
0000
0000
1010
0000
0000
0000
0000
0000
0000
0000
0000
0000
0000
0000
0000
0000
0000
0000
1001
0000
0000
0000
0000
0000
0000
0000
0000
0000
0000
0000
0000
0000
,
1000
0001
0010
0001
0010
0000
0010
0100
0000
0100
0001
0000
1001
0000
1010
0000
,
0011
0000
0011
0000
0000
0000
1001
0000
0000
0000
1100
0000
1000
0100
0010
0001
,
2000
0000
3100
0001
0010
0000
0100
1000
0010
0100
0020
0000
1030
0000
1001
0000
,
0101
0000
0000
1001
0000
0000
0000
0000
0000
1000
0100
0000
0000
0000
0011
0000
,
1100
0000
1000
0000
1001
0000
0001
1000
0000
1000
0010
0000
0000
0000
0010
0000
,
1010
0000
1000
0000
1001
0000
0001
0100
0000
0100
0010
0000
0000
0000
0100
0000
,
0020
0000
0000
1030
0000
0000
0002
0000
,
0000
0103
0000
0000
0020
1030
0020
0130
,
0001
0000
1000
0000
1010
0000
0100
0001
0000
0001
0010
0000
0000
0000
1000
0000
,
1001
0000
0001
0000
0101
0000
0010
1000
0000
1000
0001
0000
0001
0000
0100
0000
,
0020
0000
0000
1030
0000
0000
0002
0000
,
0000
0103
0000
0000
0020
1030
0020
0130
,
0001
0001
1001
1000
1000
1000
0000
0000
,
1000
1000
1001
0001
0001
0001
0000
0000
,
0100
0100
0110
0010
0010
0010
0000
0000
,
0010
0000
0010
0000
0110
0000
0100
0000
0100
0000
0100
0010
0000
0010
1000
0000
,
1000
0000
1000
0000
1001
0000
0001
0000
0010
0000
0100
1000
0000
1000
0001
0000
,
1000
0000
1000
0000
1001
0000
0001
0000
0100
0000
0010
1000
0000
1000
0001
0000
,
1000
0000
0100
0000
0011
0000
0001
0000
0100
0000
0010
0001
0000
0001
0010
0000
,
1000
1000
1001
0001
0100
0010
1010
1000
,
1000
0100
1000
0100
0020
0000
0000
0000
0000
0000
0031
0000
0000
0000
0000
0000
,
2000
0000
0000
0000
0000
3010
0000
0000
0000
0000
0000
0000
0100
0000
0000
0000
,
0010
0000
1000
1000
1001
0100
0011
0000
,
1000
0001
0101
0100
0010
1001
1010
0000
,
0100
0001
0100
0001
2000
0000
0000
0000
0000
0000
3010
0000
0000
0000
0000
0000
,
0200
0000
0000
0000
0000
1300
0000
0000
0000
0000
0000
0000
0001
0000
0000
0000
,
0010
0100
1100
0100
0010
0101
1010
0000
,
0100
0010
0011
0001
1000
0110
1100
0000
,
0022
0033
0000
0000
2200
3300
0000
0000
,
0002
0103
0000
0020
0000
0030
1000
1000
,
1001
0202
0303
2020
3030
2200
3300
0000
,
0011
0220
0330
2200
3300
0000
1000
0010
,
0110
0100
0100
0001
1001
0001
0001
0100
,
1010
0202
0303
2002
3003
0000
1010
0000
,
1001
0220
0330
2020
3030
1000
1001
0110
,
0011
0000
0220
0000
0330
0000
2002
0000
3003
0000
0000
0000
1000
0100
0010
0000
,
1001
0100
0010
1001
0100
0010
1001
0100
,
0010
1001
0010
0100
1001
0100
0001
0010
,
1001
0010
0001
1001
0100
1000
1001
0010
,
0001
0000
1001
0000
1000
0000
1000
0000
0001
0010
0001
0010
0100
1000
0100
1000
,
0002
0003
1000
0000
2002
3003
0100
0000
,
1001
2020
3030
0202
0303
0000
1000
1000
,
0011
0001
0100
0010
1100
0001
0100
0010
,
1001
0101
0100
1010
0101
0001
0100
0010
,
1000
0000
1000
0000
1001
0000
0001
0100
0010
0000
1000
0000
0010
0000
0100
0000
,
0001
0000
0001
0000
1001
0000
1000
0001
0010
0000
0100
0000
1001
0000
0100
0000
,
0001
0000
0001
0000
1001
0000
1000
0001
1000
0000
0010
0000
0101
0000
0001
0000
,
1001
1000
1100
1100
0001
0010
1100
0011
,
1000
0100
1000
0000
0011
0000
1000
0000
0100
0000
0010
0000
1001
0000
1000
0000
,
0001
0100
0001
0000
1001
0000
1000
0000
0010
0000
0100
0000
0011
0000
1000
0000
,
0001
0001
0001
0001
1001
1000
0010
0100
,
0010
0010
0010
0010
0110
0010
1000
0001
,
2200
3300
0022
0033
2002
3003
1000
0100
,
0011
2200
3300
2002
3003
0000
1000
0110
,
0101
2002
3003
2020
3030
0000
2002
3003
,
0101
0000
2020
0000
3030
0000
2002
0000
3003
0000
0000
0000
1000
0001
0100
0000
,
1001
1010
0202
0303
2020
3030
1001
0000
,
2002
3003
1010
0202
0303
0000
1001
0100
,
0022
0033
2200
3300
2002
3003
1001
0000
,
1010
0000
1010
0000
1001
0000
0202
0000
0303
0000
1000
0001
0010
0100
1000
0000
,
1001
0010
0100
1001
0010
0100
1001
1000
,
0100
0000
1001
0000
0001
0000
0010
0000
1000
0001
0010
0001
1000
0000
0000
0000
,
1001
0100
0001
1001
0001
1000
1001
0100
,
0001
1000
0110
0100
0101
0001
1001
1010
,
1001
0000
1000
0100
1000
0000
1001
0000
0001
0010
0001
0000
1001
0000
0100
0010
,
0100
0000
1001
0000
0010
0001
0010
0000
1001
0000
0100
1000
0100
0000
0001
0000
,
1000
0100
1000
0100
1000
0100
1000
0100
1000
0000
0000
0000
1001
0000
0000
0000
,
0001
0010
0001
0010
0001
0010
0001
0010
0001
0000
0000
0000
1001
0000
0000
0000
,
;
