#TITLE:Synesthetic;
#ARTIST:SGX;
#BANNER:Synesthetic.png;
#BACKGROUND:Synesthetic-bg.png;
#MUSIC:Synesthetic.mp3;
#OFFSET:-0.050;
#SELECTABLE:YES;
#CREDIT:converted by Vyhd;
#BPMS:0.000=146.00;
#STOPS:;
#BGCHANGES:;

//----------------dance-single - Basic----------------
#NOTES:
     dance-single:
     FFR R2:
     Basic:
     4:
     -1.000,-1.000,-1.000,-1.000,-1.000:
0000
0000
0000
0000
,
0000
0000
0000
0000
,
0000
0000
0000
0000
,
0000
0000
0000
0000
,
1001
0110
1000
0001
,
1100
0101
0010
1000
,
0011
1100
0001
1000
,
0110
1001
0010
0100
,
0001
0001
1000
1000
,
0010
0010
0100
0100
,
0001
0001
1000
1000
,
0100
0100
0010
0010
,
1001
0100
0000
0010
,
1000
0001
0000
0010
,
0001
0100
0000
0010
,
1000
0100
0000
1000
,
0001
0010
0000
0001
,
0100
0010
0000
1000
,
0001
0010
0000
0001
,
1000
0010
0000
0100
,
2001
0100
0010
3001
,
0110
0000
1000
0001
,
1001
0100
0100
0010
,
0001
1000
0110
0001
,
1100
0010
0001
1000
,
0110
0001
1010
0100
,
1001
0010
0001
0100
,
0010
0000
1000
0001
0100
0000
0010
0000
,
1001
0100
0010
1000
,
0011
0000
1000
0100
1000
0000
0101
0000
,
1010
0001
1000
0100
,
0010
0001
1010
0100
,
1001
0010
0001
0100
,
1010
0001
0110
1000
,
0101
0010
1000
0001
,
0010
0000
0100
1000
0001
0000
0010
0000
,
1001
0000
0100
0000
0010
1000
0010
0000
,
0101
0000
0010
1000
0100
0000
1001
0000
,
0010
0100
0100
1000
,
1000
0000
0001
0000
0100
0100
0100
0000
,
0010
1000
0100
0010
,
1001
0000
0100
0010
1000
0000
0011
0000
,
0100
1000
0001
0010
,
0001
0100
0010
1000
,
0100
1000
0001
0010
,
1100
0000
0001
0100
0001
0000
1010
0000
,
1001
1000
1000
0000
,
0001
0000
0001
0001
0000
0001
0000
0001
,
0000
0100
0100
0100
0000
0010
0010
0010
,
0010
0010
0010
0010
1000
0000
1001
0000
,
0100
1001
0010
0101
,
1000
0101
0010
1100
,
0001
1100
0010
1001
,
0100
0000
1001
0000
0010
0100
0010
0000
,
1000
0000
0001
0000
1000
0100
1000
0000
,
0010
0000
0100
0000
0001
1000
0001
0000
,
0010
0000
0100
0000
1000
0001
1000
0000
,
0010
0100
1001
0110
,
0001
1000
0110
1001
,
0010
0100
0011
1100
,
0010
0100
1001
0110
,
1000
0001
1010
0101
,
0010
0100
1001
0110
,
1000
0100
0011
1100
,
0001
0100
0010
0010
,
1000
0100
1001
0010
,
0000
0100
0010
0000
1000
0001
0010
0000
,
0100
0010
1001
0010
,
0001
0100
0010
0010
,
1000
0001
1001
0011
,
0100
0000
1000
0001
1000
0000
0010
0000
,
1001
0100
1001
0110
,
1001
0000
0110
0000
1001
0000
1000
0100
,
0020
0000
0000
0000
,
0000
0000
0000
0000
0000
0000
0000
0030
,
1000
1000
1000
1000
,
1001
0100
0100
0010
,
0001
1000
0110
0001
,
1100
0010
0001
1000
,
0110
0001
1010
0100
,
1001
0010
0001
0100
,
0010
0000
1000
0001
0100
0000
0010
0000
,
1001
0100
0010
1000
,
0011
0000
1000
0100
1000
0000
0101
0000
,
1010
0001
1000
0100
,
0010
0001
1010
0100
,
1001
0010
0001
0100
,
1010
0001
0110
1000
,
0101
0010
1000
0001
,
0010
0000
0100
1000
0001
0000
0010
0000
,
1001
0000
0100
0000
0010
1000
0010
0000
,
0101
0000
0010
1000
0100
0000
0110
0000
,
2002
0000
0000
0000
,
3003
0000
0000
0000
,
;

//----------------dance-single - Another----------------
#NOTES:
     dance-single:
     FFR R2:
     Another:
     7:
     -1.000,-1.000,-1.000,-1.000,-1.000:
0000
0000
0000
0000
,
0000
0000
0000
0000
,
0000
0000
0000
0000
,
0000
0000
0000
0000
,
1001
1100
1001
0101
,
1001
0000
0010
1000
0000
0010
0000
0100
,
1001
1100
1001
0101
,
1001
0000
0010
1000
0000
0100
0000
0010
,
0001
0000
0000
1000
0000
0000
0010
0000
0100
0000
0000
0001
0000
0000
0010
0000
,
0100
0000
0000
1000
0000
0000
0001
0000
0100
0000
0000
0010
0000
0000
1000
0000
,
0100
0000
0000
0010
0000
0000
0001
0000
1000
0000
0000
0010
0000
0000
0100
0000
,
0001
0000
0000
1000
0000
0000
0010
0000
0100
0000
0000
0001
0000
0000
1000
0000
,
0100
0000
0010
0000
0001
0000
0000
0001
0000
0000
1000
0000
1000
0000
0010
0000
,
0100
0000
0001
0000
1000
0000
0000
1000
0000
0000
0100
0000
0010
0000
0001
0000
,
1000
0000
0100
0000
0010
0000
0000
0010
0000
0000
0001
0000
0001
0000
0100
0000
,
0010
0000
1000
0000
0100
0000
0000
0100
0000
0000
0010
0000
0001
0000
0100
0000
,
0001
0000
0010
0000
0001
0000
0000
0001
0000
0000
1000
0000
0010
0000
1000
0000
,
0001
0000
0010
0000
0100
0000
0000
0100
0000
0000
1000
0000
0010
0000
0100
0000
,
0001
0000
1000
0000
0010
0000
0000
0010
0000
0000
0100
0000
0001
0000
0100
0000
,
0010
0000
1000
0000
0001
0000
0000
0001
0000
0000
0010
0000
0001
0000
0100
0000
,
2002
0000
0000
3003
1000
0000
0100
0000
,
2002
0000
0000
0000
0000
0000
0000
3003
0100
0000
0000
0000
0100
0000
0000
0000
,
1001
0000
1000
0000
0010
0000
0000
0010
0000
0000
0100
0000
0001
0000
0010
0000
,
0100
1000
0001
0010
0001
0100
0010
0000
,
1000
0000
0100
0000
0010
0000
0000
0010
0000
0000
0001
0000
0100
0000
0001
0000
,
0010
0100
1000
0001
0100
0010
0100
0001
,
1000
0000
0100
0000
0010
0000
0000
0010
0000
0000
0100
0000
1000
0000
0010
0000
,
0100
0001
1000
0001
0010
0100
1000
0001
,
0100
0000
0010
0000
1000
0000
0000
1000
0000
0000
0100
0000
0010
0000
0100
0000
,
1000
0000
0001
0000
0100
0000
0000
0100
0000
0000
0010
0000
1000
0000
0010
0000
,
0100
0000
0001
0000
0010
0000
0000
0010
0000
0000
0100
0000
1000
0000
0100
0000
,
0010
0001
1000
0010
1000
0100
0010
0001
,
0100
0000
0010
0000
1000
0000
0000
1000
0000
0000
0100
0000
0010
0000
0001
0000
,
1000
0010
1000
0100
0010
0001
0100
0010
,
1000
0000
0001
0000
0010
0000
0000
0010
0000
0000
0100
0000
1000
0000
0010
0000
,
1000
0100
0010
0001
0100
0001
0010
0100
,
1000
0000
0010
0000
0100
0000
0000
0100
0000
0000
0001
0000
0010
0000
0001
0000
,
0100
0000
0010
0000
1000
0000
0000
1000
0000
0000
0010
0000
0100
0000
0001
0000
,
0010
0000
0100
0000
1000
0000
0000
0001
0000
0000
0010
0000
0001
0000
0100
0000
,
0010
1000
0100
1000
0010
0100
0001
0100
,
0010
0000
1000
0000
0100
0000
0000
0010
0000
0000
0001
0000
0100
0000
0001
0000
,
1000
0010
1000
0100
0010
0001
1000
0001
,
0100
0000
0010
0000
1000
0000
0000
0001
0000
0000
0100
0000
0010
0000
1000
0000
,
0001
0010
0100
1000
0010
0100
0001
0010
,
0100
0000
1000
0000
0001
0000
0000
0100
0000
0000
0010
0000
1000
0000
0010
0000
,
0100
0000
0001
0000
1000
0000
0000
0100
0000
0000
0010
0000
0001
0000
0100
0000
,
0001
1000
0001
1000
0001
0000
1001
0000
,
0001
0000
1000
0001
0000
0100
0000
0010
,
1000
0001
0010
0100
0000
1000
0001
0100
,
0010
0000
1000
0000
0010
0000
0010
0000
0100
0000
0001
0000
0001
0000
0000
0001
,
0000
0000
1000
0000
0100
0000
0010
0000
0000
0000
0001
0000
0010
0000
0000
0010
,
0000
0000
0100
0000
1000
0000
0001
0000
0000
0000
0100
0000
0010
0000
0000
0010
,
0000
0000
1000
0000
0100
0000
0010
0000
0000
0000
0001
0000
0100
0000
0000
0010
,
0000
0000
1000
0000
0100
0000
1000
0000
0000
0000
0010
0000
0100
0000
0000
0001
,
0000
0000
0010
0000
0001
0000
0100
0000
0000
0000
0010
0000
1000
0000
0000
0100
,
0000
0000
0010
0000
0001
0000
0100
0000
0000
0000
0010
0000
1000
0000
0000
0100
,
0000
0000
0010
0000
0001
0000
1000
0000
0000
0000
0001
0000
0010
0000
0000
0100
,
0000
0000
0010
0000
0001
0000
1000
0000
0001
0000
0100
0000
0010
1000
0000
0010
,
0000
0000
1000
0000
0100
0000
0010
0000
0001
0000
1000
0000
0001
0100
0000
0001
,
0000
0000
0010
0000
0100
0000
1000
0000
0001
0000
0100
0000
0010
1000
0000
0010
,
0000
0000
1000
0000
0100
0000
0010
0000
0001
0000
0100
0000
0010
1000
0000
0010
,
0000
0000
1000
0000
0100
0000
1000
0000
0001
0000
0010
0000
0001
0100
0000
0010
,
0000
0000
1000
0000
0001
0000
1000
0000
0010
0000
0100
0000
0010
1000
0000
0001
,
0000
0000
0010
0000
0001
0000
0100
0000
0010
0000
1000
0000
0001
0010
0000
0100
,
0000
0000
1000
0000
0010
0000
1000
0000
0100
0000
0010
0000
0001
1000
0000
0010
,
0000
1000
0100
0100
1001
0000
0100
0000
,
1000
1000
0100
1000
0001
0100
0100
0000
,
0010
1000
0010
0100
1001
0001
0010
0000
,
0001
0000
0100
0000
0010
1000
0001
0010
,
0001
0100
0010
1000
0001
0000
0010
0000
,
0001
0000
0100
0100
0010
0000
1000
1000
,
0001
0000
0010
0001
0100
0010
1000
0001
,
0010
0001
0100
0010
1000
0100
0010
0001
,
2002
0000
0000
0000
,
0000
0000
0000
0000
0000
0000
0000
3003
,
0010
0100
0100
0100
,
0011
0000
0100
0000
1000
0000
0000
1000
0000
0000
0010
0000
1000
0000
0010
0000
,
0100
0000
0001
0000
0010
0000
0000
0010
0000
0000
0100
0000
1000
0000
0100
0000
,
0010
0000
0001
0000
1000
0000
0000
1000
0000
0000
0010
0000
1000
0000
0010
0000
,
0100
0000
0001
0000
1000
0000
0000
1000
0000
0000
0100
0000
0010
0000
0001
0000
,
1000
0000
0010
0000
1000
0000
0000
1000
0000
0000
0100
0000
0010
0000
0001
0000
,
1000
0000
0010
0000
0100
0000
0000
0100
0000
0000
0010
0000
1000
0000
0010
0000
,
0100
0000
0001
0000
1000
0000
0000
1000
0000
0000
0100
0000
0010
0000
0001
0000
,
1000
0000
0100
0000
0010
0000
0000
0010
0000
0000
0001
0000
0100
0000
0010
0000
,
1000
0000
0001
0000
0010
0100
0000
1000
0000
0000
0001
0000
0100
0000
0001
0000
,
1000
0000
0100
0000
0010
0001
0000
0010
0000
0000
0001
0000
0100
0000
0001
0000
,
1000
0000
0010
0000
1000
0001
0000
0010
0000
0000
0001
0000
0100
0000
0010
0000
,
1000
0000
0001
0000
0010
0001
0000
0100
0000
0000
0010
0000
1000
0000
0010
0000
,
0100
0000
0001
0000
1000
0100
0000
0010
0000
0000
0001
0000
0100
0000
0001
0000
,
1000
0000
0100
0000
0010
0001
0000
0010
0000
0000
0001
0000
1000
0000
0001
0000
,
0100
0000
0010
0000
1000
0001
0000
0010
0000
0000
0001
0000
1000
0000
0001
0000
,
1000
0000
0010
0000
0100
0001
0000
0010
0000
0000
0100
0000
1000
0000
0010
0000
,
2002
0000
0000
0000
,
3003
0000
0000
0000
,
;

//----------------dance-single - Maniac----------------
#NOTES:
     dance-single:
     FFR R2:
     Maniac:
     10:
     -1.000,-1.000,-1.000,-1.000,-1.000:
0000
0000
0000
0000
,
0000
0000
0000
0000
,
0000
0000
0000
0000
,
0000
0000
0000
0000
,
1001
0010
1100
0000
1001
0010
0101
0000
,
1001
0000
1010
0001
1000
0100
0010
0001
,
1001
0010
1100
0000
1001
0010
0101
0000
,
1010
0000
1001
0010
0001
0100
0010
1000
,
1000
0100
0000
0010
0000
0001
1000
0000
0001
0100
0000
0010
0000
1000
0001
0000
,
0010
0001
0000
0100
0000
0010
1000
0000
0100
0010
0000
0001
0000
1000
0010
0000
,
1000
0100
0000
0010
0000
0001
1000
0000
0010
1000
0000
0100
0000
0010
0001
0000
,
1000
0010
0000
0100
0000
0001
1000
0000
0100
0010
0000
0001
0000
1000
0010
0000
,
1000
0000
0001
0000
0100
0010
0000
0010
1000
0000
0001
0000
0010
0000
0100
1000
,
0001
0000
0100
0000
0010
1000
0000
1000
0001
0000
0010
0000
0001
0000
0100
0010
,
1000
0000
0100
0000
0010
0001
0000
0001
1000
0000
0010
0000
1000
0000
0100
0010
,
0001
0000
0100
0000
0010
1000
0000
1000
0100
0000
1000
0000
0010
0000
0100
0001
,
1000
0000
0100
0000
0010
0001
0000
0001
1000
0000
0010
0000
1000
0000
0100
0010
,
0001
0000
0100
0000
0010
1000
0000
1000
0100
0000
1000
0000
0010
0000
0100
0001
,
1000
0000
0100
0000
0010
0001
0000
0001
1000
0000
0010
0000
1000
0000
0100
0010
,
0001
0000
0100
0000
0010
1000
0000
1000
0100
0000
1000
0000
0001
0000
0010
0001
,
1001
0000
0000
1000
0100
0000
0000
0100
1000
0000
0001
0100
0010
1000
0001
0010
,
0200
0000
0000
0000
0000
0000
0000
0300
1000
0000
0000
0000
1000
0000
0000
0000
,
1001
0000
0100
0000
0010
1000
0000
1000
0000
0000
0001
0000
0001
0000
0001
0010
,
0100
0000
1000
0000
1000
0001
0000
0001
0100
0000
0010
0000
1000
0000
0001
0010
,
0100
0000
1000
0000
1000
0001
0000
0100
0000
0000
0010
0000
1000
0000
0100
0010
,
0001
0000
1000
0000
0010
1000
0000
1000
0001
0000
0010
0000
0001
0000
0100
0010
,
1000
0000
0100
0000
1000
0001
0000
0001
0000
0000
0100
0000
0100
0000
0010
1000
,
0001
0000
0010
0000
0010
0001
0000
0001
0000
0000
1000
0000
0010
0000
1000
0100
,
0010
0000
0001
0000
1000
0001
0000
0010
0000
0000
0001
0000
0100
0000
0010
1000
,
0001
0000
0010
0000
0010
0001
0000
0001
0000
0000
0100
0000
0010
0000
1000
0001
,
0010
0000
0001
0000
0100
0010
0000
0010
1000
0000
0100
0000
0100
0000
0010
0001
,
1000
0000
0001
0000
0100
0010
0000
0010
1000
0000
0001
0000
0010
0000
0001
0100
,
0010
0000
1000
0000
0001
1000
0000
1000
0100
0000
0010
0000
0010
0000
0001
0100
,
0010
0000
1000
0000
0001
1000
0000
1000
0010
0000
1000
0000
0100
0000
1000
0001
,
0010
0000
0001
0000
0100
0010
0000
0010
1000
0000
0001
0000
0001
0000
0010
0001
,
0100
0000
0010
0000
1000
0001
0000
0001
0010
0000
0100
0000
1000
0000
0100
0010
,
0001
0000
1000
0000
0010
1000
0000
1000
0100
0000
0010
0000
0001
0000
0010
0100
,
1000
0000
0001
0000
0100
0010
0000
1000
0001
0000
0010
0000
0001
0000
0100
0010
,
1000
0100
0010
0000
1001
0000
0010
0000
0001
1000
0010
0000
1000
0100
0010
0000
,
0001
1000
0010
0000
0101
0000
0010
0000
1000
0100
0010
0000
0001
1000
0010
0000
,
0100
0001
1000
0000
0110
0000
0001
0000
1000
0100
0010
0000
0001
1000
0010
0000
,
0100
0001
1000
0000
0110
0000
0001
0000
1000
0100
0010
0000
0001
0100
0010
0000
,
1000
0001
0010
0000
1100
0000
0001
0000
0100
0010
1000
0000
0001
0100
0010
0000
,
1000
0001
0010
0000
1100
0000
0010
0000
0001
1000
0010
0000
1000
0001
0010
0000
,
0100
1000
0001
0000
0110
0000
1000
0000
0001
0010
0100
0000
1000
0001
0100
0000
,
0010
1000
0001
0000
0110
0000
1000
0000
0001
0010
0100
0000
1000
0001
0100
0000
,
0010
0010
1000
0010
0100
0000
1001
0000
,
0010
0000
0010
0001
0000
0001
0100
0110
,
0000
0010
1000
0000
0100
0000
0110
0000
0000
1000
0001
0000
0100
0000
0010
0000
,
1000
0000
1000
0000
1000
0100
1000
0100
0010
0000
0001
0000
1001
0000
0000
0010
,
0000
1000
0010
0000
1001
0000
0100
0000
0001
0000
0100
0000
1001
0000
0000
0000
,
0001
0000
0000
0001
1000
0010
0100
0001
1000
0000
0100
0000
0011
0000
0000
1000
,
0000
0001
1000
0000
0110
0000
0001
0000
1000
0000
0001
0000
1100
0000
0000
0000
,
0010
0000
0000
0010
0001
1000
0010
0100
0001
0000
0010
0000
1100
0000
0000
0001
,
0000
0001
0100
0000
1010
0000
0001
0000
1000
0000
0100
0000
0011
0000
0000
0000
,
1000
0000
0000
1000
0100
0010
0001
0100
0010
0000
1000
0000
0101
0000
0000
0010
,
0000
1000
0010
0000
1100
0000
0001
0000
0010
0000
0100
0000
1001
0000
0000
0000
,
0100
0000
0000
0100
0010
0001
0100
0010
1000
0000
0001
0000
0001
0010
0000
0010
,
0100
0000
1000
0000
0001
1000
0010
0100
0001
0000
0010
0000
0100
1000
0000
1000
,
0001
0000
0100
0000
0010
1000
0001
0010
0100
0000
1000
0000
0001
0100
0000
0100
,
0010
0000
1000
0000
0100
0010
0001
1000
0010
0000
1000
0000
0100
0010
0000
0010
,
0001
0000
1000
0000
0010
1000
0100
0010
0001
0000
0100
0000
0010
1000
0000
1000
,
0100
0000
1000
0000
0010
1000
0001
0010
0100
0000
1000
0000
0001
0100
0000
0100
,
0010
0000
1000
0000
0001
0010
0001
1000
0010
0000
1000
0000
0100
0010
0000
0010
,
0001
0000
1000
0000
0010
1000
0010
0100
0001
0000
1000
0000
0100
0010
0000
0010
,
0100
0000
1000
0000
0001
0010
1000
0010
0001
0000
1000
0000
0010
0000
0000
0100
,
0001
0100
0001
0100
0010
1000
0001
0000
0020
0000
0130
1000
0001
0000
0000
0000
,
1000
0000
0000
1000
0001
0100
0010
1000
0001
0000
0100
0000
0010
0000
0000
0100
,
0010
0100
0001
0100
0010
1000
0010
0000
0100
0010
0100
0010
1000
0000
0001
0010
,
0100
0000
0000
0000
0000
0000
0000
0000
1000
0000
0000
0000
0001
0000
0000
0000
1000
0000
0000
0000
0010
0000
0000
0000
1000
0000
0000
0000
0100
0000
0000
0000
1000
0000
0000
0000
0000
0000
0000
0000
0002
0000
0000
0000
0000
0000
0000
0000
0003
1000
0000
0000
0000
0000
0000
0000
0100
0000
0000
0000
0010
0000
0000
0000
,
0001
0010
0100
1000
0001
0100
0001
0100
0010
1000
0000
0000
0100
0010
0100
0010
,
0001
1000
0000
1001
0000
0001
0100
0010
0100
0001
0010
0100
1000
0100
0010
0001
,
1000
0001
0100
0010
1000
0010
0100
0001
0010
0100
1000
0010
0100
0001
0010
0100
,
2002
0000
0000
0000
,
0000
0000
0000
0000
0000
0000
0000
3003
,
0110
0100
0100
0100
,
1001
0000
0100
0000
0010
0001
0010
0100
1000
0000
0001
0000
0100
0010
1000
0010
,
0100
0000
0001
0000
1000
0100
0000
0100
0010
0000
0001
0000
1000
0000
0001
0100
,
0010
0000
1000
0000
0001
0010
0100
0010
0001
0000
1000
0000
0010
1000
0010
0100
,
0001
0000
1000
0000
0100
0010
0000
0010
0100
0000
1000
0000
0001
0000
0100
0010
,
1000
0000
0001
0000
0010
0001
0010
0100
1000
0000
0001
0000
0100
0010
1000
0100
,
0010
0000
0001
0000
1000
0010
0000
0010
1000
0000
0001
0000
0010
0000
0100
1000
,
0001
0000
0010
0000
0001
0100
0010
1000
0001
0000
0010
0000
0001
0100
0010
1000
,
0100
0000
0010
0000
0001
1000
0010
1000
0100
0000
0010
0000
0001
0000
1000
0010
,
0100
0000
1001
0000
0100
0010
0100
0001
1000
0000
0110
0000
1001
0000
0010
0100
,
0001
0000
1010
0000
0100
0001
0000
0001
1000
0000
0110
0000
1001
0000
0001
1000
,
0010
0000
1001
0000
0100
0010
0001
1000
0010
0000
1100
0000
0101
0000
1000
0001
,
0010
0000
1100
0000
0001
0100
0000
0100
0010
0000
1010
0000
0101
0000
1000
0100
,
0010
0000
1001
0000
0001
1000
0010
0100
0001
0000
0011
0000
1100
0000
0010
0100
,
0001
0000
1001
0000
0001
0100
0010
1000
0001
0000
0110
0000
1001
0000
0100
0010
,
1000
0000
0011
0000
0010
0001
0100
0010
1000
0000
1001
0000
0110
0000
1001
0000
,
0100
0010
1000
0000
0010
0100
0001
1000
0100
0000
0011
0000
1100
0000
0010
0100
,
2002
0000
0000
0000
,
3003
0000
0000
0000
,
;

//----------------dance-single - SManiac----------------
#NOTES:
     dance-single:
     FFR R2:
     SManiac:
     11:
     -1.000,-1.000,-1.000,-1.000,-1.000:
0000
0000
0000
0000
,
0000
0000
0000
0000
,
0000
0000
0000
0000
,
1000
0000
0010
0100
0010
1000
0001
0010
0100
0000
0010
0001
1000
0001
0100
0010
,
1001
1100
1000
1000
,
1010
0000
1010
0001
1000
0100
1000
0100
,
1001
1001
1000
1000
,
1001
0000
0010
0100
0010
1000
0001
0010
0100
0000
0010
0001
1000
0001
0100
0010
,
1000
0001
0000
1001
0000
0001
0100
0001
0010
0001
0000
1001
0000
1000
0000
1000
,
0010
1000
0000
1001
0000
0001
0100
0010
1000
0001
0000
0011
0000
0010
0000
0010
,
0100
1000
0000
1100
0000
0100
0010
0001
1000
0010
0000
0110
0000
0010
0000
0010
,
0100
0001
0000
1001
0000
1000
0100
1000
0001
0010
0000
0011
0000
0001
0100
0010
,
1001
0100
0010
0100
1001
0000
0110
0000
1000
0100
0010
0001
0100
0010
1000
0000
,
0001
0010
0100
0010
1001
0000
0110
0000
0001
0010
0001
0100
0010
1000
0100
0000
,
1000
0001
0010
0001
1100
0000
0011
0000
1000
0010
0100
0001
1000
0100
0010
0000
,
0001
1000
0010
1000
0101
0000
1010
0000
1000
0100
0010
0001
1000
0010
0100
0000
,
0001
0100
0010
0100
1001
0000
0110
0000
1000
0100
0010
0100
1000
0001
0100
0000
,
0010
1000
0001
1000
0110
0000
1001
0000
0010
0001
0010
0100
1000
0001
0100
0000
,
0010
1000
0100
1000
0011
0000
1100
0000
0010
0100
0001
0010
0100
0010
0001
0000
,
0010
0100
1000
0100
0011
0000
1100
0000
0010
1000
0100
0010
0001
1000
0110
0000
,
1001
0000
0000
0000
0000
0000
0000
0000
0010
0000
0000
0000
1001
0000
0000
0000
0110
0000
0000
0000
0000
0000
0000
0000
0000
0000
0000
0000
0110
0000
0000
0000
1001
0000
0000
0000
0000
0000
0000
0000
0010
0000
0000
0000
0100
0000
0000
0000
0001
0000
0000
0000
1000
0000
0100
0000
1000
0000
0100
0000
1000
0000
0100
0000
,
2002
0000
0000
0000
0000
0000
0000
3003
1000
0100
0010
0000
0001
0100
0010
1000
,
1001
0000
0110
0000
0010
0100
0000
0100
1000
0000
0011
0000
1100
0000
1000
0001
,
0100
0000
1010
0000
1000
0010
0000
0010
1001
0000
0011
0000
1100
0000
0010
1000
,
0101
0000
0110
0000
1000
0001
0000
0001
0110
0000
1001
0000
1001
0000
0001
0010
,
1100
0000
0011
0000
0001
0100
0000
0100
1001
0000
1010
0000
1100
0000
0010
0001
,
1100
0000
0110
0000
0010
0001
0000
0001
0100
0000
1010
0000
1001
0000
0001
0100
,
0010
0000
1001
0000
0001
1000
0110
1000
0001
0000
1010
0000
0101
0000
0010
1000
,
0011
0000
0110
0000
0010
0100
0000
0100
1000
0000
1001
0000
0101
0000
0010
1000
,
0011
0000
0110
0000
0100
0010
1001
0010
0100
0000
1010
0000
1001
0000
0010
0100
,
1001
0000
0110
0000
0010
0100
0000
0100
1000
0000
0011
0000
1100
0000
1000
0001
,
0100
0000
1010
0000
1000
0010
0000
0010
1001
0000
0011
0000
1100
0000
0010
1000
,
0101
0000
0110
0000
1000
0001
0000
0001
0110
0000
1001
0000
1001
0000
0001
0010
,
1100
0000
0011
0000
0001
0100
0000
0100
1001
0000
1010
0000
1100
0000
0010
0001
,
1100
0000
0110
0000
0010
0001
0000
0001
0100
0000
1010
0000
1001
0000
0001
0100
,
0010
0000
1001
0000
0001
1000
0110
1000
0001
0000
1010
0000
0101
0000
0010
1000
,
0011
0000
0110
0000
0010
0100
0000
0100
1000
0000
1001
0000
0101
0000
0010
1000
,
0011
0000
0110
0000
0100
0010
1001
0010
0100
0000
1010
0000
1001
0000
0001
0010
,
1100
0000
0011
0000
1000
0100
0000
0100
0010
0000
1010
0000
0101
0000
0010
0001
,
0100
0000
0110
0000
0010
1000
0000
1000
0001
0000
0110
0000
1001
0000
0010
0001
,
1000
0000
0011
0000
0010
0001
0000
0001
0100
0000
1001
0000
1001
0000
0001
0100
,
1010
0000
0101
0000
0001
0010
1100
0010
0001
0000
0110
0000
1100
0000
0010
0001
,
0110
0000
1001
0000
0001
0010
0000
0010
0100
0000
1100
0000
0101
0000
0001
0100
,
0010
0000
0110
0000
0010
0100
0000
0100
0010
0000
0011
0000
1100
0000
1000
0001
,
0100
0000
1001
0000
1000
0100
0000
0100
0010
0000
0011
0000
1001
0000
1000
0100
,
0011
0000
1100
0000
0100
0010
1001
0010
0100
0000
1100
0000
0110
0000
0010
0001
,
1100
1000
0110
1000
1100
0000
0011
0000
,
1010
0001
0010
0001
1100
0000
0110
0000
0011
0000
1100
0000
1000
0100
1001
0010
,
0000
0100
1000
0000
0001
0100
1001
0010
0000
0100
0001
0000
1001
0000
1001
0000
,
1100
0000
1001
0000
0010
0100
0010
0100
0011
1000
0001
1000
0110
0001
1000
0010
,
0100
0010
0110
0000
1001
0100
1000
0000
0010
0100
0001
1000
0110
0001
1000
0000
,
0010
0100
0001
1000
1001
0100
0010
0001
0010
0100
0010
0001
1010
0000
0010
1000
,
0100
1000
1001
0000
0011
0100
0010
1000
0001
0010
0100
1000
0101
0000
0010
1000
,
0001
0010
0100
1000
1100
0010
0100
0001
0010
0001
0010
0100
1001
0000
0010
1000
,
0100
0010
0011
0000
0110
1000
0100
0010
0001
0100
0001
0100
1001
0000
0010
1000
,
0100
0010
0001
1000
1010
0001
1000
0001
0010
0000
0010
0100
1001
0000
0001
0100
,
0010
1000
1001
0000
0110
0001
1000
0010
0100
0001
0010
0100
1001
0000
0010
1000
,
0100
0010
0100
1000
1001
0100
0010
0100
1001
0000
0110
0000
1000
0100
0010
0100
,
1000
0000
0101
0000
1010
0000
0001
1000
0100
0000
0110
0000
0001
0100
0010
0100
,
0001
0000
1100
0000
0011
0000
1000
0001
0100
0000
0110
0000
1000
0001
0010
0001
,
1000
0000
0110
0000
1001
0000
0010
0100
0001
0000
0110
0000
0001
1000
0010
1000
,
0001
0000
0110
0000
1001
0000
0010
0100
1000
0000
0001
0100
1010
0100
0001
0010
,
0100
1000
1001
0000
0110
0001
0010
0100
1000
0001
1000
0100
0011
0100
1000
0010
,
0100
0001
0010
0100
0110
1000
0010
0100
0001
1000
0100
0010
1001
0000
0100
0010
,
1000
0010
0110
0000
1001
0100
0010
0001
1000
0010
0100
0001
0110
0000
1001
0000
,
1010
0010
1000
0010
1001
0010
0001
0010
1100
0000
1000
0000
0110
0000
0000
1000
,
0001
0000
0000
0000
0000
0000
0000
0000
0000
0000
0000
0000
1000
0000
0000
0000
0000
0000
0000
0000
0000
0000
0000
0000
1000
0000
0000
0000
0000
0000
0000
0000
0000
0000
0000
0000
0001
0000
0000
0000
0000
0000
0000
0000
0000
0000
0000
0000
0110
0000
0000
0000
0000
0000
0000
0000
0000
0000
0000
0000
0001
0000
0000
0000
0000
0000
0000
0000
0000
0000
0000
0000
1000
0000
0000
0000
0000
0000
0000
0000
0000
0000
0000
0000
0000
0000
0000
0000
0000
0000
0000
0000
0000
0000
0000
0000
2000
0000
0000
0000
0000
0000
0000
0000
0000
0000
0000
0000
0000
0000
0000
0000
0000
0000
0000
0000
0000
0000
0000
0000
3001
0000
0000
0000
0000
0000
0000
0000
0000
0000
0000
0000
0010
0000
0000
0000
0000
0000
0000
0000
0000
0000
0000
0000
1100
0000
0000
0000
0000
0000
0000
0000
0000
0000
0000
0000
0001
0000
0000
0000
0000
0000
0000
0000
0010
0000
0000
0000
0000
0000
0000
0000
0100
0000
0000
0000
0000
0000
0000
0000
0000
0000
0000
0000
0000
0000
0000
0000
0000
0000
0000
0000
,
1000
0001
0100
0010
1001
0010
0001
0010
1100
0000
0100
0000
0010
0000
0000
0100
,
0010
0100
0100
0010
0001
1000
0001
0000
0100
0010
0100
0010
1000
0000
0001
0010
,
0100
0000
0000
0000
0000
0000
0000
0000
1000
0000
0000
0000
0001
0000
0000
0000
0100
0000
0000
0000
0010
0000
0000
0000
1000
0000
0000
0000
0100
0000
0000
0000
0010
0000
0000
0000
0000
0000
0000
0000
0002
0000
0000
0000
0000
0000
0000
0000
0003
1000
0000
0000
0000
0000
0000
0000
0100
0000
0000
0000
0010
0000
0000
0000
,
0001
0100
0010
1000
0001
0010
0001
0010
0100
1000
0000
0000
0010
0100
0010
0100
,
0001
1000
0000
1001
0000
0100
0010
0100
1000
0001
0100
0010
1001
0100
0010
1000
,
0001
0010
0001
0100
1001
0010
1000
0010
0100
0001
0010
0100
1001
0010
0100
0010
,
2002
0000
0000
0000
,
0000
0000
0000
0000
0000
0000
0000
3003
,
0110
0100
0100
0100
,
0011
0000
0100
0000
1001
0100
0010
0100
1001
0000
0110
0000
0011
1000
0001
1000
,
0101
0000
0110
0000
1000
0001
0010
0001
1100
0000
0011
0000
0001
0100
0010
1000
,
0101
0000
1010
0000
1001
0100
0010
0100
1001
0000
0110
0000
1010
0001
0010
0100
,
1001
0000
0110
0000
0100
0010
0001
1000
0101
0000
1010
0000
0001
0010
0100
0010
,
1001
0000
0110
0000
1001
0010
0100
1000
0011
0000
0110
0000
1100
0001
0100
0010
,
1001
0000
0110
0000
1001
0010
0100
0010
1001
0000
0110
0000
1010
0001
0100
0010
,
1001
0000
0110
0000
1001
0010
0100
0010
1001
0000
0110
0000
1010
0001
0100
0010
,
1100
0000
0011
0000
1010
0001
0010
0100
1001
0000
1100
0000
0110
1000
0001
0100
,
1001
0100
0010
0000
1001
0010
0100
0010
1001
0000
0101
0000
1100
0000
0010
0001
,
1100
0010
0100
0000
1001
0100
0010
0001
0110
1000
0001
0000
1010
0001
0100
0010
,
1001
0100
0010
0000
1010
0001
1000
0001
0110
0000
1010
0000
0101
0000
0100
0010
,
1001
0010
0100
0000
1001
0010
0100
0001
0110
1000
0100
0000
1001
0010
0100
1000
,
0011
0100
1000
0000
1001
0100
0010
0100
1001
0000
0101
0000
1100
0000
0001
1000
,
0110
0001
1000
0000
1001
0010
0001
0010
1100
0000
0011
0000
0101
0000
0011
1000
,
0001
0100
1001
0000
0110
0001
1000
0001
0110
0000
1010
0000
0101
0000
0010
0100
,
1001
0100
0010
0000
1001
0100
0010
1000
0101
0000
1010
0000
1100
0000
0011
0100
,
2002
0000
0000
0000
,
3003
0000
0000
0000
,
;
