#TITLE:Roller Coaster Ride;
#ARTIST:sleeplessdragn;
#BANNER:Roller Coaster Ride.png;
#BACKGROUND:Roller Coaster Ride-bg.png;
#MUSIC:Roller Coaster Ride.mp3;
#OFFSET:-0.040;
#SELECTABLE:YES;
#CREDIT:converted by Vyhd;
#BPMS:0.000=145.00;
#STOPS:;
#BGCHANGES:;

//----------------dance-single - Basic----------------
#NOTES:
     dance-single:
     FFR R2:
     Basic:
     4:
     -1.000,-1.000,-1.000,-1.000,-1.000:
0000
0000
0000
0000
,
0000
0000
0000
0000
,
0000
0000
0000
0000
,
0000
0000
0000
0000
,
0001
0010
0100
1000
,
0001
0100
0010
1000
,
0001
0010
0100
1000
,
0001
0000
0100
0000
0010
0000
1000
0001
,
1000
0100
0010
0001
,
1000
0010
0100
0001
,
1000
0100
0010
0001
,
1000
0010
0100
0001
,
0011
1000
0000
1000
,
0011
1000
0001
0010
,
1100
0001
0000
0001
,
0110
1000
0001
0010
,
1100
0001
0010
1000
,
0101
0010
1000
0010
,
0101
1000
0100
0010
,
1001
0100
0000
0100
,
2001
0000
0000
3000
,
0200
0300
2000
3000
,
0020
0000
0000
0030
,
0200
0000
0000
0300
,
0002
0003
0020
0030
,
0200
0300
2000
3000
,
0002
0003
0200
0300
,
0020
0000
0030
1000
,
2001
0000
0000
3000
0200
0000
0000
0300
,
0020
0000
0000
0030
0002
0000
0000
0003
,
0200
0000
0000
0300
0020
0000
0000
0030
,
2000
0000
0000
3000
0002
0000
0000
0003
,
0200
0000
0000
0300
0020
0000
0000
0030
,
0200
0000
0000
0300
0002
0000
0000
0003
,
2000
0000
0000
3000
0200
0000
0000
0300
,
0020
0000
0000
0030
0200
0000
0000
0300
,
1000
0001
0000
0001
0000
0001
0000
0001
,
0000
0010
0000
0010
0000
0010
0000
0010
,
0000
1000
0000
1000
0000
1000
0000
1000
,
0000
0100
0000
0100
0000
0100
0000
0100
,
0000
0001
0000
0001
0000
0001
0000
0001
,
0000
0010
0000
0010
0000
0010
0000
0010
,
0000
1000
0000
1000
0000
1000
0000
1000
,
0000
0100
0000
0100
0000
0100
0000
0100
,
0001
0000
0000
1000
0000
0001
1000
0001
,
0100
0010
0100
0000
0000
0000
0001
0000
,
0001
0000
0000
1000
0000
0010
0100
0010
,
0000
0000
1000
0000
0001
0000
0010
0100
,
0010
0000
0000
0001
0000
0100
0010
0100
,
1000
0001
1000
0000
0000
0000
0100
0000
,
0010
0000
0000
0001
0000
1000
0001
1000
,
0010
0100
0010
0100
0001
1000
0001
1000
,
0001
0010
0100
1000
,
0001
0010
0100
1000
,
0001
0100
0010
1000
,
0001
0100
0010
1000
,
0001
0100
0001
1000
,
0100
1000
0010
0100
,
0001
0010
0001
1000
,
0010
1000
0100
0010
,
1001
0010
0100
0010
,
1001
0010
0100
0010
,
1001
0010
0100
0010
,
1001
0100
1001
0110
,
2002
0000
0000
0000
,
3003
0000
0000
0000
,
;

//----------------dance-single - Maniac----------------
#NOTES:
     dance-single:
     FFR R2:
     Maniac:
     8:
     -1.000,-1.000,-1.000,-1.000,-1.000:
0000
0000
0000
0000
,
0000
0000
0000
0000
,
0000
0000
0000
0000
,
0000
0000
0000
0000
,
0001
0010
0100
0100
1000
0010
0100
0100
,
0001
1000
0100
0100
1000
0001
0100
0100
,
0010
1000
0001
0001
0010
0001
1000
1000
,
0100
1000
0001
0001
0100
0001
1000
1000
,
0010
0100
0001
0001
1000
0010
0100
0100
,
0001
1000
0100
0100
0010
0100
1000
1000
,
0001
1000
0010
0010
0100
0001
1000
1000
,
0010
0100
0010
0010
1000
0100
0010
0010
,
0001
0010
0000
0010
0100
0010
0100
0010
,
0001
1000
0000
1000
0001
1000
0001
1000
,
0100
0010
0000
0010
0100
0010
0100
0010
,
0001
1000
0000
1000
0001
1000
0001
1000
,
0001
0100
0000
0100
0010
1000
0100
0010
,
0001
0100
0000
0100
0010
1000
0001
0100
,
0010
0100
0000
0100
0001
1000
0100
0010
,
0001
1000
0100
1000
0001
0010
0001
0100
,
0020
1000
0000
1000
0000
1000
0030
1000
,
0002
0100
0003
0100
0020
1000
0030
1000
,
0002
0010
0000
0010
0000
0010
0003
0010
,
0200
1000
0000
1000
0000
1000
0300
1000
,
0020
0100
0030
0100
0002
0010
0003
0010
,
0200
1000
0300
1000
0020
0100
0030
0100
,
0002
0010
0003
0010
0200
1000
0300
1000
,
0020
0100
0000
0100
0030
0100
0001
1000
,
1001
0010
0001
0010
0001
0010
0001
0010
,
0100
1000
0100
1000
0010
0100
0010
0100
,
0001
1000
0001
1000
0001
1000
0001
1000
,
0100
0010
0100
0010
0100
0010
0100
0010
,
0001
1000
0001
1000
0100
0001
0100
0001
,
0100
1000
0100
1000
0010
0100
0010
0100
,
0001
1000
0001
0000
0010
0001
0010
0001
,
0010
1000
0010
1000
0010
1000
0001
0010
,
1001
0100
0000
0001
0000
1000
0000
0010
,
0001
0100
0000
0010
0000
1000
0000
0001
,
0100
1000
0000
0010
0000
0100
0000
1000
,
0010
0100
0000
0001
0000
0010
0000
0100
,
1000
0001
0000
0100
0000
0010
0000
0001
,
0010
1000
0000
0010
0000
0100
0000
0001
,
0010
1000
0000
0100
0000
0001
0000
0010
,
1000
0001
0000
0100
0000
0001
1000
0010
,
1001
0000
0000
0110
0000
0110
1000
0001
,
1001
0000
1001
0000
1001
0000
0000
0000
0000
0000
0100
1000
0100
0000
0000
0100
,
0010
0000
0000
1001
0000
0011
1100
1100
,
0000
0000
0001
0100
0001
0000
1000
0100
1000
0000
0001
0000
0110
0000
0110
0000
,
1001
0000
0000
0110
0000
1100
0010
0001
,
0101
0000
0101
0000
1001
0000
0000
0000
0000
0000
1000
0001
1000
0000
0000
0100
,
0010
0000
0000
1001
0000
0110
1000
0001
,
1000
0000
0001
0010
0001
0000
1000
0010
1000
0000
0001
1000
0001
1000
0100
0010
,
0100
0000
1000
0000
0010
0100
0010
0000
0100
0000
0001
0000
0010
0100
0010
0000
,
0100
0000
1000
0000
0001
0100
0001
0000
1000
0000
0001
0000
1000
0100
1000
0000
,
0010
0000
0100
0000
0001
0010
0001
0000
0100
0000
0010
0000
1000
0100
1000
0000
,
0001
0000
1000
0000
0100
0010
0100
0000
1000
0000
0001
0000
0100
0010
0100
0000
,
0001
1000
0100
1000
0001
0010
0100
1000
,
0010
0100
0001
1000
0001
0100
1000
0100
,
0001
0010
0100
1000
0001
0100
0010
1000
,
0001
1000
0100
1000
0001
0010
1000
0010
,
1001
0100
0010
1000
0100
0010
0001
0100
,
1001
0100
0010
0001
0100
0010
1000
0100
,
1001
0100
1000
0010
0001
0100
1000
0010
,
1001
0100
0010
0100
1001
0010
1001
0100
,
2002
0000
0000
0000
,
3003
0000
0000
0000
,
;

//----------------dance-single - SManiac----------------
#NOTES:
     dance-single:
     FFR R2:
     SManiac:
     11:
     -1.000,-1.000,-1.000,-1.000,-1.000:
0000
0000
0000
0000
,
0000
0000
0000
0000
,
0000
0000
0000
0000
,
0000
0000
0000
0000
,
0001
0000
0010
0000
0100
1000
0100
0000
0010
0000
0001
0000
0100
0010
0100
0000
,
0001
0000
1000
0000
0010
0100
0010
0000
1000
0000
0001
0000
1000
0100
1000
0000
,
0001
0000
1000
0000
0001
0100
0001
0000
1000
0000
0010
0000
0100
0001
0100
0000
,
0001
0000
0010
0000
0100
1000
0100
0000
1000
0000
0001
0000
0100
0010
1000
0010
,
0100
0000
0001
0000
0010
0100
1000
0000
0001
0000
0100
0000
0010
1000
0001
0000
,
0100
0000
0001
0000
0010
0100
1000
0000
0001
0000
0100
0000
0001
1000
0010
0000
,
0100
0000
0001
0000
1000
0001
0010
0000
0001
0000
0100
0000
0010
1000
0001
0000
,
0100
0000
0001
0000
1000
0010
0100
0000
0001
0000
0010
0000
0100
1000
0001
1000
,
0110
0000
0100
0001
1000
0001
0100
0000
0010
0000
1000
0001
0010
0001
1000
0000
,
0110
0000
0010
0001
0100
0001
0010
0000
0101
0000
1000
0010
1000
0100
1000
0000
,
0011
0000
0100
0001
1000
0001
0100
0000
0010
0000
0100
0001
1000
0001
0010
0000
,
1100
0000
1000
0010
0100
0001
1000
0000
0011
1000
0010
0100
0001
0100
0010
1000
,
0011
0000
0100
0001
0010
0100
1000
0000
0110
0000
0010
0001
1000
0100
1000
0000
,
1010
0000
0100
0001
1000
0010
1000
0000
0110
0000
1000
0001
0010
0001
0100
0000
,
0011
0000
1000
0001
0100
0010
1000
0000
0110
0000
0010
0001
1000
0010
0100
0000
,
1010
0000
1000
0001
0010
0100
0010
0000
0001
0100
0010
1000
0100
1000
0010
0100
,
1002
0000
0000
0000
0000
0000
0000
0000
1000
0000
0000
0000
0000
0000
0000
0000
0000
0000
0000
0000
0000
0000
0000
0000
1000
0000
0000
0000
0000
0000
0000
0000
0000
0000
0000
0000
0000
0000
0000
0000
0000
0000
0000
0000
0000
0000
0000
0000
0000
0000
0000
0000
0000
0000
0000
0000
1000
0000
0000
0000
0000
0000
0000
0003
,
2000
0000
0000
0000
0000
0000
0000
0000
0000
0000
0000
0000
0000
0000
0000
0000
0000
0000
0000
0000
0000
0000
0000
0000
0100
0000
0000
0000
0000
0000
0000
3000
0200
0000
0000
0000
0000
0000
0000
0000
0000
0000
0000
0000
0000
0000
0000
0000
0000
0000
0000
0000
0000
0000
0000
0000
0010
0000
0000
0000
0000
0000
0000
0300
,
0020
0000
0000
0000
0000
0000
0000
0000
0001
0000
0000
0000
0000
0000
0000
0000
0000
0000
0000
0000
0000
0000
0000
0000
0001
0000
0000
0000
0000
0000
0000
0000
0000
0000
0000
0000
0000
0000
0000
0000
0000
0000
0000
0000
0000
0000
0000
0000
0000
0000
0000
0000
0000
0000
0000
0000
0001
0000
0000
0000
0000
0000
0000
0030
,
0002
0000
0000
0000
0000
0000
0000
0000
0100
0000
0000
0000
0000
0000
0000
0000
0000
0000
0000
0000
0000
0000
0000
0000
0100
0000
0000
0000
0000
0000
0000
0000
0000
0000
0000
0000
0000
0000
0000
0000
0000
0000
0000
0000
0000
0000
0000
0000
0000
0000
0000
0000
0000
0000
0000
0000
0100
0000
0000
0000
0000
0000
0000
0003
,
0200
0000
0000
0000
0000
0000
0000
0000
0000
0000
0000
0000
0000
0000
0000
0000
0000
0000
0000
0000
0000
0000
0000
0000
0010
0000
0000
0000
0000
0000
0000
0300
0020
0000
0000
0000
0000
0000
0000
0000
1000
0000
0000
0000
0000
0000
0000
0000
0000
0000
0000
0000
0000
0000
0000
0000
1000
0000
0000
0000
0000
0000
0000
0030
,
0000
0000
0000
0000
0000
0000
0000
0000
0001
0000
0000
0000
0000
0000
0000
0000
0000
0000
0000
0000
0000
0000
0000
0000
0001
0000
0000
0000
0000
0000
0000
0000
0002
0000
0000
0000
0000
0000
0000
0000
0000
0000
0000
0000
0000
0000
0000
0000
0000
0000
0000
0000
0000
0000
0000
0000
0010
0000
0000
0000
0000
0000
0000
0003
,
0020
0000
0000
0000
0000
0000
0000
0000
0000
0000
0000
0000
0000
0000
0000
0000
0000
0000
0000
0000
0000
0000
0000
0000
0001
0000
0000
0000
0000
0000
0000
0030
0002
0000
0000
0000
0000
0000
0000
0000
0000
0000
0000
0000
0000
0000
0000
0000
0000
0000
0000
0000
0000
0000
0000
0000
0100
0000
0000
0000
0000
0000
0000
0003
,
0200
0010
0000
0000
0000
0010
0310
0100
,
1001
0100
0010
0001
0010
0100
0000
0000
0010
0001
1000
0001
0100
0001
1000
0000
,
1010
0100
0001
1000
0010
1000
0001
0000
0011
0100
1000
0010
0100
0001
0010
0000
,
1100
0001
0100
0001
1000
0100
1000
0000
0010
0001
1000
0100
0001
0100
1000
0000
,
0110
1000
0001
0100
1000
0100
0001
0000
0001
0010
0100
1000
0010
0100
0000
0000
,
1100
0010
0001
0010
0100
1000
0000
0000
1010
0100
0001
0100
0010
1000
0000
0000
,
0110
0001
1000
0001
0010
0100
0010
0000
1001
0100
0010
0100
0001
1000
0000
0000
,
1010
0100
0001
0010
0100
1000
0010
0000
0101
0010
1000
0100
0010
0001
0000
0000
,
1001
0100
0010
0001
0100
0010
1000
0001
1000
0010
0100
0001
0010
0100
1000
0010
,
1001
0001
0100
0001
1000
0010
0100
0001
,
0110
1000
0001
0100
1010
0100
0001
1000
,
1100
0010
0001
1000
0100
1000
0001
0010
,
1001
0001
0100
0010
0100
0001
0010
0100
,
1001
0010
1000
0100
1001
0010
0001
0100
,
0110
0001
1000
0010
0110
1000
0001
0010
,
1100
0010
0001
0100
0011
0100
1000
0010
,
1001
0100
0010
1000
0100
0010
0110
1000
,
1001
0000
0000
0110
0000
1100
1001
0101
,
0110
0000
0110
0000
0110
0000
0000
0000
0000
0000
1100
1100
1100
0000
0011
0011
,
1001
0000
0000
0110
0000
1100
1001
0101
,
0000
0000
1010
1010
1001
0000
0011
0011
1001
0000
0110
0000
1001
0000
0110
0000
,
1001
0000
0000
0110
0000
0011
1100
1001
,
1010
0000
1010
0000
1010
0000
0000
0000
0000
0000
1100
0000
0011
0000
0101
0101
,
1001
0000
0000
0110
0000
1010
0101
1001
,
0011
0000
0011
0000
0101
0000
1001
1001
0110
0000
0110
0000
1001
0110
1001
0110
,
1001
0100
0010
0001
0100
0010
1000
0001
1000
0100
0010
0100
1000
0010
0100
0010
,
1000
0001
0100
0001
0010
0001
0100
0001
0010
0100
1000
0100
0010
0100
1000
0100
,
1000
0010
0100
0001
0100
0010
0100
0001
0010
0100
1000
0100
0010
0001
0100
0010
,
1000
0001
0100
0001
1000
0001
0010
0001
1000
0100
0010
0001
1000
0010
0100
0001
,
1001
0100
1000
0001
0110
0001
0100
0010
,
1001
0100
1000
0010
0110
0001
1000
0010
,
1001
0100
1000
0001
0110
0010
0001
0100
,
1001
0010
0100
0001
0110
0001
1000
0010
,
1001
0100
0010
0001
0100
0010
1000
0000
0010
1000
0001
0100
0001
0010
0100
0000
,
1001
0010
0100
0001
1000
0001
0100
0000
0010
1000
0001
0100
0001
0010
0100
0000
,
1001
0010
0001
0010
0100
1000
0010
0000
0100
0001
0010
0100
1000
0010
0100
0000
,
1001
0100
0010
0001
0100
0010
1000
0000
1001
0010
0001
0100
1001
0010
1000
0100
,
2002
0000
0000
0000
,
3003
0000
0000
0000
,
;
