#TITLE:Playdoh;
#ARTIST:Sektone;
#BANNER:Playdoh.png;
#BACKGROUND:Playdoh-bg.png;
#MUSIC:Playdoh.mp3;
#OFFSET:-0.034;
#SELECTABLE:YES;
#CREDIT:converted by Vyhd;
#BPMS:0.000=185.00;
#STOPS:;
#BGCHANGES:;

//----------------dance-single - Basic----------------
#NOTES:
     dance-single:
     FFR R2:
     Basic:
     4:
     -1.000,-1.000,-1.000,-1.000,-1.000:
1000
0000
0000
0000
,
0000
0010
0000
0000
,
1000
0000
0001
0000
,
0000
0000
0000
0001
,
1000
0000
0000
0000
,
0000
0100
0000
0000
,
2002
0000
0000
0000
,
3003
0000
0000
0000
,
1000
0000
0001
0000
,
1000
0000
0000
0001
0000
1000
0000
0000
,
0010
0000
0100
0000
,
0100
0010
0000
0010
0000
0000
0100
0000
,
0010
0000
0100
0000
,
0001
0000
0000
0100
0000
0001
0000
0000
,
1000
0000
0010
0000
,
0100
0100
0100
1000
,
0001
0000
0100
0000
,
0010
0000
0000
0010
0000
0100
0000
0000
,
1000
0000
0001
0000
,
1000
0001
0000
0100
0000
0100
0000
0000
,
0010
0100
0010
0100
,
0001
1000
0001
1000
,
0001
0100
0010
0100
,
0010
0100
0010
0100
,
0011
0000
0000
0000
1000
0011
0000
0000
,
0100
0000
0001
0010
,
1100
0000
0000
0010
0001
0100
0000
0000
,
1001
0000
0010
0100
,
1001
0000
0000
1000
0010
0100
0000
0000
,
0011
0000
1000
0001
,
0110
0000
0000
1000
0001
0100
0000
0000
,
1001
0000
0000
0010
0000
0000
1001
0000
,
2002
0000
0000
0000
3003
0100
0010
0000
,
0022
0000
0033
1000
0000
0001
1000
0000
,
2200
0000
3300
0001
0000
1000
0001
0000
,
0220
0000
0330
1000
0000
0001
0010
0000
,
0022
0000
0033
1000
0000
0100
0010
0000
,
2200
0000
3300
0001
0000
1000
0001
0000
,
0220
0000
0330
1000
0000
0000
0001
0000
,
0110
0000
0000
1001
0000
0000
0000
0000
,
0220
0000
0330
0001
0000
0100
0010
0000
,
2200
0000
3300
0010
0000
1000
0100
0000
,
0022
0000
0033
0001
0000
0010
0100
0000
,
2200
0000
3300
0100
0000
0001
0010
0000
,
2200
0000
3300
1000
0000
0001
1000
0000
,
0022
0000
0033
0001
0000
1000
0001
0000
,
0110
0000
0000
0110
0000
0000
1001
0000
,
0110
0000
0000
0110
0000
0000
0110
0000
,
2002
0000
0000
0000
,
0000
0000
0000
0000
,
0000
0000
0000
0000
,
0000
0000
0000
0000
0000
0000
0000
3003
,
0020
0000
0000
0000
0000
0000
0000
0030
,
0200
0000
0000
0000
0000
0000
0000
0300
,
2000
0000
0000
0000
0000
0000
0000
3000
,
0220
0000
0000
0000
0000
0000
0000
0330
,
0002
0000
0000
0000
0000
0000
0000
0003
,
0020
0000
0000
0000
0000
0000
0000
0030
,
2200
0000
0000
0000
,
0000
0000
0000
0000
0000
0000
0000
3300
,
2000
0000
0000
0000
0000
0000
0000
0000
0000
0000
0000
0000
0000
0000
0000
0000
0000
0000
0000
0000
0000
0000
0000
0000
0000
0000
0000
0000
0000
0000
0000
0000
0000
0000
0000
0000
0000
0000
0000
0000
0000
0000
0000
0000
0000
0000
0000
0000
0000
0000
0000
0000
0000
0000
0000
0000
0000
0000
0000
0000
0000
0000
0000
3000
,
0020
0000
0000
0000
0000
0000
0000
0030
,
0022
0000
0000
0000
,
0000
0000
0000
0033
,
1001
0000
0100
0000
,
1001
0000
0010
0000
,
0101
0000
0100
0000
,
1010
0000
0100
0000
,
0110
0000
0000
0000
,
2002
0000
0000
0000
,
0000
0000
0000
0000
0000
0000
0000
3003
,
0000
0000
0000
0000
,
1000
0000
0000
0001
0000
0000
0100
0000
,
1000
0000
0000
0001
0000
0000
0001
0000
,
0100
0000
0000
0010
0000
0000
0100
0000
,
1000
0000
0000
0100
0000
0000
0010
0000
,
0001
0000
0000
1000
0000
0000
0100
0000
,
0010
0000
0000
0001
0000
0000
0100
0000
,
0010
0000
0000
0100
0000
0000
0100
0000
,
0001
0000
0000
0010
0000
0000
1000
0000
,
0010
0000
0000
0100
0000
0000
1000
0000
,
0001
0000
0000
0100
0000
0000
0001
0000
,
0010
0000
0000
0100
0000
0000
1000
0000
,
0100
0000
0000
1000
0000
0000
0001
0000
,
0010
0000
0000
0001
0000
0000
0100
0000
,
0010
0000
0000
0100
0000
0000
1000
0000
,
0001
0000
0000
0010
0000
0000
0010
0000
,
0100
0000
0000
0001
0000
0000
1000
0000
,
0001
0000
0000
0100
0000
0000
0001
0000
,
1000
0000
0000
0100
0000
0000
0010
0000
,
0001
0000
0000
0100
0000
0000
0010
0000
,
1000
0000
0000
0100
0000
0000
0010
0000
,
0001
0000
0000
0100
0000
0000
0010
0000
,
1000
0000
0000
0100
0000
0000
1000
0000
,
0001
0000
0000
0001
0000
0000
0100
0000
,
0010
0000
0000
1000
0000
0000
0001
0000
,
1001
0000
0000
0100
,
1010
0000
0000
0100
,
1001
0010
1001
0100
,
1001
0000
0000
0000
,
0001
0000
0000
0100
,
1000
1001
0000
0001
,
0010
0100
0000
0100
,
1000
0001
0000
0001
,
0100
0010
0000
0010
,
0100
1000
0000
1000
,
0001
0100
0000
0100
,
0001
0010
0000
0010
,
0100
1000
0000
1000
,
0100
0001
0000
0001
,
0010
0100
0000
0100
,
1000
0001
0000
0010
,
1000
0100
1000
0100
,
0001
0000
0000
0010
0000
0000
0010
0000
,
0001
0010
0001
0010
,
0100
0000
0000
0010
0000
0000
1001
1001
,
0000
2002
0000
0000
,
0000
3003
0000
0000
,
;

//----------------dance-single - Another----------------
#NOTES:
     dance-single:
     FFR R2:
     Another:
     6:
     -1.000,-1.000,-1.000,-1.000,-1.000:
1000
0000
0000
0000
,
0000
0010
0000
0000
,
1000
0000
0001
0000
,
0000
0000
0000
0000
0000
0000
0001
0010
,
1000
0000
0000
0000
,
0000
0100
0000
0000
,
2002
0000
0000
0000
,
3003
0000
0000
0000
,
1000
0000
0001
0000
,
1000
0000
0000
0001
0000
1000
0000
0000
,
0010
0000
0000
0010
0100
0000
0000
0000
,
0100
0010
0000
0010
0000
0010
0100
0000
,
0010
0000
0100
0000
,
0001
0000
0000
0100
0000
0001
0000
0000
,
1000
0000
0010
0000
,
0100
0100
0100
1000
,
0001
0000
0100
0000
,
0010
0000
0000
0010
0000
0100
0000
0000
,
1000
0000
0001
0000
,
1000
0001
0000
0100
0000
0100
0000
0000
,
0010
0100
0010
0100
,
0001
1000
0001
1000
,
0001
0100
0010
0100
,
0010
0100
0010
0100
,
0011
0000
0000
0000
1000
0011
0000
0000
,
0100
0000
0001
0010
,
1100
0000
0000
0010
0001
0100
0000
0000
,
1001
0000
0010
0100
,
1001
0000
0000
1000
0010
0100
0000
0000
,
0011
0000
1000
0001
,
0110
0000
0000
1000
0001
0100
0000
0000
,
1001
0000
0000
0010
0000
0000
1001
0000
,
2002
0000
0000
0000
3003
0100
0010
0000
,
0022
0000
0033
1000
0000
0001
1000
0000
,
2200
0000
3300
0001
0000
1000
0001
0000
,
0220
0000
0330
1000
0000
0001
0010
0000
,
0022
0000
0033
1000
0000
0100
0010
0000
,
2200
0000
3300
0001
0000
1000
0001
0000
,
0220
0000
0330
1000
0000
0000
0001
0000
,
0110
0000
0000
1001
0000
0000
0000
0000
,
0220
0000
0330
0001
0000
0100
0010
0000
,
2200
0000
3300
0010
0000
1000
0100
0000
,
0022
0000
0033
0001
0000
0010
0100
0000
,
2200
0000
3300
0100
0000
0001
0010
0000
,
2200
0000
3300
1000
0000
0001
1000
0000
,
0022
0000
0033
0001
0000
1000
0001
0000
,
0110
0000
0000
0110
0000
0000
1001
0000
,
0110
0000
0000
0110
0000
0000
0110
0000
,
2002
0000
0000
0000
,
0000
0000
0000
0000
,
0000
0000
0000
0000
,
0000
0000
0000
3003
,
0020
0000
0000
0000
0000
0000
0000
0030
,
0200
0000
0000
0000
0000
0000
0000
0300
,
2000
0000
0000
0000
0000
0000
0000
3000
,
0220
0000
0000
0000
0000
0000
0000
0330
,
0002
0000
0000
0000
0000
0000
0000
0003
,
0020
0000
0000
0000
0000
0000
0000
0030
,
2200
0000
0000
0000
,
0000
0000
0000
0000
0000
0000
0000
3300
,
2000
0000
0000
0000
0000
0000
0000
0000
0000
0000
0000
0000
0000
0000
0000
0000
0000
0000
0000
0000
0000
0000
0000
0000
0000
0000
0000
0000
0000
0000
0000
0000
0000
0000
0000
0000
0000
0000
0000
0000
0000
0000
0000
0000
0000
0000
0000
0000
0000
0000
0000
0000
0000
0000
0000
0000
0000
0000
0000
0000
0000
0000
0000
3000
,
0020
0000
0000
0000
0000
0000
0000
0030
,
0022
0000
0000
0000
,
0000
0000
0000
0033
,
1001
0000
0100
0000
,
1001
0000
0010
0000
,
0101
0000
0100
0000
,
1010
0000
0100
0000
,
0110
0000
0000
0000
,
2002
0000
0000
0000
,
0000
0000
0000
0000
0000
0000
0000
3003
,
0000
0000
0000
0000
,
0100
0000
1001
0000
0000
0100
1010
0000
,
0100
0000
0101
0000
0000
0100
1010
0000
,
0100
0000
0011
0000
0000
0001
0011
0000
,
0100
0000
1010
0000
0000
0010
0000
1000
,
0100
0000
0011
0000
0000
0010
1001
0000
,
0010
0000
0100
0000
0000
0100
1010
0000
,
0100
0000
0011
0000
0000
0100
1010
0000
,
0100
0000
1001
0000
0000
0100
0000
0100
,
1000
0000
0010
0000
0000
0010
0101
0000
,
0100
0000
1010
0000
0000
0100
1000
0000
,
0010
0000
0101
0000
0000
0001
1000
0000
,
0010
0000
1001
0000
0000
0010
0000
0010
,
0001
1000
0000
0100
,
1000
0000
0100
0000
0000
0100
1000
0000
,
0100
0000
0010
0000
0000
0001
0100
0000
,
0010
0000
1000
0000
0000
0100
0000
0000
,
0100
0000
0000
0010
0000
0000
0001
0000
,
0100
0000
0000
0010
0000
0000
1000
0000
,
0100
0000
0000
0100
0000
0000
1000
0000
,
0001
0000
0000
0010
0000
0000
0001
0000
,
0001
0000
0000
0100
0000
0000
0100
0000
,
0010
0000
0000
1000
0000
0000
1000
0000
,
0100
0000
0000
0010
0000
0000
0010
0000
,
1000
0000
0000
0001
0000
0000
0100
0000
,
0100
0010
1000
0100
0010
0010
0001
0100
,
0010
1000
0100
1000
0001
0001
0100
0001
,
1001
0110
1001
0110
,
1001
0000
0010
0100
0010
1000
0100
0010
,
0001
0100
0001
0010
0001
0001
0100
0010
,
1000
0100
0010
0100
1000
1000
0100
1000
,
0010
1000
0001
0100
0001
0010
0001
0100
,
0001
0000
0001
0010
0001
1000
0001
0100
,
0010
0000
1000
0000
0100
0000
1000
0100
,
1000
0000
0001
0000
0100
0000
0001
0010
,
0001
0100
0001
0000
1000
0100
1000
0010
,
0000
0100
1000
0010
1000
0100
0010
0000
,
0001
0100
0010
1000
0100
1000
0100
0010
,
0100
1000
0001
0010
0001
0100
0010
0100
,
0010
1000
0010
0100
0001
0010
0100
1000
,
0000
0100
1000
0010
1000
0001
0010
0001
,
0100
0001
0010
0001
0100
0001
0010
0001
,
1000
0000
0000
0100
0000
0000
0010
0000
,
0010
1000
0100
1000
0010
1000
0100
1000
,
0010
0000
0000
1100
0000
0000
1001
1001
,
0000
2002
0000
0000
,
0000
3003
0000
0000
,
;

//----------------dance-single - Maniac----------------
#NOTES:
     dance-single:
     FFR R2:
     Maniac:
     8:
     -1.000,-1.000,-1.000,-1.000,-1.000:
1000
0000
0000
0000
,
0000
0010
0000
0000
,
0100
0000
0001
0000
,
0000
0000
0000
1000
,
0001
0000
0000
0000
,
0000
1000
0000
0000
,
0000
0000
0000
0000
,
0000
0000
0000
0000
,
0001
0000
0000
0001
0010
0000
0000
0000
,
1000
0000
1000
0010
0000
1000
0000
0000
,
0001
0000
0000
0001
0010
0000
0000
0000
,
1000
0010
0000
0010
0000
0010
0000
0000
,
0001
0000
0000
0001
0010
0000
0000
0000
,
1000
0000
1000
0010
0000
1000
0000
0000
,
0001
0000
0000
0001
0010
0000
0000
0000
,
1000
0000
0100
0000
0001
0000
0100
1000
,
0001
0000
0000
0001
0010
0000
0000
0000
,
0100
1000
0000
0010
0000
0000
0000
0000
,
0100
0001
0000
0001
0010
0000
0000
0000
,
0100
0010
0000
0010
0000
0010
0000
0000
,
0001
0000
0000
0001
0010
0000
0000
0000
,
0100
1000
0000
0010
0000
0000
0000
0000
,
0100
0010
0000
0000
0000
0000
0000
0000
,
0100
0001
0010
0100
1000
0001
1000
0100
,
1001
0000
0000
1000
0000
0000
1100
0000
0000
0000
0001
0000
0000
0000
0000
0000
,
0001
0000
0000
0000
0001
0000
0010
0000
0100
0000
1000
0000
0100
0000
0010
0100
,
0000
0000
0000
0100
0011
0100
0000
0000
,
1000
0000
0000
0000
1000
0000
0100
0000
0010
0000
0001
0000
0100
0000
0010
0100
,
1001
0000
0000
0100
1010
0100
0000
0000
,
0001
0000
0000
0000
0001
0000
0100
0000
0010
0000
1000
0000
0100
0000
0010
0100
,
1001
0000
0000
0100
0011
0100
0000
0000
,
1000
0000
0000
0001
0000
0000
0010
0000
,
1001
0000
0000
1000
0000
0000
0100
0000
0000
0000
0001
0000
0011
0000
0100
0000
,
1001
0000
0000
0100
0000
0100
0010
0000
0000
0000
0001
0000
0011
0000
0000
0000
,
1001
0000
0000
0000
0000
0100
0010
0000
0000
0000
0001
0000
0011
0000
0100
0000
,
1001
0000
0000
0000
0000
0100
0010
0000
0000
0000
0001
0000
0011
0000
0000
0000
,
1001
0000
0000
0100
0000
0100
0010
0000
0000
0000
0001
0000
0011
0000
0100
0000
,
1001
0000
0000
0000
0000
0100
0010
0000
0000
0000
0001
0000
0011
0000
0000
0000
,
1001
0100
0001
0011
0000
0001
0011
0100
,
1001
0000
0000
0000
0000
0000
0011
0000
0000
0000
0001
0000
0010
0100
0010
0000
,
1001
0000
0000
1000
0000
0000
1100
0000
0000
0000
0001
0000
0011
0000
0100
0000
,
1001
0000
0000
0000
0000
0100
0010
0000
0000
0000
0001
0000
0011
0000
0000
0000
,
1001
0000
0000
0100
0000
0100
0010
0000
0000
0000
0001
0000
0011
0000
0100
0000
,
1001
0000
0000
0000
0000
0100
0010
0000
0000
0000
0001
0000
0011
0000
0000
0000
,
1001
0000
0000
0000
0000
0100
0010
0000
0000
0000
0001
0000
0011
0000
0100
0000
,
1001
0000
0000
0100
0000
0100
0010
0000
0000
0000
0001
0000
0011
0000
0000
0000
,
1001
0000
0000
0011
0000
0000
1010
0000
,
0110
0000
0000
0101
0000
0000
1100
0000
,
1001
0000
0000
0000
0010
0000
0000
0100
0000
0000
1000
0000
0000
0010
0000
0000
,
1100
0000
0000
0000
0001
0000
0000
1000
0000
0000
0100
0000
0000
0010
0000
0000
,
0101
0000
0000
0000
0010
0000
0000
1000
0000
0000
0001
0000
0000
0100
0000
0000
,
1010
0000
0000
0000
0001
0000
0000
0010
0000
0000
0100
0000
0000
0000
0000
0000
,
1001
0000
0000
0000
0010
0000
0000
0100
0000
0000
1000
0000
0000
0000
0000
0000
,
1100
0000
0000
0000
0001
0000
0000
1000
0000
0000
0100
0000
0000
0010
0000
0000
,
0101
0000
0000
0000
0010
0000
0000
1000
0000
0000
0001
0000
0000
0100
0000
0000
,
1010
0000
0000
0000
0001
0000
0000
0010
0000
0000
0100
0000
0000
0000
1000
0000
,
1001
0000
0000
0000
0100
0000
0000
0100
0000
0000
0010
0000
0000
0010
0000
0000
,
1100
0000
0000
0000
0001
0000
0000
0001
0000
0000
0100
0000
0000
0100
0000
0000
,
0101
0000
0000
0000
0010
0000
0000
0010
0000
0000
0001
0000
0000
0001
0000
0000
,
1010
0000
0000
0000
0010
0000
0000
0010
0000
0000
0100
0000
0000
0000
0000
0000
,
1001
0000
0000
0000
0010
0000
0000
0010
0000
0000
1000
0000
0000
1000
0000
0000
,
1100
0000
0000
0000
0100
0000
0000
0100
0000
0000
0010
0000
0000
0000
0000
0000
,
0101
0000
0000
0000
1000
0000
0000
1000
0000
0000
0001
0000
0000
0001
0000
0000
,
1010
0000
0000
0000
0100
0000
0000
0100
0000
0000
0000
0000
0000
0000
0001
0000
,
1001
0000
0000
0000
0110
0000
0000
0110
0000
0000
1010
0000
0000
1010
0000
0000
,
1100
0000
0000
0000
1001
0000
0000
1001
0000
0000
0110
0000
0000
0110
0000
0000
,
0101
0000
0000
0000
1010
0000
0000
1010
0000
0000
0101
0000
0000
0101
0000
0000
,
1010
0000
0000
0000
0011
0000
0000
0011
0000
0000
1100
0000
0000
0000
1100
0000
,
1001
0000
0000
0000
0110
0000
0000
0110
0000
0000
1010
0000
0000
1010
0000
0000
,
1100
0000
0000
0000
1001
0000
0000
1001
0000
0000
0100
0000
0000
0010
0000
0000
,
0101
0000
0000
0000
0010
0000
0000
1000
0000
0000
0001
0000
0000
0100
0000
0000
,
0000
0000
0000
0000
,
0001
0000
0100
0010
0100
0000
1000
0000
0010
0000
1000
0000
0001
0000
0100
0000
,
0010
0000
0010
0100
0001
0000
0100
0000
0001
0000
0010
0000
0100
0000
1000
0000
,
0001
0000
0001
1000
0100
0000
1000
0000
0010
0000
0100
0000
0001
0000
1000
0000
,
0001
0000
0000
0000
0001
0000
0100
0000
0010
0000
1000
0000
1000
0010
0100
0001
,
1000
0000
1000
0100
0010
0000
0001
0000
0100
0000
0001
0000
1000
0000
0010
0000
,
0100
0000
0100
0010
1000
0000
0010
0000
1000
0000
0100
0000
0010
0000
0001
0000
,
1000
0000
1000
0001
0010
0000
0001
0000
0100
0000
0010
0000
1000
0000
0001
0000
,
1000
0000
0000
0000
1000
0000
0010
0000
0100
0000
0001
0000
0001
0010
0100
1000
,
0010
0000
0001
0010
0001
0000
1000
0000
0010
0000
1000
0000
0001
0000
0100
0000
,
0010
0000
0010
0100
0001
0000
0100
0000
0001
0000
0010
0000
0100
0000
1000
0000
,
0001
0000
0001
1000
0100
0000
1000
0000
0010
0000
0100
0000
0001
0000
1000
0000
,
0001
0000
0000
0000
0001
0000
0100
0000
0010
0000
1000
0000
1000
0010
0100
0001
,
1000
0000
0010
0100
0010
0000
0001
0000
0100
0000
0001
0000
1000
0000
0010
0000
,
0100
0000
0100
0010
1000
0000
0010
0000
1000
0000
0100
0000
0010
0000
0001
0000
,
1000
0000
1000
0001
0010
0000
0001
0000
0100
0000
0010
0000
1000
0000
0001
0000
,
1000
0000
0000
0000
1000
0000
0010
0000
0100
0000
0001
0000
0001
0100
0010
0000
,
2000
0000
3000
1000
0000
0000
1000
0000
,
0200
0000
0300
0100
0000
0000
0100
0000
,
0020
0000
0030
0010
0000
0000
0010
0000
,
0200
0000
0000
0300
0000
0000
0002
0000
0000
0000
0003
0000
2000
0000
3000
0000
,
0200
0000
0300
0100
0000
0000
0100
0000
,
0002
0000
0003
0001
0000
0000
0001
0000
,
0200
0000
0000
0000
,
0010
0000
0000
0001
0300
0000
0010
0000
,
0001
0000
0100
0010
0100
0000
1000
0000
0010
0000
1000
0000
0001
0000
0100
0000
,
0010
0000
0010
0100
0001
0000
0100
0000
0001
0000
0010
0000
0100
0000
1000
0000
,
1001
0100
1001
0100
1001
0010
1001
0010
,
1000
0000
0100
0000
0011
0000
0010
0100
0010
0100
1000
0000
0011
0000
0100
0000
,
1000
0000
0100
0000
0011
0000
0010
0100
0010
0100
1000
0000
0011
0000
0100
0000
,
1000
0000
0100
0000
0011
0000
0010
0100
0010
0100
1000
0000
0011
0000
0000
0000
,
0010
0000
1000
0000
0101
0000
0001
1000
0001
1000
0010
0000
0101
0000
1000
0000
,
0010
0000
1000
0000
0101
0000
0001
1000
0001
0000
0101
0000
0010
0000
0100
0000
,
0001
0000
0001
0010
0100
0000
0010
0000
0010
0001
0100
0000
1000
0000
0010
0000
,
0100
0000
0100
0010
1000
0000
0001
0000
0010
0000
0100
0000
1000
0000
0001
0000
,
1000
0000
1000
0100
0010
0000
0100
0000
1000
0000
0010
0000
0100
0000
0001
0000
,
1000
0000
1000
0000
0100
0000
0100
0000
0010
0000
0010
0000
0001
0010
0100
1000
,
0001
0000
0001
0010
0100
0000
0010
0000
0010
0001
0100
0000
1000
0000
0010
0000
,
0100
0000
0100
0010
1000
0000
0001
0000
0010
0000
0100
0000
1000
0000
0001
0000
,
1000
0000
1000
0100
0010
0000
0100
0000
1000
0000
0010
0000
0100
0000
0001
0000
,
1000
0000
1000
0000
0100
0000
0100
0000
0010
0000
0010
0000
0001
0010
0100
1000
,
0001
0100
0001
0100
0001
0100
0001
0100
,
1000
0000
0000
1000
0000
0000
1000
0000
,
0100
0010
0100
0010
0100
0010
0100
0010
,
1000
0000
0000
1000
0000
0000
1001
1001
,
0000
2002
0000
0000
,
0000
3003
0000
0000
,
;
