#TITLE:Party4U (Holy Nite Remix);
#ARTIST:Cranky;
#BANNER:Party4U (Holy Nite Remix).png;
#BACKGROUND:Party4U (Holy Nite Remix)-bg.png;
#MUSIC:Party4U (Holy Nite Remix).mp3;
#OFFSET:-0.345;
#SELECTABLE:YES;
#CREDIT:converted by Vyhd;
#BPMS:0.000=159.00;
#STOPS:;
#BGCHANGES:;

//----------------dance-single - Basic----------------
#NOTES:
     dance-single:
     FFR R2:
     Basic:
     5:
     -1.000,-1.000,-1.000,-1.000,-1.000:
0000
0000
0000
0000
,
0000
0000
0000
0000
,
0000
0000
0000
0000
,
0000
0000
0000
0000
,
0000
0000
0000
0000
,
0000
0000
0000
0000
,
0000
0000
0000
0000
,
0000
0000
0000
0000
,
0000
0000
0000
0000
,
1001
0000
0100
0000
0010
1000
0010
0000
,
0100
0000
0001
0000
1000
0100
1000
0000
,
0001
0000
0010
0000
0001
1000
0001
0000
,
0100
0000
0010
0000
1000
0100
1000
0000
,
0011
0000
0100
0000
1000
0001
1000
0000
,
0010
0000
0100
0000
0001
0010
0001
0000
,
0100
0000
0010
0000
1000
0001
1000
0000
,
0100
0010
0100
0000
1000
0002
0000
0003
,
0000
0000
0000
0000
2000
0000
0002
3003
,
1001
1001
1001
0110
,
1001
0100
0010
0001
,
0100
0000
0010
1000
0010
0000
0100
0001
,
0100
0010
1000
0100
,
1001
0000
0010
0001
0010
0000
0100
1000
,
0100
0010
0001
0100
,
1010
0000
0001
1000
0001
0000
0100
0010
,
0100
0001
0010
0100
,
1001
1001
0110
1001
,
0110
0010
1000
0001
,
1100
1000
0100
0010
,
1001
0001
0100
0010
,
1001
1001
1010
0101
,
1001
0000
0100
0000
0010
0001
0010
0000
,
1001
0000
0100
0000
0010
1000
0010
0000
,
1001
0000
0010
0000
0001
0100
0010
0000
,
2002
0000
3003
0000
,
1000
0100
0010
0001
,
1000
0100
1000
0000
0001
0100
0001
0000
,
0010
0100
1000
0001
,
0100
0010
0100
0000
0001
1000
0001
0000
,
0010
0100
1000
0001
,
0100
0010
0100
0000
0001
0100
0001
0000
,
1000
0100
0010
0001
,
1000
0010
1000
0000
0001
0010
0001
0000
,
1001
0100
0010
0100
,
1001
0100
0010
0100
,
1001
0100
0010
0001
,
0110
0110
1010
0101
,
1001
0000
0100
0000
0010
0001
1000
0000
,
1001
0000
0100
0000
0010
1000
0001
0000
,
0110
0000
1000
0000
0001
0010
0001
0000
,
1001
1001
1010
0101
,
1001
0100
0010
0001
,
1001
0000
0000
1001
0000
0000
1001
0000
0000
0000
0000
0000
0000
0000
0000
0000
,
1001
0100
0010
1000
,
1001
0000
0000
1001
0000
0000
1001
0000
0000
0000
0000
0000
0000
0000
0000
0000
,
0011
0100
1000
0001
,
0110
0000
0000
0110
0000
0000
0110
0000
0000
0000
0000
0000
0000
0000
0000
0000
,
1001
0100
0010
1000
,
0011
0000
0000
0011
0000
0000
0011
0000
0000
0000
0000
0000
1000
0000
0100
0000
,
0010
0001
0100
0010
,
1001
0100
0010
1000
,
0101
0010
1000
0001
,
0110
1001
0110
1001
,
0110
0000
1000
0000
0001
0010
0100
0000
,
1001
0000
0100
0000
0010
1000
0001
0000
,
0110
0000
1000
0000
0001
0100
0010
0000
,
0200
0000
0000
0000
0000
0300
1001
0000
,
;

//----------------dance-single - Another----------------
#NOTES:
     dance-single:
     FFR R2:
     Another:
     7:
     -1.000,-1.000,-1.000,-1.000,-1.000:
0000
0000
0000
0000
,
0000
0000
0000
0000
,
0000
0000
0000
0000
,
0000
0000
0000
0000
,
0000
0000
0000
0000
,
0000
0000
0000
0000
,
0000
0000
0000
0000
,
0000
0000
0000
0000
,
0000
0000
0000
0000
,
1001
0010
0100
0000
1000
0001
0000
0100
,
0010
1000
0001
0000
0010
0100
0000
1000
,
0010
0100
0001
0000
1000
0100
0000
0010
,
0001
0100
0010
0000
1000
0001
0000
1000
,
0100
0010
0001
0000
0100
0010
0000
1000
,
0001
0010
0100
0000
1000
0001
0000
0100
,
0010
1000
0100
0000
0010
0001
0000
0100
,
0010
1000
0001
0000
0010
0200
0000
0300
,
0000
0000
0000
0000
2000
0000
0002
3003
,
1001
1100
1001
0101
,
1001
0100
0010
0000
1000
0000
0100
0000
,
0010
0001
0010
0001
1000
0000
0100
0010
,
0001
0100
0010
0000
1000
0000
0001
0000
,
1000
0010
1000
0010
0100
0000
0001
1000
,
0100
0010
0001
0000
0100
0000
0010
0000
,
1000
0100
1000
0100
0010
0000
0001
0100
,
0010
1000
0001
0000
0010
0000
0100
0000
,
1001
0101
1001
1100
,
1001
0000
0000
0100
0000
0000
0010
0000
0000
1000
0000
0000
0001
0000
0010
0000
,
0100
0000
0000
1000
0000
0000
0010
0000
0000
0100
0000
0000
0001
0000
1000
0000
,
0100
0000
0000
0010
0000
0000
0001
0000
0000
0100
0000
0000
0010
0000
1000
0000
,
0001
0000
0000
0010
0000
0000
0001
0000
0000
0100
0000
0000
0010
0000
1000
0000
,
0100
0000
0000
0010
0000
0000
0001
0000
0000
0100
0000
0000
0010
0000
1000
0000
,
0001
0000
0000
0010
0000
0000
0100
0000
0000
1000
0000
0000
0010
0000
0100
0000
,
0001
0000
0000
1000
0000
0000
0100
0000
0000
0010
0000
0000
0001
0000
0100
0000
,
2002
0000
3003
0000
,
1000
0000
0000
0100
0000
0000
0010
0000
0000
0001
0000
0000
0100
0000
0010
0000
,
1000
0100
0010
0001
0100
0010
1000
0000
,
0001
0000
0000
0010
0000
0000
0100
0000
0000
1000
0000
0000
0001
0000
0100
0000
,
0010
1000
0001
1000
0010
0100
0001
1000
,
0100
0000
0000
0010
0000
0000
0001
0000
0000
0100
0000
0000
0010
0000
1000
0000
,
0001
0010
0100
0010
0001
0100
0010
0000
,
1000
0000
0000
0001
0000
0000
0010
0000
0000
0001
0000
0000
0100
0000
0010
0000
,
1000
0100
0010
0001
1000
0001
0100
0001
,
0010
0000
0100
0000
1000
0000
0001
0100
,
1001
1000
0001
0010
,
1001
0100
0010
1000
,
0101
1001
1100
1001
,
0110
0000
1000
0100
0010
0001
1000
0000
,
0110
0000
0001
0100
0010
1000
0100
0000
,
0011
0000
0100
0010
1000
0001
0010
0000
,
1100
1001
0101
0110
,
1001
0000
0000
0100
0000
0000
0010
0000
0000
0001
0000
0000
0100
0000
0010
0000
,
1001
0000
0000
1001
0000
0000
1001
0000
0000
0000
0000
0000
0000
0000
0000
0000
,
1001
0000
0000
0100
0000
0000
0010
0000
0000
1000
0000
0000
0100
0000
0010
0000
,
1001
0000
0000
1001
0000
0000
0101
0000
0000
0000
0000
0000
0000
0000
0000
0000
,
1010
0000
0000
0100
0000
0000
0001
0000
0000
1000
0000
0000
0001
0000
0010
0000
,
1100
0000
0000
1100
0000
0000
1100
0000
0000
0000
0011
0000
0000
0000
0000
0000
,
0101
0000
0000
0010
0000
0000
1000
0000
0000
0001
0000
0000
1000
0000
0100
0000
,
1001
0000
0000
1001
0000
0000
0101
0000
0000
0010
0000
0000
1000
0000
0100
0000
,
0011
0000
0000
1000
0000
0000
0001
0000
0000
0100
0000
0000
0010
0000
1000
0000
,
0001
0000
0000
0010
0000
0000
0100
0000
0000
1000
0000
0000
0001
0000
0100
0000
,
0010
0000
0000
1000
0000
0000
0010
0000
0000
0100
0000
0000
0001
0000
0010
0000
,
0100
0000
0000
1000
0000
0000
0001
0000
0000
0100
0000
0000
0010
0000
1000
0000
,
1001
0000
0000
0010
0000
0000
0001
0000
0000
0100
0000
0000
0010
0000
1000
0000
,
0101
0000
0000
1000
0000
0000
0100
0000
0000
0010
0000
0000
0001
0000
0100
0000
,
1001
0000
0000
0100
0000
0000
0010
0000
0000
0001
0000
0000
0100
0000
0010
0000
,
2000
0000
0000
0000
0000
3000
1001
0000
,
;

//----------------dance-single - Maniac----------------
#NOTES:
     dance-single:
     FFR R2:
     Maniac:
     9:
     -1.000,-1.000,-1.000,-1.000,-1.000:
0000
0000
0000
0000
,
0000
0000
0000
0000
,
0000
0000
0000
0000
,
0000
0000
0000
0000
,
0000
0000
0000
0000
,
0000
0000
0000
0000
,
0000
0000
0000
0000
,
0000
0000
0000
0000
,
0000
0000
0000
0000
,
1001
0010
0100
0000
1000
0001
0000
0100
,
0010
1000
0100
0000
0010
0001
0000
1000
,
0010
0100
0001
0000
1000
0100
0000
0010
,
0001
0100
0010
0000
1000
0001
0000
0010
,
1001
0000
0100
0000
0010
0000
1000
0001
1000
0000
0100
0000
0000
0000
0010
0000
,
0001
0000
0100
0000
0010
0000
1000
0100
1000
0000
0001
0000
0000
0000
0100
0000
,
0010
0000
1000
0000
0001
0000
0010
0100
0010
0000
0001
0000
0000
0000
0100
0000
,
0010
1000
0010
1000
0010
1000
0010
1000
0001
1000
0001
1000
0001
1000
0000
1000
,
0000
0000
0000
0000
0000
0000
0000
0000
0001
1000
0001
1000
0001
1000
0000
1000
,
0010
0100
0010
0100
0001
0100
0010
1000
,
1001
0000
0100
0000
0010
1000
0010
0000
0100
0000
0000
0100
0001
0000
1000
0000
,
0100
0000
0010
0000
0001
1000
0001
0000
0100
0000
0000
0100
0010
0000
1000
0000
,
0100
0000
0010
0000
0001
1000
0001
0000
0100
0000
0000
0100
0010
0000
1000
0000
,
0100
0000
0010
0000
0001
1000
0001
0000
0100
0000
0000
0100
0010
0000
1000
0000
,
1001
0000
0010
0000
0001
0100
0001
0000
1000
0000
0000
1000
0010
0000
0100
0000
,
0001
0000
0010
0000
0100
1000
0100
0000
0010
0000
0000
0010
0001
0000
0100
0000
,
0010
0000
1000
0000
0001
0010
0001
0000
0100
0000
0000
0100
0010
0000
1000
0000
,
0100
0000
0010
0000
0001
1000
0001
0000
0100
0000
0000
0100
0010
0000
1000
0000
,
1001
0000
0000
0010
0001
0000
0100
0000
0010
1000
0000
0000
0011
0000
0100
0000
,
1001
0000
0000
0100
0010
0000
1000
0000
0100
0010
0000
0000
0101
0000
0010
0000
,
1001
0000
0000
1000
0100
0000
0010
0000
0001
1000
0000
0000
0110
0000
0001
0000
,
1010
0000
0000
1000
0100
0000
0010
0000
0001
1000
0000
0000
0110
0000
0001
0000
,
1100
0000
0000
0110
0000
0000
0011
0000
0000
0101
0000
0000
1010
0000
1001
0000
,
0011
0000
0000
1010
0000
0000
0101
0000
0000
1100
0000
0000
0110
0000
0011
0000
,
1001
0000
0000
0110
0000
0000
1010
0000
0000
0101
0000
0000
1100
0000
0110
0000
,
1000
0001
1000
0001
1000
0001
1000
0001
0000
0000
0000
0000
0000
0000
0000
0000
,
1000
0001
0000
0001
0100
0000
0010
1000
0000
1000
0001
0000
0010
0000
0100
0000
,
1000
0001
1000
0000
0010
0000
0010
0000
0100
0001
0100
0000
0020
0000
0030
0000
,
1000
0100
0000
0100
0010
0000
0001
1000
0000
1000
0010
0000
0100
0000
0001
0000
,
0010
0100
0010
0000
0001
0000
1000
0000
0010
0100
0010
0000
2000
0000
3001
0000
,
0010
0100
0000
0100
1000
0000
0001
0100
0000
0100
0010
0000
1000
0000
0001
0000
,
0010
0001
0010
0000
0100
0000
0100
0000
1000
0010
1000
0000
0002
0000
0013
0000
,
0100
1000
0000
1000
0010
0000
0100
0001
0000
0001
1000
0000
0100
0000
0010
0000
,
0001
0000
0100
0000
0001
0000
1000
0000
0000
0100
0000
0000
0010
0000
0000
0001
0000
0000
0000
0000
0000
0010
0000
0000
,
1000
0000
0001
0000
0100
0010
0100
0000
0001
0000
0000
0001
1000
0000
0100
0010
,
0001
0000
1000
0000
0010
1000
0010
0000
0100
0000
0000
0100
0001
0000
0010
0000
,
0100
0000
1000
0000
0001
0100
0001
0000
0010
0000
0000
0010
0100
0000
1000
0000
,
0001
0000
0100
0000
0010
1000
0010
0000
1000
0000
0000
1000
0100
0000
0010
0000
,
0001
0000
0100
0000
0010
1000
0000
0001
0010
0000
0100
1000
0000
0001
0100
0000
,
0010
0000
1000
0000
0100
0010
0000
0001
1000
0000
0010
0100
0000
0001
1000
0000
,
0100
0000
0010
0000
0001
0100
0000
0010
1000
0000
0001
0010
0000
0100
1000
0000
,
0010
0000
0100
0000
0001
1000
0000
0100
0010
0000
0001
0100
0000
0010
1000
0000
,
1001
0000
0000
1100
0000
0000
0101
0000
0000
1010
0000
0000
0011
0000
0110
0000
,
1001
0000
0000
1001
0000
0000
1001
0000
0000
0010
0100
0000
0000
0000
0000
0000
,
1010
0000
0000
0101
0000
0000
1100
0000
0000
0011
0000
0000
1001
0000
0110
0000
,
1001
0000
0000
1001
0000
0000
0110
0000
0000
0000
1000
0000
0100
0000
0000
0000
,
0011
0000
0000
0101
0000
0000
1001
0000
0000
1010
0000
0000
1100
0000
0110
0000
,
0011
0000
0000
0011
0000
0000
0011
0000
0100
0000
1001
0000
0000
0000
0100
0000
,
1001
0000
0000
0110
0000
0000
1010
0000
0000
0101
0000
0000
1100
0000
0011
0000
,
1001
0000
0000
1001
0000
0000
1100
0000
0000
0011
0000
0000
0101
0000
1001
0000
,
1010
0000
0000
1000
0100
0000
0010
0000
0001
1000
0010
0000
0101
0000
1000
0000
,
0110
0000
0000
0001
1000
0000
0100
0000
0010
0001
1000
0000
0110
0000
0001
0000
,
1010
0000
0000
1000
0100
0000
0010
0000
0001
0100
0010
0000
1010
0000
0100
0000
,
1001
0000
0000
0010
0001
0000
0100
0000
0010
1000
0001
0000
0110
0000
1000
0000
,
0101
0000
0010
1000
0010
0000
0100
0000
0001
1000
0001
0000
0110
0000
0001
0000
,
1010
0000
1000
0100
1000
0000
0010
0000
0001
0100
0001
0000
1010
0000
0100
0000
,
1001
0000
0010
0100
0010
0000
0001
0000
0100
0010
0100
0000
0001
0000
1000
0000
,
0220
0000
0000
0000
0000
0330
1001
0000
,
;

//----------------dance-single - SManiac----------------
#NOTES:
     dance-single:
     FFR R2:
     SManiac:
     11:
     -1.000,-1.000,-1.000,-1.000,-1.000:
0000
0000
0000
0000
,
0000
0000
0000
0000
,
0000
0000
0000
0000
,
0000
0000
0000
0000
,
0000
0000
0000
0000
,
0000
0000
0000
0000
,
0000
0000
0000
0000
,
0000
0000
0000
0000
,
0000
0000
0000
0000
,
1001
0000
0010
0000
0101
0000
0010
1000
0100
0010
0001
1000
0010
0100
0001
0000
,
0110
0000
1000
0000
0101
0000
0010
1000
0001
1000
0010
0100
0001
0010
0100
0000
,
1010
0000
0100
0000
0011
0000
1000
0010
0100
0001
0010
0100
1000
0001
0100
0000
,
0011
0000
0100
0000
1001
0000
0010
0100
0001
0010
0001
0100
0010
1000
0100
0000
,
0011
0000
1000
0000
0110
0000
0001
1000
0010
1000
0100
0010
0001
0100
0010
0000
,
1010
0000
0001
0000
0110
0000
1000
0100
0010
0001
1000
0010
0100
0001
0010
0000
,
1100
0000
0001
0000
0110
0000
1000
0001
0010
0100
1000
0010
0100
0001
1000
0000
,
0001
0100
0010
1000
0001
0010
0100
1000
0010
0100
0011
0100
0010
0100
0010
0100
,
0000
0000
0000
0000
0000
0000
0000
0000
0000
0000
0000
0000
0000
0000
0000
0000
0000
0000
0000
0000
0000
0000
0000
0000
0000
0000
0000
0000
0000
0000
0000
0000
0010
0000
0000
0000
0100
0000
0000
0000
0010
0000
0000
0000
0100
0000
0000
0000
0010
0000
0100
0000
0010
0000
0100
0000
0010
0000
0000
0000
0100
0000
0000
0000
,
1001
0100
1001
0100
1010
0100
1001
0100
,
1001
0000
0010
0000
1000
0100
0010
0000
1001
0000
0100
0010
1000
0000
0101
0000
,
1010
0000
0101
0000
0010
1000
0100
0000
0011
0000
1000
0001
0100
0000
1001
0000
,
0110
0000
1001
0000
0100
0010
0001
0000
1010
0000
0100
0001
1000
0000
0110
0000
,
1001
0000
0110
0000
1001
0010
0100
0000
1010
0000
0001
0010
1100
0000
0110
0000
,
1001
0000
0010
1000
0100
0000
0010
0001
0100
0000
0010
1000
0100
0010
0001
0000
,
1010
0000
0001
1000
0100
0000
0010
0001
1000
0000
0010
0100
0001
1000
0100
0000
,
0011
0000
1000
0010
0100
0000
0001
1000
0100
0000
0010
0001
0100
0010
1000
0000
,
0011
0000
0100
1000
0101
0000
0010
1000
0011
0000
0010
0100
1001
0010
0100
0000
,
1010
0000
0000
1010
0001
0000
1010
0000
0100
0011
0000
0000
1010
0000
0101
0000
,
1010
0000
0000
0011
0100
0000
0011
0000
1000
0101
0000
0000
1010
0000
1001
0000
,
0110
0000
0000
0110
0001
0000
0110
0000
1000
0101
0000
0000
1010
0000
0011
0000
,
1100
0000
0000
1100
0011
0000
0110
0000
0101
1010
0000
0000
0011
0000
0110
0000
,
1100
0000
0001
1000
0100
0000
1100
0000
1000
0001
0100
0000
0101
0000
1010
0000
,
0101
0000
0010
1000
0100
0000
1001
0000
0010
0001
0100
0000
1001
0000
0011
0000
,
1100
0000
0001
0100
0010
0000
1001
0000
1000
0100
0010
0000
0101
0000
1010
0000
,
1000
0001
1000
0001
1000
0001
1000
0001
1000
0001
1000
0000
0000
0000
0000
0000
0000
0000
1001
0000
0000
0101
0000
0000
,
1010
1010
0000
0011
0011
0000
1100
1100
0000
0101
0101
0000
0110
0000
1001
0000
,
1000
0100
0010
0001
0100
0010
0100
0001
1000
0100
0010
0001
0200
0000
0300
0000
,
1010
1010
0000
1001
1001
0000
0110
0110
0000
0011
0011
0000
1100
0000
0101
0000
,
0010
1000
0001
0010
0100
1000
0010
0100
0001
0010
0100
0010
0002
0000
0103
0000
,
1001
1001
0000
1010
1010
0000
0101
0101
0000
1100
1100
0000
0110
0000
0011
0000
,
1000
0010
0100
0001
0010
0100
1000
0001
1000
0010
0100
0001
2000
0000
3100
0000
,
0011
0011
0000
0110
0110
0000
1010
1010
0000
0101
0101
0000
1100
0000
0011
0000
,
1001
0000
0100
0000
0010
0000
1001
0000
0000
0100
0000
0000
1010
0000
0000
1000
0000
0000
0101
0000
0000
0100
0000
0000
,
1001
0000
0110
0000
0010
0001
1000
0000
1001
0000
0100
0010
1000
0000
0001
0010
,
1100
0000
0011
0000
0001
0100
0010
0000
1010
0000
0010
1000
0100
0000
0011
0000
,
1001
0000
0110
0000
0100
1000
0001
0000
0011
0000
1000
0001
0100
0000
1010
0000
,
0101
0000
1010
0000
0011
0100
1000
0000
1010
0000
0001
1000
0110
0000
0011
0000
,
1100
0000
0010
0000
1100
0001
0000
1000
0101
0000
0010
1000
0100
0010
0001
0000
,
1010
0000
0100
0000
1001
0010
0000
0100
1001
0000
0010
0100
0001
1000
0100
0000
,
0011
0000
1000
0000
0101
0010
0000
1000
0101
0000
0010
1000
0100
0010
0001
0000
,
1010
0000
0100
0000
0011
1000
0000
0100
1010
0000
0100
0010
1001
0100
0010
0000
,
1100
0000
0000
0011
0100
0000
1001
0000
0100
1010
0000
0000
0011
0000
1100
0000
,
0101
0000
0000
0101
0000
0000
0101
0000
1000
0100
0010
0001
0100
0010
1000
0000
,
0011
0000
0000
0011
1000
0000
0110
0000
0001
1100
0000
0000
0011
0000
0101
0000
,
1001
0000
0000
1001
0000
0000
0110
0000
1000
0100
1000
0010
1000
0001
1000
0000
,
0110
0000
0000
0101
1000
0000
1100
0000
0001
0110
0000
0000
0101
0000
1010
0000
,
1001
0000
0000
1001
0000
0000
1001
0000
0100
0000
0011
0000
0000
0000
0100
0000
,
1001
0100
0010
0100
1001
0000
1001
0000
0100
0011
0000
0000
1001
0000
0110
0000
,
1001
0000
0000
0000
0000
0000
0000
0000
0000
0000
0000
0000
1001
0000
0000
0000
0000
0000
0000
0000
0000
0000
0000
0000
1100
0000
0000
0000
0000
0000
0000
0000
0000
0000
0000
0000
0011
0000
0000
0000
0000
0000
0000
0000
0000
0000
0000
0000
1000
0000
0100
0000
0010
0000
0001
0000
1000
0000
0100
0000
0010
0000
0001
0000
,
1000
0000
0010
0100
0001
0000
1100
0000
0010
0001
1000
0000
0110
0000
1001
0000
,
0110
0000
1000
0001
0100
0000
1010
0000
0001
0010
0100
0000
1001
0000
0110
0000
,
1010
0000
0001
0010
0100
0000
1001
0000
0100
0010
1000
0000
0110
0000
0011
0000
,
1100
0000
0001
0100
1010
0000
0001
0000
1100
0010
0001
0000
0110
0000
1001
0000
,
0101
0000
0010
1001
0100
0000
1010
0000
0001
0110
1000
0000
0101
0000
1010
0000
,
0011
0000
1000
0101
0010
0000
1001
0000
0010
1100
0001
0000
0110
0000
1010
0000
,
1001
0100
0010
0001
1000
0010
0100
0001
0010
0100
1000
0001
0010
0001
0100
0010
,
2002
0000
0000
0000
0000
3003
1001
0000
,
;
