#TITLE:Lost Trace;
#ARTIST:TaQ vs. Ren;
#BANNER:Lost Trace.png;
#BACKGROUND:Lost Trace-bg.png;
#MUSIC:Lost Trace.mp3;
#OFFSET:-0.020;
#SELECTABLE:YES;
#CREDIT:converted by Vyhd;
#BPMS:0.000=155.00;
#STOPS:;
#BGCHANGES:;

//----------------dance-single - Basic----------------
#NOTES:
     dance-single:
     FFR R2:
     Basic:
     6:
     -1.000,-1.000,-1.000,-1.000,-1.000:
0001
0000
0000
0000
,
0000
0000
2000
0000
,
3001
0100
0001
0100
,
0001
0100
0001
0100
,
0010
1000
0010
1000
,
0010
0000
1000
0000
0010
0100
0001
0010
,
0100
1000
0100
1000
,
0100
1000
0100
1000
,
0010
0100
0010
0100
,
0010
0000
0100
0000
0001
0010
0100
2000
,
3000
0000
0000
1000
,
0100
0000
0000
0100
,
0010
0000
0000
0001
0000
0000
0010
0000
,
0100
0000
0000
0000
0000
1100
0000
0000
,
1001
0000
0101
0000
,
1001
0000
0000
0000
0000
0100
0000
0000
,
0001
0000
0010
0000
,
0100
0000
0000
0000
1000
0000
0000
0010
,
0002
0000
0000
0000
,
0000
0000
0000
0000
,
1003
0100
1000
0000
0001
0010
0001
0000
,
1000
0010
0100
0001
0010
0100
1000
0000
,
1000
0010
0100
0000
0001
0100
0010
0000
,
1000
0010
0100
0001
1000
0010
1000
0000
,
2100
0000
0000
3010
0100
0000
0000
0000
,
0011
1100
0110
1001
,
0012
0000
0000
0103
0010
0000
0000
0000
,
1100
0110
1001
0011
,
1000
0010
0100
0001
0010
0000
0100
0000
,
2010
3010
0102
0103
,
1000
0010
0100
0001
1000
0000
0100
0000
,
0001
0100
0010
1000
0001
0000
0010
0000
,
1000
1000
1000
1000
,
0100
0100
0100
0100
,
0010
0001
0010
0000
0100
1000
0100
0000
,
0010
0001
1000
0010
0200
0000
0000
0000
,
0301
0100
0010
1000
,
0001
0100
0010
1000
,
0001
0010
0001
1000
,
0001
0000
0010
0000
0001
0010
0100
1000
,
0001
0100
0010
1000
,
0001
0010
0100
1000
,
0001
1000
0100
1000
,
0010
0000
0100
0000
0001
1000
0001
0200
,
0000
0000
0000
0000
,
0000
0000
0000
0000
0000
0000
0000
0300
,
0002
0100
1000
0100
0010
0100
1003
0000
,
2000
0010
0100
0001
0100
0010
3100
0000
,
2010
0100
0001
3010
0102
1000
0010
0103
,
2001
0001
0010
3001
1002
0100
1000
0103
,
1001
0110
0101
1010
,
1100
1010
0101
0110
,
1002
1003
2001
3001
,
0101
0000
1010
0000
0110
0000
1001
0110
,
1001
0000
0100
1000
0100
0000
0010
0001
,
0010
0000
1000
0001
1000
0000
0001
1000
,
0001
0000
1000
0010
0100
0000
0001
0100
,
0010
1000
0001
0100
0010
1000
0100
0000
,
1001
0110
1010
0101
,
0011
0000
1100
0000
1010
0000
0010
0100
,
2001
3010
1002
0103
,
2100
3000
0012
0003
2001
0001
0001
0001
,
3001
0010
0100
0010
0001
1000
0010
0100
,
0001
0010
0001
1000
0100
1000
0010
0100
,
1000
0100
1000
0100
1000
0010
1000
0010
,
1000
0100
0010
0001
0100
0010
2000
3010
,
1001
0101
1010
0110
,
0011
1100
1001
0110
,
0001
0010
0100
0000
1000
0100
0010
0000
,
0001
1000
0010
0100
0001
1000
0100
0100
,
1001
0000
0001
1000
0010
0000
0100
0001
,
0010
0000
1000
0010
0100
0000
0001
0000
,
1010
0101
0110
1100
,
2001
3001
1002
1003
,
2001
0000
0001
0000
0010
0000
0001
3000
,
1002
1000
0010
0103
,
2010
3010
2100
3010
,
2010
0000
0010
0000
0010
0010
0010
3010
,
1001
0100
1000
0100
,
1000
0010
0100
0010
,
0100
0001
0010
1000
,
0010
0000
0001
0000
0010
1000
0010
0001
,
0010
0010
0010
0010
,
0100
0100
0100
0100
,
1000
0100
1000
0000
0001
0010
0001
0000
,
1000
0010
0100
0001
0010
0100
2000
0000
,
3001
0001
0001
0001
,
0010
0010
0010
0010
,
0100
0100
0100
0100
,
1000
1000
1000
0110
,
1001
1001
0110
0110
,
0101
0101
1100
1100
,
0011
1100
0110
0101
,
1100
0000
0110
0000
1000
0010
0100
0001
,
2000
0000
0000
0000
,
0000
0000
0000
0000
,
3000
0000
0000
0000
,
;

//----------------dance-single - Another----------------
#NOTES:
     dance-single:
     FFR R2:
     Another:
     8:
     -1.000,-1.000,-1.000,-1.000,-1.000:
0001
0000
0000
0000
,
0000
0000
2000
0000
,
3001
0010
0100
1000
0001
0100
0010
1000
,
0001
0010
0100
1000
0001
0100
0010
1000
,
0001
0010
0001
1000
0001
0010
0001
1000
,
0001
0010
0001
1000
0001
0100
0010
1000
,
0001
0010
0100
1000
0001
0100
0010
1000
,
0001
0010
0100
1000
0001
0100
0010
1000
,
0001
0100
0001
1000
0001
0100
0001
1000
,
0001
0100
0001
1000
0001
0010
1000
0020
,
0030
0000
0000
1000
,
0100
0000
0000
0010
,
0001
0000
0000
0010
0000
0000
0100
0000
,
1000
0000
0000
0000
0000
0100
0000
0000
,
0010
0000
1001
0000
,
0110
0000
0000
0000
0000
0100
0000
0000
,
0010
0000
0001
0000
,
0010
0000
0000
0000
0100
0000
0000
1000
,
0002
0000
0000
0000
,
0000
0000
0000
0000
,
1003
0100
1100
0000
0001
0010
0011
0000
,
0100
1000
0011
0000
0010
0001
1100
0000
,
0010
0100
1010
0000
0100
0010
0101
0000
,
1000
0001
1001
0000
0001
1000
1001
0000
,
2000
3100
0020
0030
0100
0000
1000
0000
,
0001
0010
0011
0000
1000
0100
1100
0000
,
0002
0013
0200
0300
1000
0000
0010
0000
,
1001
0100
1001
0010
,
1001
0100
1000
0100
1000
0100
1001
0000
,
0020
0030
0100
0000
0020
0030
0100
0000
,
1001
0010
0001
0010
0001
0010
1001
0000
,
1001
0100
0010
0100
0010
0100
1001
0000
,
1000
0001
1000
0001
1000
0001
1000
0001
,
1000
0100
1000
0001
0010
0001
0100
0010
,
1002
1003
2001
3001
,
2002
3003
1000
0010
2100
0000
0000
0000
,
3001
0010
0100
1000
0001
0100
0010
1000
,
0001
0010
0100
1000
0001
0100
0010
1000
,
0001
1000
0100
0010
0001
1000
0010
0100
,
0001
1000
0100
0010
0001
0010
0100
1000
,
0001
0010
0100
1000
0001
0100
0010
1000
,
0001
0010
0100
1000
0001
0100
0010
1000
,
0001
0010
1000
0010
0001
0010
1000
0010
,
0001
0010
1000
0010
0001
0100
1000
0020
,
0000
0000
0000
0000
,
0000
0000
0000
0000
,
1030
0100
0010
0001
0020
0000
0130
0000
,
1000
0010
0100
0001
2000
0000
3100
0000
,
0010
0001
0010
0000
0100
0001
0100
1000
,
0100
0010
0001
0010
0100
1000
0010
0100
,
0002
0000
0013
0000
1000
0100
0010
0001
,
0020
0000
0130
0000
1000
0010
0100
0001
,
1000
1000
1000
1000
0100
0100
0100
0100
,
0010
0001
1000
0100
1000
0001
0110
1100
,
0210
0301
2001
3001
,
0201
0310
1020
0130
,
2001
3010
1002
0103
,
0210
0310
0120
1030
,
1100
1010
1100
1001
,
0110
1001
0011
1100
,
2001
0001
3001
0000
1002
1000
1003
0000
,
2010
3010
0102
0103
2010
0001
0001
0001
,
3001
0010
0100
1000
0020
0000
0130
0000
,
0001
0010
0100
1000
0020
0000
0130
0000
,
0001
0010
0001
1000
0001
0100
0001
0010
,
1000
0010
1000
0001
1000
0100
1000
0010
,
1001
0100
1000
0010
0200
0000
0310
0000
,
0001
0100
1000
0100
0020
0000
0130
0000
,
1000
0100
1000
0010
1000
0001
0010
0100
,
1001
0100
0010
1000
0001
0100
0010
1100
,
0011
1000
0100
1000
0012
0003
1200
0300
,
0010
1000
0001
0100
2001
3000
0201
0300
,
1000
0010
0100
0001
0010
0001
1000
0100
,
1100
0001
0010
0001
1000
0010
0100
1010
,
0101
0000
0200
0300
0200
0300
0200
0300
,
1000
0020
1030
0020
1030
0020
1030
0020
,
2030
3000
0001
0000
0020
0030
0001
0000
,
1001
0110
1001
0110
1001
1001
1001
0001
,
0110
0011
0110
1100
,
0110
0011
1010
0101
,
2000
0010
3100
0000
0002
0100
0013
0000
,
2000
0010
3100
0000
0002
0010
1000
0103
,
0001
0100
1000
0000
0001
0010
1000
0000
,
0001
0010
0100
0000
1000
0100
0010
0000
,
0100
0010
0100
0000
0010
0100
0010
0000
,
1000
0010
0100
0000
0001
1000
0010
0100
,
0001
1001
1001
1001
,
1010
1010
1010
1010
,
0101
1010
0110
1001
,
0011
0000
1100
0000
0110
0000
1001
0110
,
2001
3000
2000
3000
2000
3000
2000
3000
,
0200
0300
0200
0300
0200
0300
0200
0300
,
0020
0031
0200
1300
0020
0031
0200
1300
,
0020
0031
0200
1300
0010
0001
1100
0010
,
2002
0000
0000
0000
,
0000
0000
0000
0000
,
3003
0000
0000
0000
,
;

//----------------dance-single - Maniac----------------
#NOTES:
     dance-single:
     FFR R2:
     Maniac:
     10:
     -1.000,-1.000,-1.000,-1.000,-1.000:
0001
0000
0000
0000
,
0000
0000
0002
0000
,
0003
0100
0010
0001
1000
0100
0010
0001
,
1000
0100
0010
0001
1000
0100
0010
0001
,
1000
0010
0001
0010
1000
0010
0001
0010
,
1000
0010
0001
0010
1000
0100
0010
0100
,
1000
0100
0010
0001
1000
0100
0010
0001
,
1000
0100
0010
0001
1000
0100
0010
0001
,
1000
0100
0001
0100
1000
0100
0001
0100
,
1000
0100
0001
0100
1000
0100
0001
0020
,
0030
0000
0000
0100
,
1000
0000
0000
0100
,
0001
0000
0000
0010
0000
0000
0100
0000
,
0010
0000
0000
0000
0000
0100
0000
0000
,
1000
0000
0110
0000
,
1001
0000
0000
0000
0000
0100
0000
0000
,
0001
0000
0100
0000
,
0010
0000
0000
0000
1000
0000
0000
0010
,
0002
0000
0000
0000
,
0000
0000
0000
0000
0000
0000
0000
0000
0000
0000
0000
0000
0000
0000
0000
0003
,
1000
0000
0100
0000
1000
0100
0020
0000
0130
0000
0001
0000
0010
0100
2000
3000
,
0100
0000
0010
0000
0100
0010
0002
0000
0013
0000
1000
0000
0010
0100
0002
0000
,
0013
0000
0100
0000
0001
0010
0200
0000
1300
0000
0100
0000
0010
0001
0020
0000
,
0130
0000
1000
0000
0100
0010
0002
0000
0013
0000
0100
0000
0001
1000
0002
0000
,
1003
0100
0000
0000
1000
0100
0000
0000
0010
0000
0100
0000
0001
0000
0000
0000
,
1000
0010
0100
0000
0001
0100
0010
1000
,
0001
0010
0000
0000
0001
0010
0000
0000
0100
0000
0010
0000
1000
0000
0000
0000
,
0001
0100
0010
0000
1000
0010
0100
0001
,
1000
0100
1000
0000
0001
0010
0001
0000
1000
0010
0100
0001
0010
0000
0000
0000
,
1100
0000
0100
0001
0010
0100
1000
0010
,
1000
0010
1000
0000
0001
0100
0001
0000
1000
0010
0100
0010
1000
0000
0000
0000
,
0100
0001
0100
0000
0010
1000
0010
0000
0100
0010
1000
0010
0100
0000
0000
0000
,
1000
0100
1000
0000
1000
0010
1000
0000
1000
0001
1000
0000
1000
0010
1000
0000
,
0001
0010
0001
0000
0001
0100
0001
0000
0001
1000
0001
0000
0001
0100
0001
0000
,
0001
0010
0100
1000
0000
1000
0100
0010
0001
1000
0001
0010
0100
1000
0001
1000
,
0100
0010
0000
0010
0001
0010
0100
1000
0001
0010
0100
1000
0001
0010
0100
1000
,
0001
0100
0010
1000
0001
0100
0010
1000
,
0001
0100
0010
1000
0001
0100
0010
1000
,
0001
0010
0100
0010
0001
0010
0100
0010
,
0001
0010
0100
0010
0001
0010
1000
0010
,
0001
0100
0010
1000
0001
0100
0010
1000
,
0001
0100
0010
1000
0001
0100
0010
1000
,
0001
1000
0100
0010
0001
1000
0100
0010
,
0001
1000
0100
0010
0001
0100
0010
2000
,
0000
0000
0000
0000
,
0000
0000
0000
0000
0000
0000
0000
0000
0000
0000
0000
0000
0000
0000
0000
3000
,
1001
0000
0001
0000
0001
0000
0001
1000
0000
0010
1000
0000
0100
0000
1000
0000
,
0010
0000
0100
0000
0001
0000
0010
0100
0000
0100
0010
0000
0000
0000
0010
0000
,
0100
0000
0001
0000
0010
0000
0100
1000
0000
1000
0100
0000
1000
0000
0010
0000
,
0100
0000
0001
0000
0010
0000
0100
1000
0000
1000
0001
0000
0010
1000
0010
0100
,
0001
0010
0001
0000
0010
0000
0100
0000
1000
0010
1000
0000
0100
0000
0010
0000
,
0001
1000
0001
0000
0000
0000
0100
0000
1000
0100
1000
0000
0100
0000
0010
0000
,
0001
0100
0010
1000
0100
0000
0010
0001
0000
0001
0010
0000
0000
0100
0010
0001
,
0010
0100
1000
0000
1000
0100
0000
0100
0010
0000
0001
0000
0100
0000
0010
0000
,
1100
0000
1001
0010
,
1001
0000
1010
0100
,
0011
0100
1010
0100
,
0011
1000
0110
1100
,
0011
0100
0011
0100
1010
0100
1010
0100
,
1001
0100
1001
0100
0011
0100
0011
0100
,
1001
1001
0010
0100
1010
1010
0100
0010
,
1001
0001
1100
1100
0011
1100
0110
1001
,
0110
0000
1000
0000
0001
0000
0010
0100
0000
0100
1000
0000
1000
0000
0010
0000
,
0100
0000
0001
0000
0010
0000
0100
1000
0000
1000
0001
0000
0000
0000
0100
0000
,
0001
0000
0010
0000
1000
0000
0010
0000
0100
0000
0001
1000
0000
1000
0001
0000
,
0001
0000
0010
0000
0100
0000
1000
0000
0010
0100
0000
0100
0010
0000
0001
0000
,
1000
0000
0100
0000
1000
0000
0100
0010
0000
0010
0001
0000
0010
0000
1000
0000
,
0010
0000
0100
0000
0001
0000
0010
0100
0000
0100
0001
0000
0000
0000
0100
0000
,
1000
0000
0100
0000
1000
0000
0010
0100
0000
0010
1000
0000
0100
0000
0010
0000
,
0001
0000
0010
0000
0100
0000
1000
0100
0000
0100
0001
0000
0010
0000
0100
0000
,
1001
0000
0010
0000
1000
0000
0010
1000
0000
0010
0100
0000
1000
0000
0010
0000
,
0100
0000
0001
0000
0010
0000
0100
1000
0000
1000
0001
0000
0010
0000
0000
0000
,
1000
0000
0010
0000
0100
0000
0010
0001
0000
0001
0010
0000
0100
0000
1000
0000
,
0010
0000
0100
0000
0001
0000
0010
0100
0000
0100
0010
0000
1000
0000
0100
0000
,
0010
0000
0001
0000
0010
0000
0000
1000
0000
1000
0010
0000
0100
0000
0001
0000
,
0010
0000
0100
0000
1000
0000
0010
0100
0000
0001
0100
0000
1000
0010
0100
0010
,
1000
0000
0000
1100
1010
1000
0000
1010
,
1001
0000
0110
0000
1001
0000
0110
0000
1001
0000
1001
0000
1001
0000
0001
0110
,
1001
0010
0100
1000
0001
0010
0100
1000
,
0001
0010
0100
1000
0001
0010
0100
1000
,
0001
0010
0000
0010
0001
0010
1000
0010
,
0001
0010
0000
0010
0001
0010
0100
0010
,
0001
0010
0100
1000
0001
0010
0100
1000
,
0001
0010
0100
1000
0001
0010
0100
1000
,
0001
0100
1000
0100
0001
0100
1000
0100
,
0001
0100
1000
0100
0001
0100
1000
0100
,
0001
1000
0001
1000
0001
1000
0001
1000
,
0001
0100
0001
0100
0001
0100
0001
0010
,
1000
0001
1000
0001
1000
0001
1000
0001
,
1000
0010
1000
0010
1000
0010
1100
0110
,
1001
0100
1001
0010
1001
0100
1001
0010
,
1001
1000
1001
0001
1001
1000
1001
0001
,
1001
0000
1100
0010
0101
0000
1100
0010
,
1001
0000
0000
0000
1000
0000
0000
0010
0100
0000
0001
0000
1000
0010
0100
0001
,
2000
0000
0000
0000
,
0000
0000
0000
0000
,
3000
0000
0000
0000
,
;
