#TITLE:Disconnected Hazard;
#ARTIST:DM Ashura feat. Inspector K;
#BANNER:Disconnected Hazard.png;
#BACKGROUND:Disconnected Hazard-bg.png;
#MUSIC:Disconnected Hazard.mp3;
#OFFSET:-0.063;
#SELECTABLE:YES;
#CREDIT:converted by Vyhd;
#BPMS:0.000=210.00;
#STOPS:;
#BGCHANGES:;

//----------------dance-single - Basic----------------
#NOTES:
     dance-single:
     FFR R2:
     Basic:
     4:
     -1.000,-1.000,-1.000,-1.000,-1.000:
0000
0000
0000
0000
,
0000
0000
0000
0000
,
0000
0000
0000
0000
,
0000
0000
0000
0000
,
0000
0000
0000
0000
,
0000
0000
0000
0000
,
0000
0000
0000
0000
,
0000
0000
0000
0000
,
0001
0001
0001
0000
,
1000
1000
1000
0000
,
0010
0010
0010
0000
,
0010
0010
0010
0000
,
0100
0100
0100
0000
,
0001
0001
0001
0000
,
1000
1000
1000
0000
,
1000
1000
1000
0000
,
0011
0000
0000
0000
,
1001
0000
0000
0000
,
1100
0000
0000
0000
,
0110
0000
0000
0000
,
0011
0000
0000
0000
,
1100
0000
0000
0000
,
0110
0000
0000
0000
,
1001
0000
0000
0000
,
0011
0000
0000
0000
,
1100
0000
0000
0000
,
1010
0000
0000
0000
,
0101
0000
0000
0000
,
0110
0000
0000
0000
,
1001
0000
0000
0000
,
1100
0000
0000
0000
,
0101
0000
0000
0000
,
1001
0000
0001
0000
,
1000
0000
1000
0000
,
0010
0000
0010
0000
,
0100
0000
0100
0000
,
0001
0000
0001
0000
,
0010
0000
0010
0000
,
0100
0000
0100
0000
,
1000
0000
1000
0000
,
0001
1000
0001
1000
,
0001
1000
0001
1000
,
0010
0100
0010
0100
,
0010
0100
0010
0100
,
0001
0010
0001
0010
,
0001
0010
0001
0010
,
0001
1000
0001
1000
,
0001
1000
0001
1000
,
0010
0000
0000
0000
,
0010
0000
0000
0000
,
0100
0000
0000
0000
,
0100
0000
0000
0000
,
0001
0000
0000
0000
,
0001
0000
0000
0000
,
1000
0000
0000
0000
,
1001
0000
0000
0000
,
0020
0000
0000
0000
,
0130
0000
0000
0000
,
0102
0000
1003
0000
,
1020
0000
0130
0000
,
0102
0000
0000
0000
,
1003
0000
0000
0000
,
1020
0000
0130
0000
,
0102
0000
1003
0000
,
1100
0000
0000
0000
,
0000
0000
0000
0000
,
0011
0000
0000
0000
,
0000
0000
0000
0000
,
1000
0000
0000
0000
,
0000
0000
0000
0000
,
0001
0000
0000
0000
,
0000
0000
0000
0000
,
0100
0000
0100
0000
,
0010
0000
0010
0000
,
1000
0000
1000
0000
,
0010
0000
0010
0000
,
0001
0000
0001
0000
,
0010
0000
0010
0000
,
0100
0000
0100
0000
,
1001
0000
1001
0000
,
0000
0000
0000
0000
,
0000
0000
0000
0000
,
0001
0000
0010
0000
,
0001
0000
0010
0000
,
0100
0000
1000
0000
,
0100
0000
1000
0000
,
0010
0000
0010
0000
,
0100
0000
0100
0000
,
0010
0000
0010
0000
,
0010
0000
0010
0000
,
1001
0000
1001
0000
,
0011
0000
0011
0000
,
0110
0000
0110
0000
,
1100
0000
1100
0000
,
1001
0000
1001
0000
,
0110
0000
0110
0000
,
0101
0000
1100
0000
,
0101
0000
1001
0000
,
0110
0000
0000
0000
,
0110
0000
0000
0000
,
0110
0000
0000
0000
,
0110
0000
0000
0000
,
1001
0000
0000
0000
,
1001
0000
0000
0000
,
1001
0000
0000
0000
,
1001
0000
0000
0000
,
0200
0000
0000
0000
,
0300
0000
0000
0000
,
;

//----------------dance-single - Another----------------
#NOTES:
     dance-single:
     FFR R2:
     Another:
     6:
     -1.000,-1.000,-1.000,-1.000,-1.000:
0000
0000
0000
0000
,
0000
0000
0000
0000
,
0000
0000
0000
0000
,
0000
0000
0000
0000
,
0000
0000
0000
0000
,
0000
0000
0000
0000
,
0000
0000
0000
0000
,
0000
0000
0000
0000
,
0001
0100
0001
0000
0010
0000
0000
0000
,
1010
1010
1010
0000
,
0001
0000
0001
0000
0001
0100
0000
0000
,
0001
0000
0001
0000
0001
0100
0000
0000
,
0010
0010
1010
0000
,
0001
0001
0001
0000
,
0001
0000
0001
0000
0001
0100
0000
0000
,
0001
0000
0001
0000
0001
0100
0000
0000
,
1100
0000
1100
0000
0100
0010
0100
0000
,
0110
0110
0011
0011
,
0001
0100
0001
0000
0010
1000
0010
0000
,
0001
0100
0001
0000
0010
1000
0010
0000
,
1001
1001
1001
1001
,
1100
1100
1100
1100
,
0100
0010
0100
0000
0010
0001
0010
0000
,
0100
0010
0100
0000
0010
0001
0010
0000
,
1100
1100
1100
1100
,
1001
1001
1001
1001
,
0011
0011
0011
0011
,
1001
1001
1001
1001
,
1010
1010
1010
1010
,
0110
0110
0110
0110
,
1001
1001
0011
0011
,
1100
1100
0110
0110
,
1001
0000
0000
0000
,
0011
0000
0000
0000
,
1001
0000
0000
0000
,
0110
0000
0000
0000
,
0001
0000
0000
0000
,
1000
0000
0000
0000
,
0200
0000
0000
0000
,
0000
0000
0000
0000
0000
0000
0000
0300
,
0010
0010
0010
0010
,
0001
0001
0001
0001
,
1000
1000
1000
1000
,
0010
0010
0010
0010
,
0100
0100
0100
0100
,
0001
0001
0001
0001
,
0010
0010
0010
0010
,
0001
0001
0001
0001
,
1001
0000
1010
0000
,
0011
0000
1100
0000
,
0101
0000
1001
0000
,
0011
0000
1010
0000
,
0110
0000
1001
0000
,
0011
0000
1100
0000
,
0110
0000
1001
0000
,
1001
1001
1001
0000
,
0001
0001
0001
0000
,
1000
1000
1000
0000
,
0010
0010
0100
0100
,
0001
0001
1001
1001
,
0011
0011
0011
0000
,
1100
1100
1100
0000
,
0110
1001
0100
1001
,
0110
0000
0001
0010
0100
1000
0010
0100
,
0001
0000
0001
0000
,
0010
1000
0010
0000
0001
0100
0001
0000
,
0010
0000
0000
0000
0001
0010
0001
0000
,
0100
1000
0100
0000
0001
0010
0001
0000
,
1000
0000
0001
0000
,
0010
1000
0010
0000
0001
0100
0001
0000
,
0010
0000
1000
0000
,
0100
1000
0100
1000
0100
1000
0100
0000
,
0010
0010
0010
0010
,
0010
0010
0010
0010
,
1000
1000
1000
1000
,
1000
1000
1000
1000
,
0001
0001
0001
0001
,
0001
0001
0001
0001
,
0010
0010
0010
0010
,
0010
0010
0010
0010
,
0000
0000
0000
0000
,
1100
1100
1100
1100
,
0101
0000
0010
0100
0010
0000
0101
0000
,
0101
0000
0001
0010
0001
0000
1001
0000
,
1100
0000
0010
0100
0010
0000
1010
0000
,
0110
0000
0001
0010
0001
0000
0001
0000
,
1100
0000
0100
1000
0100
0000
0100
0000
,
0110
0000
0100
0010
0100
0010
0100
0000
,
0011
0000
0001
0010
0001
0010
0001
0000
,
0101
0000
0001
0100
0001
0100
0001
0000
,
1010
0000
0001
0100
0000
0001
0010
0001
,
1000
0000
0100
0010
0100
1000
0100
0000
,
0010
0010
0010
0010
,
0001
0001
0001
0001
,
1001
1000
1000
1000
,
0011
0001
0001
0001
,
0110
0010
0010
0010
,
1001
1001
1001
1001
,
0011
0000
1100
0000
,
0110
0000
0011
0000
,
1100
0000
0101
0000
,
1010
0000
0011
0000
,
0110
0000
1100
0000
,
0101
0000
0011
0000
,
1100
0000
0101
0000
,
0110
0000
1001
0000
,
2002
0000
0000
0000
,
3003
0000
0000
0000
,
;

//----------------dance-single - Maniac----------------
#NOTES:
     dance-single:
     FFR R2:
     Maniac:
     9:
     -1.000,-1.000,-1.000,-1.000,-1.000:
0000
0000
0000
0000
,
0000
0000
0000
0000
,
0000
0000
0000
0000
,
0000
0000
0000
0000
,
0000
0000
0000
0000
,
0000
0000
0000
0000
,
0000
0000
0000
0000
,
0000
0000
0000
0000
0000
0000
0000
0001
,
0100
0001
0100
0001
0100
0000
0000
0000
,
0100
0000
0100
0000
0100
0000
0000
0010
,
1000
0000
0010
1000
0010
1000
0000
0010
,
1000
0000
0010
1000
0010
1000
0000
0001
,
0010
0001
0010
0001
0010
0000
0000
0000
,
0100
0000
0100
0000
0100
0000
0000
1000
,
0100
0000
1000
0001
1000
0001
0000
1000
,
0100
0000
1000
0001
1000
0001
0000
0000
,
1000
0000
0001
0100
0000
0100
0000
0010
,
0100
0000
0010
0100
0010
1000
0010
0000
,
1000
0000
0100
1000
0100
0010
0100
0010
,
0010
0100
0010
0001
0001
0010
0001
0000
,
0100
0000
0010
1000
0000
1000
0000
0001
,
0010
0000
0100
1000
0001
0010
0100
0000
,
1000
0000
0001
0100
0010
1000
0010
1000
,
0100
1000
0100
1000
0010
0100
0001
0000
,
0010
0000
0001
0010
0000
0100
0000
1000
,
0100
0000
0010
0100
1000
0100
0010
0000
,
0010
0000
0001
0100
0010
0100
0001
1000
,
0100
1000
0001
0010
0001
0001
0001
0000
,
1000
0000
0010
0100
0000
0010
0100
0010
,
1000
0000
0001
0010
0001
1000
0001
0000
,
1000
0000
0100
1000
0010
0100
0010
1000
,
0010
0001
0010
0000
0010
1000
0100
0000
,
1000
0000
0001
0000
,
0011
1100
1100
0000
,
0010
0000
1000
0000
,
1010
0101
0101
0000
,
0010
0000
1000
0000
,
0011
1100
1100
0000
,
0001
0000
1000
0000
,
0011
1100
0010
0000
,
0001
0001
0001
0001
,
0011
0101
1001
0001
,
0001
1001
1001
1001
,
0101
0011
1001
1000
,
1000
1000
1000
1000
,
1010
1001
1100
1000
,
1000
1001
1001
1001
,
1001
1010
1100
1000
,
1001
0001
0001
0001
0010
0010
0010
0010
,
1001
0001
0001
0001
0100
0100
0100
1100
,
1010
0010
0010
0010
1000
1000
1000
1000
,
1100
0100
0100
0100
0010
0010
0010
0010
,
1100
0100
0100
0100
1001
1000
1000
1100
,
1001
0001
0001
0001
1100
0100
0100
1100
,
1010
0010
0010
0110
1100
1000
1000
1100
,
1001
1001
1001
1001
1010
1010
1010
1010
,
0110
0001
1000
0001
1000
0001
1000
0001
,
0000
0001
0010
0001
0010
0001
0010
0001
,
1000
0100
1000
0100
0010
0001
0010
0001
,
0100
0010
0100
0010
1000
0100
0010
0001
,
0100
0010
0100
0010
0100
0010
0100
0010
,
1000
0100
1000
0100
1000
0100
1000
0100
,
0010
0001
0010
0001
0100
0010
0100
0010
,
1000
0100
0010
0001
0100
0010
1000
0100
,
0011
0000
0000
0000
,
0110
0000
0000
0000
,
1100
0000
0000
0000
,
1001
0000
0000
0000
,
0011
0000
0000
0000
,
1100
0000
0000
0000
,
1001
0000
0000
0000
,
1001
0000
1001
0000
,
0001
0100
0001
0100
0001
0100
0001
0100
,
0001
0100
0001
0100
0001
0100
0001
0100
,
0010
0100
0010
0100
0010
0100
0010
0100
,
0010
0100
0010
0100
0010
0100
0010
0100
,
0010
1000
0010
1000
0010
1000
0010
1000
,
0010
1000
0010
1000
0010
1000
0010
1000
,
0100
1000
0100
1000
0100
1000
0100
1000
,
0100
1000
0100
1000
0100
1000
0100
1000
,
0000
0000
0000
0000
,
0010
0001
0010
0001
0010
0010
0010
0010
,
0100
0000
1000
0100
0000
1000
0000
0001
,
0100
0000
0010
0100
0010
0100
0001
0000
,
0010
0000
0001
0010
0001
0010
0001
0010
,
0100
1000
0100
1000
0010
0100
0001
0000
,
1000
0000
0010
0100
0000
0100
0000
0001
,
0010
0000
0100
1000
0010
0100
0001
0000
,
0100
0000
0001
1000
0001
1000
0001
1000
,
0010
0100
0001
0010
1000
1000
0001
0000
,
0010
0000
0001
1000
0000
0001
0000
0100
,
0010
0000
1000
0001
0100
0010
1000
0000
,
0001
0000
0010
0001
0010
0001
0010
0001
,
1000
0100
1000
0100
0010
0001
0100
0000
,
0010
0000
1000
0001
0000
0001
0000
0100
,
0001
0000
1000
0010
0100
0001
0010
0000
,
0001
0000
1000
0010
0100
0001
0010
1000
,
1000
0010
0100
0001
0010
1000
1000
0000
,
0001
0000
1000
0000
,
0011
0011
0011
0000
,
1000
0000
0001
0000
,
1001
1001
1001
0000
,
0100
0000
0010
0000
,
1001
1001
1001
0000
,
0010
0001
1000
0100
,
1001
1001
1001
0000
,
1001
0000
0000
0000
,
;

//----------------dance-single - SManiac----------------
#NOTES:
     dance-single:
     FFR R2:
     SManiac:
     12:
     -1.000,-1.000,-1.000,-1.000,-1.000:
0000
0000
0000
0000
,
0000
0000
0000
0000
,
0000
0000
0000
0000
,
0000
0000
0000
0000
,
0000
0000
0000
0000
,
0000
0000
0000
0000
,
0000
0000
0000
0000
,
0000
0000
0000
0000
0000
0000
0000
0010
,
0101
0010
1001
0010
1100
0000
1000
0000
,
0011
0000
1100
0000
1100
0000
0001
0010
,
1100
0000
0101
0010
1001
0100
1010
0001
,
1100
0000
0101
0010
1001
0100
1010
0100
,
1001
0010
0101
0010
1100
0000
1000
0000
,
0011
0000
1100
0000
1100
0000
0010
0100
,
1001
0000
1010
0100
1001
0100
0010
0100
,
0011
0000
1010
0100
1001
0100
0010
0000
,
1001
0000
0000
0000
0001
0000
0100
0000
0000
0000
0100
0000
0000
0000
1000
0100
,
0001
0000
0001
0010
0001
0100
1000
0000
,
0100
0000
0001
0100
0010
1000
0010
1000
,
0001
0000
0100
0000
0001
0000
0100
0000
0010
0100
1000
0000
0100
0000
0000
0000
,
1001
0000
0000
0000
1000
0000
0010
0000
0000
0000
0010
0000
0000
0000
0001
0010
,
1000
0000
1000
0100
1000
0010
0001
0000
,
0010
0000
0000
0000
1000
0000
0010
1000
0100
0000
0001
0000
0100
0000
0001
0100
,
1000
0000
0010
0000
1000
0000
0010
1000
0100
0000
0010
0000
0100
0000
0000
0000
,
1001
0000
0000
0000
0001
0000
0100
0000
0000
0000
0100
0000
0000
0000
1000
0100
,
0001
0000
0001
0010
0001
0100
1000
0000
,
0100
0000
0001
0100
0010
1000
0010
1000
,
0001
0000
0100
0000
0001
0000
0100
0000
0010
0100
1000
0000
0100
0000
0000
0000
,
1001
0000
0000
0000
1000
0000
0010
0000
0000
0000
0010
0000
0000
0000
0001
0010
,
1000
0000
1000
0100
1000
0010
0001
0000
,
0010
0000
0000
0000
1000
0000
0010
1000
0100
0000
0001
0000
0100
0000
0001
0100
,
1000
0000
0010
0000
1000
0000
0010
1000
0100
0000
0010
0000
0100
0000
0000
0000
,
1000
0000
0000
0000
0001
0000
0000
1001
,
0101
0000
0010
0000
1001
0000
0100
0000
1010
0000
0000
0000
0000
0000
0010
0100
,
0010
0000
0000
0000
1000
0000
0000
1100
,
0011
0000
0000
0000
0110
0000
0001
0000
1100
0000
0010
0000
0000
0000
0100
0010
,
0100
0000
0000
0000
1000
0000
0000
1001
,
1010
0000
0100
0000
1001
0000
0010
0000
0101
0000
0000
0000
0000
0000
1000
0001
,
1000
0000
0000
0000
0100
0020
0000
0031
,
1100
0000
0000
0000
0110
0000
1000
0000
0011
0000
0100
0000
0000
0000
0001
1000
,
0001
0000
0010
0000
1010
0000
0010
1100
,
1010
0000
0001
0000
0110
0000
0001
0000
1100
0000
0000
0000
0001
0000
1000
0010
,
1000
0000
0000
0000
1001
0000
0001
0000
0001
0001
0100
0000
1001
0000
1010
0000
,
0101
0000
0000
0000
0011
0000
1000
0000
0110
0000
0001
0000
1000
0000
0001
0010
,
0001
0000
0100
0000
0110
0000
0100
0011
,
0110
0000
1000
0000
0101
0000
0010
0000
1001
0000
0000
0000
0001
0000
1000
0100
,
1000
0000
0001
0001
0100
0000
0001
0001
0100
0000
0001
0001
0100
0000
1010
0000
,
0101
0000
0000
0000
1001
0000
0010
0000
1100
0000
0010
0000
0001
0000
1000
0100
,
1000
0010
1000
0001
1000
0010
1000
0001
0010
0100
0010
0001
0010
0100
0010
0001
,
1000
0010
1000
0001
1000
0010
1000
0001
0010
0100
0010
0001
0010
0100
0010
0001
,
1000
0010
1000
0100
1000
0010
1000
0100
0010
0001
0010
0100
0010
0001
0010
0100
,
1000
0010
1000
0001
1000
0010
1000
0001
0010
0100
0010
0001
0010
0100
0010
0001
,
1000
0010
1000
0001
1000
0010
1000
0001
0100
0010
0100
0001
0100
0010
0100
0001
,
0010
0100
0010
0001
0010
0100
0010
0001
0100
1000
0100
0010
0100
1000
0100
0010
,
1000
0001
1000
0100
1000
0001
1000
0100
0010
0001
0010
0100
0010
0001
0010
0100
,
1000
0010
1000
0001
1000
0010
1000
0001
0100
0010
0100
0001
0100
0010
0100
0001
,
1000
0100
1000
0100
0010
0100
0010
0100
0010
0001
0010
0001
0010
0100
1000
0001
,
1000
0010
1000
0010
0100
0010
0100
0010
0100
0001
0100
0001
0100
0010
1000
0100
,
1000
0001
1000
0010
1000
0001
1000
0010
0100
0001
0100
0010
0100
0001
0100
0010
,
1000
0001
1000
0010
0100
0001
0100
0010
1000
0100
0010
0001
0100
0010
1000
0100
,
0010
0001
0010
0001
0010
0100
0010
0100
1000
0100
1000
0100
0010
0001
0100
0010
,
1000
0100
1000
0100
0010
0100
0010
0100
0010
0001
0010
0001
1000
0100
0010
0001
,
0100
0010
0100
0001
0100
0010
0100
0001
1000
0010
1000
0001
1000
0010
1000
0001
,
0100
0010
0100
0001
1000
0010
1000
0001
0100
0010
1000
0100
0010
0001
0100
0010
,
1001
0000
0000
0000
0100
0000
0001
0000
0000
0000
1000
0000
0000
0000
0001
0100
,
0001
1000
0001
0000
0010
0001
1000
0000
,
0001
0000
0000
0000
1000
0000
0010
0000
1000
0000
0001
0000
0000
0000
1000
0100
,
1000
0001
0100
0000
0001
0000
0000
0000
,
1000
0001
0010
0001
0000
1000
0000
0001
,
0000
0100
0010
0000
1000
0000
0000
0000
,
1000
0000
0001
0000
0010
0000
0001
0010
0001
0000
0000
0000
0010
0000
0000
0000
,
0100
1000
0100
1000
0100
0000
0000
0000
0010
0001
0010
0001
1000
0100
1000
0100
,
0010
0001
0010
0001
0010
0001
0010
0001
,
0010
0001
0010
0001
0010
0001
0010
0001
,
1000
0010
1000
0010
1000
0010
1000
0010
,
1000
0010
1000
0010
1000
0010
1000
0010
,
0100
0001
0100
0001
0100
0001
0100
0001
,
0100
0001
0100
0001
0100
0001
0100
0001
,
1000
0001
1000
0001
1000
0001
1000
0001
,
1000
0001
1000
0001
1000
0001
1000
0001
,
0000
0000
0000
0000
,
0001
0000
0010
0000
0001
0000
0010
0000
0001
0010
0001
0010
0001
0010
0001
0010
,
1001
0000
0000
0000
0001
0000
0100
0000
0000
0000
0100
0000
0000
0000
1000
0100
,
0001
0000
0001
0010
0001
0100
1000
0000
,
0100
0000
0001
0100
0010
1000
0010
1000
,
0001
0000
0100
0000
0001
0000
0100
0000
0010
0100
1000
0000
0100
0000
0000
0000
,
1001
0000
0000
0000
1000
0000
0010
0000
0000
0000
0010
0000
0000
0000
0001
0010
,
1000
0000
1000
0100
1000
0010
0001
0000
,
0010
0000
0000
0000
1000
0000
0010
1000
0100
0000
0001
0000
0100
0000
0001
0100
,
1000
0000
0010
0000
1000
0000
0010
1000
0100
0000
0010
0000
0100
0000
0000
0000
,
1001
0000
0000
0000
0001
0000
0100
0000
0000
0000
0100
0000
0000
0000
1000
0100
,
0001
0000
0001
0010
0001
0100
1000
0000
,
0100
0000
0001
0100
0010
1000
0010
1000
,
0001
0000
0100
0000
0001
0000
0100
0000
0010
0100
1000
0000
0100
0000
0000
0000
,
1001
0000
0000
0000
1000
0000
0010
0000
0000
0000
0010
0000
0000
0000
0001
0010
,
1000
0000
1000
0100
1000
0010
0001
0000
,
0010
0000
0000
0000
1000
0000
0010
1000
0100
0000
0001
0000
0100
0000
0001
0100
,
1000
0000
0010
0000
1000
0000
0010
1000
0100
0000
0010
0000
0100
0000
0000
0000
,
0001
0000
0010
0000
1000
0000
0010
1100
,
1010
0000
0001
0000
0110
0000
0001
0000
1100
0000
0000
0000
0001
0000
1000
0010
,
1000
0000
0000
0000
1001
0000
0001
0000
1001
0001
0100
0000
1001
0000
1010
0000
,
0101
0000
0000
0000
0011
0000
1000
0000
0110
0000
0001
0000
1000
0000
0001
0010
,
0001
0000
0100
0000
0010
0000
0100
0011
,
0110
0000
1000
0000
0101
0000
0010
0000
1001
0000
0000
0000
0001
0000
1000
0100
,
1000
0000
0001
0001
0100
0000
0001
0001
0100
0000
0001
0001
0100
0000
1010
0000
,
0101
0000
0000
0000
1001
0000
0010
0000
1100
0000
0010
0000
0001
0000
1000
0001
,
0010
0000
0000
0000
,
;
