#TITLE:Composer;
#ARTIST:SuperGreenX;
#BANNER:Composer.png;
#BACKGROUND:Composer-bg.png;
#MUSIC:Composer.mp3;
#OFFSET:-0.028;
#SELECTABLE:YES;
#CREDIT:converted by Vyhd;
#BPMS:0.000=107.00;
#STOPS:;
#BGCHANGES:;

//----------------dance-single - Basic----------------
#NOTES:
     dance-single:
     FFR R2:
     Basic:
     4:
     -1.000,-1.000,-1.000,-1.000,-1.000:
0000
0000
0000
0000
,
0000
0000
0000
0000
,
0000
0000
0000
0000
,
0000
0000
0000
0000
,
0100
0000
0000
0000
1001
0000
0000
0000
0000
0000
0100
0000
0000
1000
0000
0010
,
0100
0000
0010
0000
0001
0000
0000
0000
0000
0000
0100
0010
0000
1000
0000
0001
,
1000
0000
0000
0000
1001
0000
0000
0000
0000
0000
0010
0000
0000
0001
0000
0100
,
0010
0000
0100
0000
0001
0000
0000
0000
0000
0000
0010
0001
0000
1000
0000
1000
,
0001
0000
0000
0000
0110
0000
0000
0000
0000
0000
0001
0000
0000
0100
0000
1000
,
0001
0000
0010
0000
0100
0000
0000
0000
0000
0000
1000
0001
0000
0100
0000
0010
,
1000
0000
0000
0000
0110
0000
0000
0000
0000
0000
1000
0000
0000
0100
0000
0001
,
1000
0000
1000
0000
0010
0000
0000
0000
0000
0000
0001
1000
0000
0100
0000
0010
,
0100
0000
0010
0000
1000
0000
0010
0000
0100
0010
0100
0000
0010
1000
0010
0000
,
0010
0000
0010
0000
0001
0000
0100
0000
0100
1000
0010
0001
0100
0000
0010
0000
,
0100
0000
0001
0000
1000
0000
0001
0000
0100
0001
0010
0000
0001
1000
0010
0100
,
0010
0000
0100
0000
0001
0000
0100
0000
0010
0100
1000
0000
0001
0100
0001
0000
,
0100
0000
0010
0000
1000
0000
0010
0000
0001
0010
0100
0000
0100
0001
0100
0000
,
1000
0000
0010
0000
0100
0000
0001
0000
0100
0001
0010
0000
0100
0001
1000
0000
,
0010
0000
1000
0000
0100
0000
0010
0000
0100
0010
1000
0000
0010
1000
0001
0100
,
0010
0000
1000
0000
0001
0000
0010
0000
0100
1000
0010
0000
0001
0100
1000
0100
,
0001
0000
0000
0100
0010
0001
1010
0001
,
0010
1000
0100
0000
0001
0100
1000
0100
0010
0000
0010
0000
0001
0000
1000
0000
,
0010
0100
0001
1000
0000
0100
0000
0001
1000
0000
0001
0000
1100
0000
0001
0000
,
0100
0001
0010
0000
1000
0001
1000
0010
0100
0000
0010
0100
0001
0000
0010
0000
,
1000
0100
0010
0001
0000
1000
0000
0010
1000
0000
0100
0000
0011
0000
0100
0000
,
1000
0001
1000
0000
0010
1000
0001
0010
0001
0000
0010
0000
1001
0000
0010
0000
,
0100
1000
0010
0100
0000
1000
0000
0001
0100
0000
0010
0000
0101
0000
0010
0000
,
1000
0010
0000
0000
0010
0001
0100
0010
0001
0000
0010
0100
0001
0000
1000
0000
,
0100
0010
0001
1000
0100
0001
0000
1000
0020
0000
0030
0200
0000
0300
0001
1000
,
0001
0000
0100
0000
1000
0000
0010
0000
0001
0000
0010
0000
0001
1000
0001
0000
,
1000
0000
0100
0000
0001
0000
1000
0000
0010
0000
0100
0000
0010
0100
1000
0000
,
0001
0000
0100
0000
0010
0000
0100
0000
0010
0000
1000
0000
0001
0100
0010
0000
,
0001
0000
1000
0000
0001
0000
1000
0000
0100
0000
0010
0000
0001
1000
0100
0000
,
0001
0000
0100
0000
1000
0000
0010
0000
0100
0000
0001
0000
0010
0100
0010
0000
,
1000
0000
0010
0000
0001
0000
1000
0000
0010
0000
0001
0000
0010
0100
1000
0000
,
0001
0000
1000
0000
0010
0000
0001
0000
0100
0000
0010
0000
1000
0001
0100
0000
,
0001
0000
1000
0000
0100
0000
0001
0000
0010
0000
1000
0000
0010
0100
0010
0000
,
1000
0000
0010
0000
1001
0000
0010
0000
0100
0010
1000
0000
0100
0001
0100
1000
,
0010
0000
0100
0000
1001
0000
0010
1000
0010
0000
0001
0010
0100
0000
0100
0001
,
1000
0001
0100
0000
1001
0000
0100
0000
0100
0010
0001
0000
1000
0100
0010
1000
,
0001
0000
0010
0000
1001
0000
0100
0000
0001
1000
0010
0100
0001
0000
1000
0000
,
0001
0000
0001
0000
0110
0000
1000
0000
0100
1000
0010
0000
0100
0002
0000
0003
,
0100
0000
0010
0000
1001
0000
0100
1000
0001
0000
0001
1000
0100
0000
0010
0001
,
1000
0010
0100
0000
1001
0000
0100
1000
0001
0100
0010
0000
0010
1000
0100
0001
,
0010
0000
0010
0100
0001
0000
0100
0000
0001
1000
0010
0100
1000
0010
0001
0100
,
2002
0000
0000
0000
,
3003
0000
0000
0000
,
;

//----------------dance-single - Another----------------
#NOTES:
     dance-single:
     FFR R2:
     Another:
     6:
     -1.000,-1.000,-1.000,-1.000,-1.000:
0000
0000
0000
0000
,
0000
0000
0000
0000
,
0000
0000
0000
0000
,
0000
0000
0000
0000
,
0100
0000
0000
0000
1001
0000
0000
0000
0000
0000
0100
0000
0000
1001
0000
0010
,
0100
0000
0100
0000
1001
0000
0000
0000
0000
0000
0100
0010
0000
1001
0000
0001
,
1000
0000
0000
0000
1001
0000
0000
0000
0000
0000
0010
0000
0000
1001
0000
0100
,
0010
0000
0100
0000
0001
0000
0000
0000
0000
0000
0010
0001
0000
1000
0000
1000
,
0001
0000
0000
0000
0110
0000
0000
0000
0000
0000
0001
0000
0000
0110
0000
1000
,
0001
0000
0001
0000
0110
0000
0000
0000
0000
0000
1000
0001
0000
0110
0000
0010
,
1000
0000
0000
0000
0110
0000
0000
0000
0000
0000
1000
0000
0000
0110
0000
0001
,
1000
0000
1000
0000
0110
0000
0000
0000
0000
0000
0001
1000
0000
0100
0000
0010
,
0100
0000
0010
0000
1001
0000
0010
0000
0100
0010
0100
0000
0010
1000
0010
0100
,
0010
0000
0010
0000
1001
0000
0100
0000
0100
1000
0010
0001
0100
1000
0010
0001
,
0100
0000
0001
0000
1010
0000
0001
0000
0100
0001
0010
0000
0001
1000
0010
0100
,
0010
0000
0100
0000
0011
0000
0100
0000
0010
0100
1000
0000
0001
0100
0001
0010
,
0100
0000
0010
0000
1001
0000
0010
0000
1000
0010
0100
0000
0100
0001
0100
0010
,
1000
0000
0010
0000
1100
0000
0001
0000
0100
0001
0010
0000
0100
0001
1000
0000
,
0010
0000
1000
0000
0110
0000
0010
0000
0100
0010
1000
0000
0010
1000
0001
0100
,
0010
0000
0010
0000
0101
0000
0010
0000
0100
1000
0010
0000
0001
0100
1000
0100
,
0001
0000
0000
0100
0010
0101
1010
0101
,
0001
1000
0100
0000
0001
0100
1000
0100
0010
0000
0010
0000
1001
0000
1100
0000
,
0010
0100
0001
1000
0000
0100
0000
0001
1000
0000
0101
0000
1100
0000
0101
0000
,
0100
0001
0010
0000
1000
0001
1000
0010
0100
0000
0010
0100
0001
0000
0011
0000
,
1000
0100
0010
0001
0000
1000
0000
0010
1000
0000
0101
0000
0011
0000
0110
0000
,
1000
0001
1000
0000
0010
1000
0001
0010
0001
0000
0010
0000
1001
0000
0011
0000
,
0100
1000
0010
0100
0000
1000
0000
0001
0100
0000
1010
0000
0101
0000
0011
0000
,
1000
0010
0000
0000
0010
0001
0100
0010
0001
0000
0010
0100
0001
0000
1010
0000
,
0100
0010
0001
1000
0100
0001
0000
1000
0020
0000
0030
0200
0000
0300
0001
1000
,
0001
0010
0100
1000
0010
0100
0010
0100
0001
0100
0010
1000
0001
0000
0000
0000
,
1000
0001
0100
0001
0010
0100
1000
0001
1000
0010
1000
0100
1000
0000
0000
0000
,
0001
1000
0100
0010
0001
0010
0100
1000
0010
0100
0001
1000
0001
0000
0000
0000
,
0001
0010
1000
0100
0001
0100
1000
0001
1000
0010
0100
0010
0001
0000
0000
0000
,
1000
0010
0100
0001
1000
0100
0010
0001
0010
0100
0001
1000
0010
0000
0000
0000
,
1000
0001
0010
0100
0001
0010
1000
0100
0010
0001
1000
0100
0010
0000
0000
0000
,
0001
1000
0001
0100
0010
0100
0001
0100
0001
0100
0010
0100
1000
0000
0000
0000
,
0001
0010
0100
1000
0100
0010
0001
0010
0100
1000
0001
0100
0010
0000
0000
0000
,
1001
0000
0010
0000
1001
0000
0010
0000
0100
0010
1000
0000
0100
0001
0100
1000
,
0010
0000
0001
0000
1001
0000
0010
1000
0010
0100
0001
0010
0100
0001
0100
0001
,
1000
0001
1100
0000
1001
0000
0100
0000
0100
0010
0001
0000
1000
0100
0010
1000
,
0011
0000
0010
0000
1001
0000
1000
0000
0001
1000
0010
0100
0001
1000
1000
0001
,
0001
0000
0001
0000
0110
0000
1000
0000
0100
1000
0010
0000
0100
2002
0000
3003
,
0100
0000
0100
0000
1001
0000
0100
1000
0001
0100
0001
1000
0100
0001
0010
0001
,
1000
0010
0100
0000
1001
0000
0100
1000
0001
0100
0010
0000
0010
1000
0100
0010
,
0100
0000
0010
0100
0001
0000
0100
0000
0001
1000
0010
0100
1000
0100
0001
0010
,
2002
0000
0000
0000
,
3003
0000
0000
0000
,
;

//----------------dance-single - Maniac----------------
#NOTES:
     dance-single:
     FFR R2:
     Maniac:
     8:
     -1.000,-1.000,-1.000,-1.000,-1.000:
0000
0000
0000
0000
,
0000
0000
0000
0000
,
0000
0000
0000
0000
,
0000
0000
0000
0000
,
0100
0000
0000
0000
1001
0000
0000
0000
0000
0000
0100
0000
0000
1001
0000
0010
,
0100
0000
0100
0000
1001
0000
0000
0000
0000
0000
0100
0010
0000
1001
0000
0001
,
1000
0000
0000
0000
1001
0000
0000
0000
0000
0000
0010
0000
0000
1001
0000
0100
,
0010
0000
0000
0210
0000
0300
1001
0000
0200
0000
0300
0000
0000
0200
0000
0310
0000
0000
0000
0000
0000
0000
0000
0000
,
0001
0000
0000
0000
0110
0000
0000
0000
0000
0000
0001
0000
0000
0110
0000
1000
,
0001
0000
0001
0000
0110
0000
0000
0000
0000
0000
1000
0001
0000
0110
0000
0010
,
1000
0000
0000
0000
0110
0000
0000
0000
0000
0000
1000
0000
0000
0110
0000
0001
,
1000
0000
0000
1000
0000
0000
0110
0000
0000
0000
0000
0000
0000
0000
0000
0002
0000
0003
0000
0000
0002
0000
0003
0000
,
0100
0002
0000
0013
0000
0000
1001
0000
0000
0010
0000
0000
0100
0000
0000
0100
0000
0000
0010
0000
0000
0010
0000
0000
,
0010
0000
0010
0000
1001
0000
0100
0000
0100
1000
0010
0001
0100
1000
0110
0001
,
0100
0000
0001
0000
1010
0000
0001
0000
0100
0001
0010
0000
0001
1000
0010
0100
,
0010
0000
0000
0100
0000
0000
0011
0000
0000
0100
0000
0000
1010
0000
0000
2000
0000
3000
0001
0000
2000
0001
3000
0000
,
0100
2000
0000
3010
0000
0000
1001
0000
0000
0010
0000
0000
1000
0000
0000
0010
0000
0000
0100
0000
0000
0100
0000
0000
,
0010
0000
0010
0000
1100
0000
0001
0000
0100
0001
0010
0001
0100
0001
1000
0001
,
0010
0000
1000
0000
0110
0000
0010
0000
0100
0010
1000
0000
0010
1000
0001
0100
,
0010
0000
0010
0000
0101
0000
0010
0000
0100
0100
0010
0000
0001
0010
1000
0010
,
0001
0000
0000
0100
0010
0101
1010
0101
,
0001
1000
0100
0000
0001
0100
1000
0100
0010
0000
0010
0000
1001
0000
1100
0000
,
0010
0100
0001
1000
0000
1001
0000
0001
1000
0000
0101
0000
1100
0000
0101
0000
,
0100
0001
0010
0000
1000
0001
1000
0010
0100
0000
0010
0100
1001
0000
0011
0000
,
1000
0100
0010
0001
0000
1001
0000
0010
0100
0000
0101
0000
0011
0000
0110
0000
,
0100
0001
1000
0000
0010
1000
0001
0010
0001
0000
0010
0000
1001
0000
0011
0000
,
0100
1000
0010
0100
0000
1001
0000
1001
0100
0000
1010
0000
0101
0000
0011
0000
,
1001
1001
0000
0000
0010
0001
0100
0010
0001
0000
0010
0100
0001
0000
1010
0000
,
0100
0010
0001
1000
0100
1001
0000
1001
0020
0000
0030
0200
0000
0300
1001
1001
,
1001
0010
0100
1000
0010
0100
0010
0100
0001
0100
0010
1000
0001
0100
0010
0001
,
1100
0001
0100
0001
0010
0001
1000
0001
1000
0010
1000
0100
1000
0010
0100
0010
,
0101
1000
0100
0010
0001
0010
0100
1000
0010
0100
0001
1000
0001
1000
0100
0010
,
0101
0010
1000
0100
0001
0100
1000
0001
1000
0010
0100
0010
0001
0010
0100
0010
,
1001
0010
1000
0010
1000
0100
0010
0001
0010
0100
0001
1000
0010
1000
0001
0010
,
1100
0001
0010
0100
0001
0010
1000
0100
0010
0001
1000
0100
0010
0001
1000
0010
,
0101
1000
0001
0100
0010
0100
0001
0100
0001
0100
0010
0100
1000
0100
0010
0100
,
1001
0010
0100
1000
0100
0010
0001
0010
0100
1000
0001
0100
0010
1000
0001
0100
,
1001
0000
0010
0000
1001
0000
0010
0000
0100
0010
0010
0000
0100
0001
0100
1000
,
1000
0000
0001
0000
1001
0000
0010
1001
0010
0100
0001
0001
0100
1001
0100
0001
,
1100
0001
1100
0000
1001
0000
0100
0000
0100
0001
0001
0000
1000
0101
0010
1000
,
0011
0000
0000
0000
0000
0000
0000
0000
0010
0000
0000
0000
0000
0000
0000
0000
1001
0000
0000
0000
0000
0000
0000
0000
1000
0000
0000
0000
0000
0000
0000
0000
0001
0000
0000
0000
1000
0000
0000
0000
1000
0000
0000
0000
0100
0000
0000
0000
0001
0000
1000
0000
0001
0000
0000
0000
1000
0000
0001
0000
1000
0000
0000
0000
,
0001
0000
0001
0000
0110
0000
1000
0000
0100
1000
0010
0000
0100
2002
0000
3003
,
0100
0000
0000
0000
0000
0000
0000
0000
0100
0000
0000
0000
0000
0000
0000
0000
1001
0000
0000
0000
0000
0000
0000
0000
0100
0000
0000
0000
1000
0000
0000
0000
0001
0000
0010
0000
0100
0000
1000
0000
0001
0000
0000
0000
1000
0000
0000
0000
0100
0000
0000
0000
0001
0000
0000
0000
0010
0000
0000
0000
0001
0000
0000
0000
,
1100
0001
0100
0000
1001
0000
0100
1000
0001
0100
0100
0000
0010
1001
0100
0010
,
0100
0000
0010
0010
1001
0000
0100
0000
0001
1000
0010
0100
1000
0100
0001
0010
,
2002
0000
0000
0000
,
3003
0000
0000
0000
,
;

//----------------dance-single - SManiac----------------
#NOTES:
     dance-single:
     FFR R2:
     SManiac:
     11:
     -1.000,-1.000,-1.000,-1.000,-1.000:
0000
0000
0000
0000
,
0000
0000
0000
0000
,
0000
0000
0000
0000
,
0000
0000
0000
0000
,
0100
0000
0000
0000
1001
0000
0000
0000
0000
0000
0100
0000
0000
1001
0000
0100
,
0100
0000
0100
0000
1001
0000
0000
0000
0000
0000
0100
0100
0000
1001
0000
1001
,
0010
0000
0000
0000
1001
0000
0000
0000
0000
0000
0010
0000
0000
1001
0000
0010
,
0010
0000
0000
0210
0000
0300
1001
0000
0200
0000
0300
0000
0000
0200
0000
0310
0000
0000
0000
0000
0000
0000
0000
0000
,
0001
0000
0000
0000
0110
0000
0000
0000
0000
0000
0001
0000
0000
0110
0000
0001
,
0001
0000
0001
0000
0110
0000
0000
0000
0000
0000
0001
0001
0000
0110
0000
0110
,
1000
0000
0000
0000
0110
0000
0000
0000
0000
0000
1000
0000
0000
0110
0000
1000
,
1000
0000
0000
1000
0000
0000
0110
0000
0000
0000
0000
0000
0000
0000
0000
1002
0000
0003
0000
0000
0002
0000
0003
0000
,
0100
0002
0000
0103
0000
0000
1001
0000
0000
0010
0000
0000
0010
0000
0000
0100
0000
0000
0010
0000
0000
0010
0000
0000
,
0010
0000
0010
0000
1001
0000
0100
0000
0100
0100
0010
0010
0100
1001
0110
1001
,
0100
0000
0001
0000
1010
0000
0001
0000
0100
0001
0010
0000
0001
1100
0010
0100
,
0100
0000
0000
0100
0000
0000
0011
0000
0000
0100
0000
0000
1010
0000
0000
2000
0000
3000
0001
0000
2000
0001
3000
0000
,
0100
2000
0000
3010
0000
0000
1001
0000
0000
0010
0000
0000
1000
0000
0000
0010
0000
0000
0100
0000
0000
0100
0000
0000
,
0010
0000
0010
0000
1100
0000
0001
0000
0100
0001
0010
0010
0100
1001
0010
1001
,
0100
0000
1000
0000
0110
0000
0010
0000
0100
0010
1000
0000
0010
1010
1000
0010
,
0010
0000
0010
0000
0101
0000
0010
0000
0100
0100
0010
0000
0001
1001
1000
1001
,
0001
0000
0000
0000
0000
0000
0100
0000
0010
1000
0101
0100
1001
0010
0100
1000
,
0011
1100
0010
0100
0011
0110
1100
0001
0100
1000
0010
0100
1001
0010
1100
0001
,
0110
0101
0010
1000
0100
1001
0010
1001
0100
0010
0101
0010
1100
0010
0101
1000
,
0110
1001
0010
0001
1100
0011
1100
0010
1000
0001
0010
0100
1001
0100
0011
0010
,
1100
0101
1001
1010
0100
1001
0010
1001
0100
0010
0101
1000
0011
1000
0110
0001
,
1100
0011
0100
0001
0110
1001
1001
0100
0001
1000
0010
0100
1001
0100
0011
1000
,
1100
1001
0100
0001
0010
1001
0100
1001
0010
0001
1010
0010
0101
1000
0011
0100
,
1001
1001
0100
1000
0110
0011
0101
1000
0001
0100
0010
0100
1001
0100
1010
0001
,
1100
0011
1000
0100
0010
1001
0100
1001
0020
0000
0030
0200
0000
0300
1001
1001
,
1001
1000
0011
0100
1001
0100
1010
0001
1100
0101
0010
1000
0110
1001
0110
0001
,
1000
0100
0010
0001
0110
1000
0101
0010
1100
0101
0010
1000
0001
0110
1000
0110
,
0001
0010
0101
1000
0110
0100
0101
0001
1010
0110
0001
0010
1100
0011
1100
0001
,
1010
0001
0100
1010
0101
1000
0011
0101
1010
1100
0010
0001
1000
0110
0001
0110
,
1001
0100
0011
0100
1010
0001
0110
0100
1100
1001
0010
0100
0011
1001
1100
0001
,
0010
0010
1000
0001
0110
1000
0101
0100
1010
0011
0100
0001
1000
0110
0001
0110
,
1000
0001
0110
1000
0101
0100
1010
0010
0101
1100
0001
0001
1010
0101
1010
0001
,
0010
0000
0000
0000
0100
0000
0000
0000
1000
0000
0000
0000
0001
0000
0000
0000
1010
0000
0000
0000
0001
0000
0000
0000
0110
0000
0000
0000
0100
0000
0000
0000
1001
0000
0000
0000
0011
0000
0000
0000
0101
0000
0000
0000
1001
0000
0000
0000
0100
0000
0000
0000
0010
0000
0000
0000
0100
0000
0000
0000
0001
0000
0010
0000
,
0001
0000
0010
0000
1001
0000
0010
0000
0100
0010
0010
0000
0100
1001
0100
1000
,
1000
0000
0000
0000
0000
0000
0000
0000
0001
0000
0000
0000
0000
0000
0000
0000
1001
0000
0000
0000
0000
0000
0000
0000
0010
0000
0000
0000
1001
0000
0000
0000
0010
0000
0000
0000
0100
0000
0000
0000
0001
0000
0000
0000
0001
0000
0000
0000
0100
0000
0000
0000
1001
0000
0000
0000
0100
0000
0000
0000
0001
0000
0100
0000
,
0001
0000
0000
0000
1000
0000
0100
0000
1000
0000
0000
0000
0000
0000
0000
0000
1001
0000
0000
0000
0000
0000
0000
0000
0100
0000
0000
0000
0000
0000
0000
0000
0100
0000
0000
0000
0001
0000
0000
0000
0001
0000
0000
0000
0000
0000
0000
0000
1000
0000
0000
0000
0101
0000
0000
0000
0010
0000
0000
0000
0010
0000
0001
0000
,
0010
0000
0000
0000
0000
0000
0000
0000
0010
0000
0000
0000
0000
0000
0000
0000
1001
0000
0000
0000
0000
0000
0000
0000
1000
0000
0000
0000
0000
0000
0000
0000
0001
0000
0000
0000
1000
0000
0000
0000
1000
0000
0000
0000
0100
0000
0000
0000
0001
0000
1000
0000
0001
0000
0100
0000
0001
0000
1000
0000
0001
0000
0100
0000
,
0001
0000
0001
0000
0110
0000
1000
0000
0100
1000
0010
0000
0100
2002
0000
3003
,
0100
0000
0000
0000
0000
0000
0000
0000
0100
0000
0000
0000
0000
0000
0000
0000
1001
0000
0000
0000
0000
0000
0000
0000
0001
1000
0001
0000
0100
0000
0010
0000
1000
0000
0010
0000
0100
0000
0001
0000
1000
0000
0000
0000
1000
0000
0000
0000
0100
0000
0000
0000
1001
0000
0000
0000
0010
0000
0000
0000
1001
0000
0000
0000
,
1100
0001
0100
0000
1001
0000
0100
1010
0001
0100
0100
0000
0010
1001
0100
0010
,
0010
0000
0010
0010
1001
0000
0100
0000
0001
1000
0010
0100
1000
0100
0001
0010
,
2002
0000
0000
0000
,
3003
0000
0000
0000
,
;
