#TITLE:Chekan Winter;
#ARTIST:Prophecy;
#BANNER:Chekan Winter.png;
#BACKGROUND:Chekan Winter-bg.png;
#MUSIC:Chekan Winter.mp3;
#OFFSET:-0.087;
#SELECTABLE:YES;
#CREDIT:converted by Vyhd;
#BPMS:0.000=148.00;
#STOPS:;
#BGCHANGES:;

//----------------dance-single - Basic----------------
#NOTES:
     dance-single:
     FFR R2:
     Basic:
     5:
     -1.000,-1.000,-1.000,-1.000,-1.000:
0000
0000
0000
0000
,
1001
1000
0001
0101
,
1001
0000
0001
0000
0100
0010
1000
0000
,
1001
1000
0010
0101
,
1001
0000
0001
0000
1000
0001
0100
0000
,
1001
0001
0100
1001
,
1000
0100
0000
0100
0001
0000
1100
0000
,
1001
0001
0100
0110
,
0001
1000
0001
1000
0001
0000
1100
0000
,
1001
1100
0110
0011
,
1001
0011
0110
1100
,
1001
0110
1010
1001
,
0011
0110
1100
1001
,
1000
0010
0100
0010
1000
0000
1001
0000
,
0001
0100
0010
0100
0001
0000
1001
0000
,
1000
0100
0010
0001
0010
0000
1100
0000
,
0001
0100
1000
0100
0001
0000
1001
0000
,
1000
0000
0001
0010
0001
0000
1001
0000
,
1000
0001
0010
0001
0100
0000
0110
0000
,
0001
0000
0010
0100
1000
0000
0100
0000
,
0010
0001
1000
0010
0100
0000
0101
0000
,
1000
0100
0010
0100
1000
0000
1001
0000
,
0001
1000
0100
1000
0010
0000
0110
0000
,
1000
0100
0010
0001
1000
0000
1001
0000
,
0001
0010
0100
1000
0100
0010
0001
1000
,
0001
1000
0010
0100
,
0001
1000
0010
0100
,
0001
0010
0100
1000
,
0001
1000
0010
0100
,
0001
0010
0100
1000
,
0001
1000
0010
0100
,
0001
1000
0100
0010
,
0101
1010
1001
0110
,
1000
1000
0001
0000
0101
0000
1010
0000
,
0001
0001
0100
0000
0100
0100
0010
1000
,
0001
0001
0100
0000
0110
0000
1001
0000
,
1000
1000
0100
0010
0010
0001
1000
0010
,
0100
0100
0001
0000
0011
0000
1100
0000
,
1000
1000
0001
0000
0100
0100
0010
1000
,
0001
0001
0100
0000
0110
0000
1001
0000
,
1000
1000
0001
0010
0010
0100
1000
0001
,
1000
0000
1100
0000
0001
0010
0001
0000
,
1000
1000
0010
0100
0001
0000
0101
0000
,
1000
0010
1000
0000
0011
0000
1100
0000
,
0001
0001
0100
0010
1000
0000
1001
0000
,
0001
0010
0100
0010
0001
0000
1001
0000
,
1000
0001
0010
0001
0100
0001
1000
0100
,
0010
0001
1000
0100
0010
0000
1001
0000
,
1000
0100
1000
0100
0010
0001
0010
0001
,
1000
0001
0011
0000
1001
0000
1010
0000
,
0001
1000
1100
0000
1000
0001
0011
0000
,
0001
0100
0110
0000
1001
0000
1010
0000
,
1000
0001
0101
0100
0010
0000
1001
0000
,
1000
0100
0110
0000
0011
0000
1001
0000
,
0001
1000
1001
0000
0001
0100
0110
0000
,
1000
0010
1010
0000
0011
0000
1001
0000
,
0001
1000
1010
0010
0100
0000
1001
0000
,
0001
0010
0000
0010
0100
0000
0100
1000
,
0001
0100
0000
0100
0010
0000
0010
1000
,
0001
0100
0000
0100
0010
0000
0010
1000
,
0010
0100
0000
0100
0001
1000
0100
0010
,
0001
0010
0001
0000
1000
0100
1000
0000
,
0010
0100
0010
0100
0001
1000
0100
0000
,
0001
0010
0001
0010
0100
1000
0100
1000
,
0001
0010
0100
1000
0010
0100
0001
1000
,
0100
0000
0010
0000
,
1000
0000
0001
0000
,
0100
0000
0010
0000
,
1000
0000
0100
0000
,
0001
0000
0100
0000
,
1000
0000
0100
0000
,
0001
0000
0010
0000
,
1000
0000
0010
0000
,
1001
0000
0000
0000
,
0000
0000
0000
0000
,
1010
0000
0000
0000
,
0000
0000
0000
0000
,
0101
0000
0000
0000
,
0000
0000
0000
0000
,
1001
0000
0000
0000
,
0000
0000
0000
0000
,
1000
0000
0000
0000
,
0100
0000
0000
0000
,
0010
0000
0000
0000
,
0001
0000
1000
0000
,
2002
0000
3003
0000
,
;

//----------------dance-single - Another----------------
#NOTES:
     dance-single:
     FFR R2:
     Another:
     8:
     -1.000,-1.000,-1.000,-1.000,-1.000:
0000
0000
0000
0000
,
1001
0000
0011
0000
1000
1000
1001
0000
,
1100
0000
0011
0001
0010
1100
1000
1001
,
1010
0000
1001
0001
0100
0010
1100
0000
,
1001
0001
0101
0100
0010
1100
0001
1100
,
1001
1000
0100
1000
0011
0001
1001
0000
,
1001
0000
0011
0001
0010
1100
0001
0110
,
1000
1000
1001
0001
0100
0010
0101
0000
,
1001
0000
1010
1000
0010
0101
1000
0110
,
1001
0000
1000
0100
0010
0000
1001
0000
,
1001
0000
0001
0010
0100
0000
1001
0000
,
0110
0000
0100
0001
0010
0000
0110
0000
,
0110
0000
0010
0100
1000
0000
0110
0000
,
1001
1000
1100
0001
0100
0010
1100
0000
,
1001
0001
0101
0100
0010
1001
0100
0011
,
1001
1000
1010
0100
0001
0010
1100
0000
,
0001
0001
1001
1000
0010
0110
0001
1100
,
1002
0100
1000
0100
,
1003
1000
1001
0001
0100
1010
0001
0110
,
1000
0100
0011
1000
0010
0100
0011
0000
,
1000
1000
1001
0001
0100
0011
1000
0110
,
2001
0010
0001
0010
,
3001
0001
1001
1000
0100
0011
1000
0101
,
0001
1000
1010
1000
0010
0100
0101
0000
,
1001
0000
0000
1010
0000
0000
0101
0000
1010
0000
0000
0000
1001
0000
0000
0000
,
0012
1000
0103
0010
,
2100
0001
3010
0100
,
1002
0010
0103
0010
,
1000
0100
0010
0001
,
0012
1000
0103
0010
,
2100
0001
3010
0100
,
1002
0010
0103
0010
,
1000
0100
0010
0001
,
1001
0000
1000
0000
1010
0000
0000
0010
0100
0000
0001
0000
1001
0000
0000
0000
,
1001
0001
0101
0100
0110
0011
1100
0011
,
1001
0000
1000
0000
1010
0000
0000
0010
0100
0000
0100
0000
0101
0000
0000
0000
,
1001
0000
0000
1010
0000
0000
0101
0000
1001
0000
0000
0000
1100
0000
0000
0000
,
0011
0000
0001
0000
1001
0000
0000
1000
0010
0000
0100
0000
0101
0000
0000
0000
,
1001
0000
1010
1000
0001
0011
1100
0011
,
1001
0000
1000
0000
1010
0000
0000
0010
0100
0000
0001
0000
1001
0000
0000
0000
,
1001
0000
0000
1100
0000
0000
0011
0000
1001
0000
0000
0000
1010
0000
0000
0000
,
1100
0010
1100
0001
0100
0010
1001
0000
,
1001
0001
0101
0100
0010
1100
0101
1100
,
1001
0000
1000
0000
1010
0000
0000
0010
0100
0000
0001
0000
1001
0000
0000
0000
,
1001
0000
0000
0110
0000
0000
1001
0000
1010
0000
0000
0000
0101
0000
0000
0000
,
1001
0000
1000
0000
1010
0000
0000
0010
0100
0000
0100
0000
0101
0000
0000
0000
,
1001
0001
0101
0100
0010
0011
1010
0011
,
1100
0000
0001
0000
1100
0000
0000
0001
1000
0000
0100
0000
0011
0000
0000
0000
,
1000
0000
0100
0000
1000
0000
0100
0000
0001
0100
1000
0000
0010
0000
0100
0000
,
1001
0000
0000
1000
0001
0000
0100
0000
0011
0000
1100
0000
0011
0000
1100
0000
,
1001
0000
0000
0001
1000
0000
0100
0000
1010
0000
0101
0000
1010
0000
0101
0000
,
1001
0000
0000
1000
0010
0000
0100
0000
1001
0000
0110
0000
1001
0000
0110
0000
,
1100
0000
0000
0001
1000
0000
0010
0000
1100
0000
0011
0000
1010
0000
0101
0000
,
1001
0000
0000
0001
1000
0000
0010
0000
1100
0000
0011
0000
1100
0000
0011
0000
,
1001
0000
0000
1000
0001
0000
0010
0000
0101
0000
1010
0000
0101
0000
1010
0000
,
1001
0000
0000
0001
0100
0000
0010
0000
1001
0000
0110
0000
1001
0000
0110
0000
,
0011
0000
0000
1000
0001
0000
0100
0000
0011
0000
1100
0000
0101
0000
1010
0000
,
1001
0000
0001
1000
0001
0000
1100
0000
0011
0000
1100
0000
0011
0000
1100
0000
,
1001
0000
1000
0001
1000
0000
0110
0000
1010
0000
0101
0000
1010
0000
0101
0000
,
1001
0000
0010
1000
0010
0000
0101
0000
1001
0000
0110
0000
1001
0000
0110
0000
,
1100
0000
1000
0001
1000
0000
0110
0000
1100
0000
0011
0000
1010
0000
0101
0000
,
1001
0000
1000
0010
0100
0000
0001
0000
0011
0000
1100
0000
0101
0000
1010
0000
,
1001
0000
1000
0001
0010
0000
0100
0000
1001
0000
1100
0000
0011
0000
1100
0000
,
1000
0000
0001
0010
0001
0000
1000
0100
1000
0000
0001
0010
0001
0000
0100
0000
,
1001
0000
0000
0000
0110
0000
0000
0000
1000
0100
1000
0100
1000
0000
1100
0000
,
1001
0000
1100
0000
,
1001
0000
0011
0000
,
1001
0000
0110
0000
,
1000
0100
0010
0001
,
1001
0000
0011
0000
,
1001
0000
1100
0000
,
0110
0000
1001
0000
,
0001
0010
0100
1000
,
1001
0000
0000
0000
,
1010
0000
0000
0000
,
0101
0000
0000
0000
,
0011
0000
0000
0000
,
1001
0000
0000
0000
,
1100
0000
0000
0000
,
0110
0000
0000
0000
,
0011
0000
0000
0000
,
1001
0000
1100
0000
,
0011
0000
1001
0000
,
0110
0000
1100
0000
,
0110
0000
0011
0000
,
2002
0000
3003
0000
,
;

//----------------dance-single - Maniac----------------
#NOTES:
     dance-single:
     FFR R2:
     Maniac:
     10:
     -1.000,-1.000,-1.000,-1.000,-1.000:
0000
0000
0000
0000
,
1001
0000
1000
0000
1100
0000
0001
0100
0010
0000
1000
0000
1001
0000
0000
0000
,
1001
1000
0100
0010
0100
1000
0001
0100
,
1001
0000
0001
0100
0010
0000
1000
0100
0010
0000
1000
0000
1001
0000
0000
0000
,
1001
1000
1100
0010
0001
0011
1000
1100
,
0001
0000
0001
0000
1001
0000
1000
0001
0010
0000
0100
0000
1001
0000
0000
0000
,
1001
0001
0101
0100
0001
0011
1000
1100
,
1000
0000
0010
0000
0110
0000
0100
0001
1000
0000
1000
0000
1001
0000
0000
0000
,
1001
1000
1010
0010
0100
1100
0010
0011
,
1000
0100
0010
0001
0010
0000
1100
0000
,
0001
0010
0100
1000
0100
0000
0011
0000
,
1000
0001
0010
0001
1000
0000
1001
0000
,
1001
1010
0101
1001
,
1001
0001
0101
0100
0110
0000
1001
0000
,
1010
0010
0110
0101
1001
0000
1010
0000
,
1001
0001
0101
0100
0110
0000
1010
0000
,
1001
0001
0101
0001
0011
0110
1100
1001
,
1010
0000
1000
0000
1001
0000
0001
0100
0010
0000
1100
0000
0011
0000
0000
0000
,
1000
0010
1100
1000
0001
0011
1000
1100
,
1001
0000
1000
0000
1010
0000
1000
0001
0010
0000
0100
0000
1001
0000
0000
0000
,
1001
0000
1010
0100
0010
0011
0100
1100
,
1000
0000
0001
0000
1000
0010
0100
0001
0100
0000
0010
0000
1001
0000
0000
0000
,
0001
0001
0101
0110
1000
1100
0001
0011
,
1000
0100
1000
0000
0011
0000
1100
0000
0010
0000
0100
0000
1001
0000
0000
0000
,
1001
0000
1010
0010
0101
0011
1010
1100
,
0011
0000
0001
0110
0020
0000
1030
0000
,
1001
0000
1000
0110
0200
0000
0301
0000
,
1001
0000
0001
1001
0200
0000
0310
0000
,
1001
0000
1100
0100
0011
0000
1001
0000
,
0011
0000
0001
0110
0020
0000
1030
0000
,
1001
0000
1000
0110
0200
0000
0301
0000
,
1001
0000
0001
1001
0200
0000
0310
0000
,
1000
0001
1000
0001
0100
0010
0100
0010
1000
0100
1000
0100
0010
0001
0010
0001
,
1000
0000
1000
0000
1001
0000
0001
0010
0001
0000
1000
0000
1100
0000
1000
0000
,
0011
0001
1001
1000
0001
0011
1000
1100
,
1000
0000
0010
0000
0110
0000
0100
0001
0010
0000
1000
0000
1001
0000
0000
0000
,
1000
0001
0010
0000
0011
0000
1000
0000
0010
0000
1100
0000
0011
0000
1100
0000
,
1000
0001
0100
0000
0110
0000
0010
1000
0001
0000
1001
0000
0011
0000
0000
0000
,
1001
0000
1010
1000
0001
0011
1000
1100
,
1000
0001
0010
0001
0100
0000
0100
0010
1000
0000
1000
0000
1001
0000
0000
0000
,
1001
0001
0101
0100
0001
0011
1000
1100
,
1100
0000
1000
0000
1001
0000
0001
0010
1000
0000
0010
0000
0011
0000
1001
0000
,
1001
1100
0011
1100
1001
1100
0011
1001
,
1010
0000
1000
0000
1001
0000
1000
0010
0001
0000
0010
0000
1010
0000
0000
0000
,
1001
0011
1100
1001
0011
1100
0011
1100
,
1000
0001
0010
0001
1000
0000
1000
0100
0010
0000
0011
0000
1100
0000
0000
0000
,
1000
0100
0011
1001
0110
1100
0011
1100
,
1001
0000
0011
0000
1001
0000
1000
0001
0100
0000
0010
0000
1001
0000
0000
0000
,
1000
0100
1000
0000
0001
0010
0001
0000
0001
0010
1000
0010
0001
1000
0001
0000
,
1001
0000
1000
0000
1100
0000
0001
0010
0001
0000
1100
0000
0011
0000
1100
0000
,
1001
0000
0001
0000
0101
0000
1000
0010
1000
0000
1100
0000
0011
0000
1100
0000
,
1001
0000
0001
0000
0101
0000
0100
0010
0100
0000
1001
0000
1100
0000
0011
0000
,
1000
0100
1000
0100
0010
0000
0010
0001
1000
0000
1001
0000
0101
0000
0011
0000
,
1001
0000
1000
0000
1010
0000
0001
0100
0001
0000
1001
0000
1100
0000
0011
0000
,
1001
0000
1000
0000
1010
0000
0001
1000
0001
0000
0011
0000
1100
0000
1001
0000
,
1010
0000
1000
0000
1001
0000
0001
0100
0001
0000
0110
0000
1001
0000
1100
0000
,
1000
0100
1000
0000
0001
0010
0001
0010
0100
0000
0100
1000
0100
1000
0010
0100
,
0001
0000
1000
0001
0101
0000
0001
0000
1001
0000
1000
0000
1100
0000
0011
0000
,
1000
0000
0001
0100
0110
0000
0010
0000
1000
0000
0001
0000
0011
0000
1100
0000
,
1000
0000
0001
1000
1010
0000
1000
0000
0011
0000
1100
0000
0110
0000
1001
0000
,
1100
0011
1100
0011
1001
0110
1001
1010
,
1001
0010
0100
0000
1000
0100
0010
0001
0100
0000
0110
0000
1001
0000
1010
0000
,
1100
0010
0001
0000
1000
0010
0100
0001
1000
0000
0011
0000
1100
0000
0011
0000
,
0101
0010
1000
0010
1000
0001
0100
0001
0100
0001
0010
0100
1000
0010
0100
0001
,
0100
0010
1000
0100
1000
0001
0010
0100
0010
0001
1000
0100
0001
0100
1000
0010
,
0100
0000
0000
0000
,
1001
0000
0000
0000
,
0011
0000
0000
0000
,
1100
0000
0000
0000
,
1000
0000
1000
0100
0020
0000
0031
0000
,
0001
0000
0001
0100
0020
0000
1030
0000
,
1000
0000
0010
1000
0200
0000
0310
0000
,
0012
0000
0000
0000
,
1003
0000
0000
0000
,
0000
0000
0000
0000
,
1001
0000
1000
0000
,
0010
0000
0100
0000
,
0011
0000
0100
0000
,
0010
0000
1000
0000
,
1001
0000
1000
0000
,
1000
0000
1000
0000
,
0011
0001
0100
0010
,
1100
0001
1000
0010
,
0110
1000
0001
0100
,
0001
1000
0010
0100
,
2002
0000
3003
0000
,
;

//----------------dance-single - SManiac----------------
#NOTES:
     dance-single:
     FFR R2:
     SManiac:
     13:
     -1.000,-1.000,-1.000,-1.000,-1.000:
0000
0000
0000
0000
,
1001
0000
1000
0000
1010
0000
0010
0100
0001
0000
1000
0000
1010
0000
0000
0000
,
1001
0001
0100
0010
2000
0100
3001
0100
,
1000
0000
0000
0000
0001
0000
0000
0000
0010
0000
0000
0000
0000
0000
0000
0000
0010
0000
0000
0000
0001
0000
0000
0000
0000
0000
0000
0000
0000
0000
0001
0000
1000
0000
0000
0000
0000
0000
0000
0000
1010
0000
0000
0000
0000
0000
0000
0000
0101
0000
0000
0000
0000
0000
0000
0000
0000
0000
0000
0000
0000
0000
0000
0000
,
1010
0000
0000
0000
0000
0000
0000
0000
0000
0000
0000
0000
0000
0000
1000
0000
0001
0000
0000
0000
0000
0000
0000
0000
0001
0000
0000
0000
0000
0000
0000
0000
0100
0000
0000
0000
0000
0000
0000
0000
1100
0000
0000
0000
0000
0000
0000
0000
0010
0000
0000
0000
0000
0000
0000
0000
0010
0000
0000
0000
0001
0000
0000
0000
,
1000
0000
0100
0000
1001
0100
0000
0100
0001
0000
1001
0000
1100
0000
0010
0000
,
1001
0000
1000
0000
0010
0000
0100
0000
0002
0000
0100
0000
1003
0000
0010
0100
,
0011
0000
0000
0000
0000
0000
0000
0000
0001
0000
0000
0000
0000
0000
0000
0000
1000
0000
0000
0000
0000
0000
0000
0000
0010
0000
0000
0000
0000
0000
0100
0000
0010
0000
0000
0000
0000
0000
0000
0000
1001
0000
0000
0000
0000
0000
0000
0000
1100
0000
0000
0000
0000
0000
0000
0000
1000
0000
0000
0000
0000
0000
0000
0000
,
0011
0000
0000
0000
0000
0000
0000
0000
0100
0000
0000
0000
0000
0000
0000
0000
1001
0000
0000
0000
0000
0000
0000
0000
1000
0000
0000
0000
0000
0000
0001
0000
1000
0000
0000
0000
0000
0000
0000
0000
1010
0000
0000
0000
0000
0000
0000
0000
0100
0000
0000
0000
0000
0000
0000
0000
0011
0000
0000
0000
0001
0000
0000
0000
,
1000
0100
0010
0100
1001
0110
0101
0100
,
1001
0010
0100
0010
1001
1100
0110
0011
,
1001
0000
0000
0000
0000
0000
0000
0000
0100
0000
0000
0000
0000
0000
0000
0000
0001
0000
0000
0000
0000
0000
0000
0000
0100
0000
0000
0000
0000
0000
0000
0000
1010
0000
0000
0000
0000
0000
0000
0000
1000
0000
0000
0000
0000
0000
0000
0000
1001
0000
0000
0000
0000
0000
0000
0000
0000
0000
0000
0000
0000
0000
0010
0000
,
1000
0001
0110
1000
0010
1100
0011
1100
,
0001
0010
0100
0010
1001
0110
1010
0000
,
1001
0100
0010
0100
1001
0011
0110
1100
,
1001
0000
0000
0000
0000
0000
0000
0000
0010
0000
0000
0000
0000
0000
0000
0000
1000
0000
0000
0000
0000
0000
0000
0000
0010
0000
0000
0000
0000
0000
0000
0000
0101
0000
0000
0000
0000
0000
0000
0000
0001
0000
0000
0000
0000
0000
0000
0000
1001
0000
0000
0000
0000
0000
0000
0000
0000
0000
0000
0000
0000
0000
0100
0000
,
0001
1000
0110
0001
0100
0011
1100
0011
,
1000
0001
0010
0001
0100
0000
0100
0010
1100
0000
1000
0000
1001
0000
0001
0000
,
0000
0010
0001
0010
1000
0100
1000
0000
1000
0000
1100
0000
0001
0000
0011
0000
,
1001
0000
0100
0000
0011
0100
0000
1000
0001
0000
1001
0000
1100
0000
0001
0000
,
1100
0000
0000
0000
0000
0000
0000
0000
0110
0000
0000
0000
0000
0000
0010
0000
0001
0000
0000
0000
0000
0000
0000
0000
0001
0000
0000
0000
0000
0000
0000
0000
1100
0000
0000
0000
0000
0000
0000
0000
0011
0000
0000
0000
0000
0000
0000
0000
1100
0000
0000
0000
0000
0000
0000
0000
0011
0000
0000
0000
0000
0000
0000
0000
,
1000
0100
0010
0100
1000
0001
0000
0001
0110
0000
1010
0000
1001
0000
1000
0000
,
0001
0100
0010
0100
1001
0011
1001
1100
,
1000
0010
0100
0010
1000
0001
0000
0001
0100
0000
0110
0000
1001
0000
0000
0000
,
1001
0000
0011
0000
0100
0000
1000
0000
0001
0010
0001
0010
0100
1000
0100
1000
,
0011
0000
0001
0110
0020
0000
1030
0000
,
1001
0000
1000
0110
0200
0000
0301
0000
,
1001
0000
0001
1001
0200
0000
0310
0000
,
1001
0000
1100
0100
0011
0000
1001
0000
,
0011
0000
0001
0110
0020
0000
1030
0000
,
1001
0000
1000
0110
0200
0000
0301
0000
,
1001
0000
0001
1001
0200
0000
0310
0000
,
1001
0100
1000
0000
1001
0010
0001
0000
1001
0010
1000
0010
1100
0001
0100
0001
,
1100
0000
1000
0000
1001
0000
0001
0100
0010
0000
0110
0000
1001
0000
1000
0000
,
0011
1100
0110
0011
1100
0110
1001
0110
,
1000
0010
0100
0000
0110
0000
0001
0010
0100
0000
1100
0000
0110
0000
0000
0000
,
1001
0000
0000
0000
0000
0000
0000
0000
0011
0000
0000
0000
0000
0000
0010
0000
0100
0000
0000
0000
0000
0000
0000
0000
1100
0000
0000
0000
0000
0000
0000
0000
0110
0000
0000
0000
0000
0000
0000
0000
1100
0000
0000
0000
0000
0000
0000
0000
0101
0000
0000
0000
0000
0000
0000
0000
0011
0000
0000
0000
0000
0000
0000
0000
,
1000
0000
1000
0000
1001
0000
0001
0100
0010
0000
0110
0000
1001
0000
1000
0000
,
0011
1100
0110
1000
1100
0011
1100
0011
,
1000
0010
0100
0000
0101
0010
0100
1000
0001
0000
1000
0000
1010
0000
0000
0000
,
1001
0000
0001
0100
0010
0000
0001
0100
0010
0000
1100
0000
0011
0000
1100
0000
,
1000
0010
0100
0010
1000
0001
0000
0001
1100
0000
0110
0000
1010
0000
0001
0000
,
1000
0001
0000
0001
0110
0000
1000
0000
1100
0000
0011
0000
1100
0000
0110
0000
,
1000
0100
1000
0100
0001
0000
0001
0100
1010
0000
1001
0000
0110
0000
0000
0000
,
1001
0010
0011
0001
1001
1100
0011
1001
,
1000
0001
0010
0001
0100
0010
0000
0010
1001
0000
1001
0000
0011
0000
0001
0000
,
1001
0011
1100
1000
0011
1100
0011
1100
,
1000
0010
0001
0010
0100
0001
0000
0001
1010
0000
1100
0000
0011
0000
0001
0000
,
1000
0100
0010
0100
1000
0100
0010
0100
1000
0100
0001
0100
0010
0100
1000
0001
,
1100
0000
1000
0100
0011
0000
1100
0000
0001
0010
1100
0000
1001
0000
0011
0000
,
1001
0000
0100
0010
1001
0000
1010
0000
0001
0100
0011
0000
1100
0000
0110
0000
,
1001
0000
1000
0100
0011
0000
0110
0000
1000
0001
1100
0000
0011
0000
1001
0000
,
1000
0001
0010
0001
1000
0001
0010
0001
1000
0010
0001
0010
1000
0100
0010
0001
,
1100
0000
1000
0100
0011
0000
1001
0000
1100
0010
0101
0010
1001
0000
1100
0000
,
0011
0000
1000
0010
1100
0000
0001
0000
1100
0010
1001
0100
1010
0000
0011
0000
,
1010
0000
1000
0010
1100
0000
0001
0000
1100
0010
1001
0100
0011
0000
0110
0000
,
1001
0000
0110
0000
0000
0000
0110
0000
1001
0000
0000
0000
1100
0010
1100
0000
,
1001
0000
0001
0010
1001
0000
1100
0010
0101
0000
0101
0000
0011
0100
1001
0000
,
1001
0000
1000
0100
1001
0000
0011
0100
1010
0000
1010
0000
0011
0100
1001
0000
,
1010
0000
1000
0001
0110
0000
0011
1000
0110
0000
0110
0000
1001
0010
1100
0000
,
1100
0000
1100
0010
1001
0000
1000
0100
0010
0001
0010
0100
1000
0000
1001
0000
,
1010
0100
0011
0000
1001
0000
1100
0010
0101
0000
0011
0001
1100
0000
1100
0000
,
1100
0001
0110
0000
1100
0001
1100
0000
0011
0000
1100
0000
0011
1000
1100
0000
,
1001
0010
1100
0000
0011
0000
0011
1000
0110
0000
0110
0000
0101
1000
0110
0000
,
0011
0000
0000
0000
0100
0000
0000
0000
0011
0000
0000
0000
1000
0000
0000
0000
0011
0000
0000
0000
0100
0000
0000
0000
0011
0000
0000
0000
1000
0000
0000
0000
0001
0000
0010
0000
0100
0000
1000
0000
0001
0000
0010
0000
0100
0000
1000
0000
0001
0000
0010
0000
0100
0000
1000
0000
0001
0000
0010
0000
0100
0000
1000
0000
,
0011
0000
1001
1010
0210
0000
0301
0000
,
1001
0000
1100
0110
0012
0000
1003
0000
,
1001
0000
0011
1100
0102
0000
1003
0000
,
1001
1000
1100
0110
0011
1001
1100
0110
,
1100
0000
1001
0101
0120
0000
1030
0000
,
1001
0000
0011
0110
2100
0000
3001
0000
,
1001
0000
1100
0011
2010
0000
3001
0000
,
1001
0000
0001
0000
0011
0000
0110
0000
1100
0000
1001
0000
0011
0000
0110
1000
,
0110
0000
1000
0000
,
0011
0000
0100
0000
,
1100
0000
0001
0000
,
1100
0000
0010
0000
,
1100
0000
1000
0000
,
1001
0000
0010
0000
,
0110
0000
1000
0000
,
0001
0000
0100
0000
,
2002
0000
3003
0000
,
;
