#TITLE:As Do I;
#ARTIST:Prophecy;
#BANNER:As Do I.png;
#BACKGROUND:As Do I-bg.png;
#MUSIC:As Do I.mp3;
#OFFSET:-0.038;
#SELECTABLE:YES;
#CREDIT:converted by Vyhd;
#BPMS:0.000=130.00;
#STOPS:;
#BGCHANGES:;

//----------------dance-single - Basic----------------
#NOTES:
     dance-single:
     FFR R2:
     Basic:
     2:
     -1.000,-1.000,-1.000,-1.000,-1.000:
1001
0000
0000
0010
,
0001
0000
1001
0110
,
1001
0000
0000
1000
,
0010
0000
0011
0110
,
2200
0000
3300
1000
,
0010
0000
1010
0110
,
0101
0000
0000
0001
,
0100
0000
1001
0110
,
2002
0000
3003
1000
,
0100
0000
0101
0100
,
0010
0000
0000
0001
,
0100
0000
1100
0110
,
0001
0001
1000
1000
,
0010
0010
0100
0100
,
0001
1000
0010
0100
,
0010
0100
1000
0001
,
1001
1000
0010
0001
,
1100
1000
0010
0001
,
1010
0010
0100
1000
,
1001
0001
0101
1000
,
1000
0100
1000
0000
0001
0000
0001
0000
,
1000
0010
1000
0000
0001
0000
0001
0000
,
1000
0001
0010
0000
1000
0000
0010
0000
,
0010
0001
1000
0001
0010
0000
0000
0000
,
1000
1100
1000
0010
,
0010
0000
1100
0000
1000
0010
0001
0000
,
0001
0011
1000
0010
,
1000
0000
0011
0000
0001
0100
1000
0000
,
1000
1010
1000
0010
,
0010
0000
1100
0000
0001
0010
1000
0000
,
0001
0110
0010
1000
,
0001
0100
0010
0000
0001
0000
0010
0000
,
1100
0011
0001
1100
,
1010
0101
1000
0101
,
0110
1001
0010
1001
,
1000
0100
0010
0000
1000
0000
1001
0000
,
0001
0000
0100
0000
0100
0010
0001
0000
,
0001
0000
0100
0000
0100
0010
0001
0000
,
0001
0000
0100
0000
0100
0010
0001
1000
,
0001
0000
0000
0000
0000
0000
1000
0000
0000
0000
0000
0000
0000
0001
0000
0000
,
1001
1010
1000
0010
,
1001
0101
0001
0010
,
1010
1001
1000
0100
,
1000
0100
0010
0001
0100
0000
1000
0000
,
1001
0000
0101
0000
0001
0000
0000
1000
,
1001
1010
1000
0100
,
0101
0000
1001
0000
0001
1000
0010
0100
,
0001
0000
0100
1000
0010
0100
0001
0000
,
1000
0100
0010
0000
0100
0010
0100
0000
,
1000
0100
0010
0000
1000
0010
1000
0000
,
1000
0100
0010
0000
0100
0001
0100
0000
,
1000
0010
0100
0001
1000
0000
0000
0000
,
0011
0000
1100
0000
1000
0100
1000
0000
,
0011
0000
1100
0000
0001
0010
0001
0000
,
1100
1001
0110
1100
,
1001
1100
0011
1001
,
1000
0100
0010
0001
1000
0000
0001
1000
,
0100
0000
0011
0000
1100
0000
0001
0010
,
0100
1000
0001
0000
0100
0010
0100
1000
,
0001
0000
1010
0000
0010
0100
0001
0000
,
1000
0100
0010
0001
1000
0000
0001
1000
,
0100
0000
0011
0000
1100
0000
0001
0010
,
0100
1000
0001
0000
0100
0010
0100
1000
,
0001
0000
1010
0000
0010
0100
0001
0100
,
1000
1000
0001
0001
,
0100
0100
0010
0010
,
1000
0001
1000
0001
,
0200
0310
0200
0310
,
2000
3000
2000
3000
,
0020
0030
0020
0030
,
2000
3100
0020
0031
,
2000
3010
0200
0301
,
;

//----------------dance-single - Another----------------
#NOTES:
     dance-single:
     FFR R2:
     Another:
     4:
     -1.000,-1.000,-1.000,-1.000,-1.000:
1001
0000
0000
0000
0000
0000
0010
0100
,
0001
0000
1001
0110
,
1001
0000
0000
0000
0000
0000
1000
0100
,
0010
0000
0011
0110
,
2200
0000
0000
0000
3300
0000
1000
0001
,
0010
0000
1010
0110
,
0101
0000
0000
0000
0000
0000
0001
1000
,
0100
0000
1001
0110
,
2002
0000
0000
0000
3003
0000
1000
0010
,
0100
0000
0000
0000
0101
0000
0100
0001
,
0010
0000
0000
0000
0000
0000
0001
1000
,
0100
0000
1100
0110
,
0001
0001
1000
1000
,
0010
0010
0100
0100
,
0001
0001
0001
0000
0010
0010
0010
0000
,
0100
0100
0100
0000
1000
1000
1000
0000
,
1001
1000
0011
0001
,
1100
1000
0011
0001
,
1010
0010
0101
0100
,
1001
0001
1001
1000
,
1000
0100
1000
0000
0001
0010
0001
0000
,
1000
0010
1000
0000
0001
0100
0001
0000
,
1000
0001
0010
0001
1000
0100
0010
0000
,
0010
0001
1000
0001
0010
0100
1000
0000
,
1001
0000
1100
0000
1000
0001
0010
0000
,
0011
0000
1100
0000
1000
0010
0001
0100
,
1001
0000
0011
0000
1000
0001
0010
0000
,
1001
0000
0011
0000
0001
0100
1000
0010
,
1001
0000
1010
0000
1000
0100
0010
0000
,
0011
0000
1100
0000
0001
0010
1000
0100
,
1001
0000
0110
0000
0010
0100
1000
0000
,
0001
0100
0010
0000
0001
0100
0010
0000
,
1100
0000
0011
0000
0001
0010
1100
0000
,
1010
0000
0101
0000
1000
0010
0101
0000
,
0110
0000
1001
0000
0010
0100
1001
0000
,
1000
0100
0010
0001
1000
0000
1001
0000
,
0001
0010
0100
0000
0100
0010
0001
1000
,
0001
0010
0100
0000
0100
0010
0001
1000
,
0001
0010
0100
0000
0100
0010
0001
1000
,
0001
0010
0100
1000
0100
0010
0001
1000
,
1001
0000
1010
0000
1000
0100
0010
0001
,
1001
0000
0101
0000
0001
0100
0010
1000
,
1010
0000
1001
0000
1000
0001
0100
0010
,
1000
0100
0010
0001
0100
0010
1000
0010
,
1001
0000
0101
0000
0001
0010
0100
1000
,
1001
0000
1010
0000
1000
0010
0100
0001
,
0101
0000
1001
0000
0001
1000
0010
0100
,
0001
0010
0100
1000
0010
0100
0001
0100
,
1000
0100
0010
0001
0100
0010
0100
0010
,
1000
0100
0010
0001
1000
0010
1000
0010
,
1000
0100
0010
0001
0100
0001
0100
0001
,
1000
0010
0100
0001
1000
0010
0100
0001
,
0011
0000
1100
0000
1000
0100
1000
0100
,
0011
0000
1100
0000
0001
0010
0001
0010
,
1100
0000
1001
0000
0100
0010
0100
0010
,
1001
1100
0011
1001
,
1000
0100
0010
0000
0011
0001
1001
1000
,
0100
0000
0011
0000
1100
0000
0001
0010
,
0100
1000
0001
1000
0100
0010
0100
1000
,
0001
0100
0010
1000
0010
0100
0001
0100
,
1000
0100
0010
0000
0011
0001
1001
1000
,
0100
0000
0011
0000
1100
0000
0001
0010
,
0100
1000
0001
1000
0100
0010
0100
1000
,
0001
0100
0010
1000
0010
0100
0001
0100
,
1000
1000
0001
0001
,
0100
0100
0010
0010
,
2000
3001
2000
3001
,
0200
0310
0200
0310
,
2000
3100
2000
3100
,
0020
0031
0020
0031
,
2000
3100
0020
0031
,
2000
3010
0200
0301
,
;

//----------------dance-single - Maniac----------------
#NOTES:
     dance-single:
     FFR R2:
     Maniac:
     9:
     -1.000,-1.000,-1.000,-1.000,-1.000:
1000
0000
0000
0010
0000
0000
0010
0100
,
0002
0000
0000
0000
0000
0000
0000
0000
1003
0000
0000
0000
0100
0000
0000
0010
,
0001
1000
0000
0000
0000
0000
0010
0100
,
0002
0000
1003
0100
,
0010
0000
0000
0000
0000
0000
0001
1000
,
0200
0000
0000
0000
0000
0000
0000
0000
1300
0000
0000
0000
0001
0000
0000
0010
,
0001
1000
0000
0000
0000
0000
0010
0100
,
0001
0100
0010
1000
0100
0010
0001
1000
,
0010
0000
0000
0000
0000
0000
0010
0100
,
0002
0000
0000
0000
0000
0000
0000
0000
1003
0000
0000
0000
0010
0000
0000
0100
,
0001
0010
0000
0000
0000
0000
0001
1000
,
0010
0100
0010
1000
0100
0010
0001
0100
,
0001
0001
1000
1000
,
0010
0010
0100
0100
,
0001
0001
0001
0001
0100
0100
0100
0100
,
0010
0010
0010
0010
1000
1000
1000
1000
,
1001
0000
1010
0000
0001
0100
1000
0000
,
1001
0000
0011
0000
1000
0100
0001
0000
,
0110
0000
1001
0000
1000
0010
0001
0000
,
1001
0000
0011
0000
0001
0010
1000
0100
,
0012
1003
2001
3010
0012
1003
2100
3001
,
0012
1003
2100
3001
0012
1003
2100
3001
,
0102
0013
2010
3100
0102
0013
2010
3100
,
2001
0000
3001
0000
1002
0000
1003
0000
1000
0001
0100
0000
0210
0000
0301
0000
,
1001
0010
0011
0001
0010
0100
1100
1000
,
0010
0100
0101
0001
0010
0100
1100
1000
,
0001
0010
0110
0100
0010
0001
1001
1000
,
0010
0100
0001
1000
0100
0010
0001
0010
,
1001
0001
0101
0100
0010
1000
1001
0001
,
0100
0010
1010
1000
0110
0001
0010
0100
,
1100
1000
0100
0010
0011
0001
1001
0100
,
0011
1000
0110
0001
1000
0010
0100
0001
,
1001
1000
1001
0000
1002
0103
0010
1010
,
1001
0001
0101
0100
0110
0010
1000
0001
,
0101
0100
0110
0000
2001
3010
0100
0110
,
1001
0100
0010
1000
0001
0100
0010
1000
,
0011
0000
0000
0000
1100
0000
0000
0000
0001
0000
0010
0000
0100
0000
1000
0001
,
0011
0000
0000
0000
1100
0000
0000
0000
1000
0000
0100
0000
0010
0000
0001
1000
,
1100
0000
0000
0000
0101
0000
0000
0000
0001
0000
0100
0000
0010
0000
1000
0010
,
0110
0000
0000
0000
0000
0000
0101
0000
0000
0000
0000
0000
0000
1100
0000
0001
,
0010
0000
0010
0000
0011
0000
1000
0000
0100
0000
0010
0000
0101
0000
0001
0100
,
0001
0000
1000
0000
1010
0000
1000
0000
0010
0000
0100
0000
0001
0010
0001
0000
,
1001
0000
1000
0000
1010
0000
0001
0000
0010
0000
0100
0000
1001
0000
1000
0010
,
1000
0000
0001
0000
0001
0100
0001
0000
1000
0000
0010
0000
0100
0001
0100
0000
,
1100
0000
0100
0000
1100
0000
0001
0000
0010
0000
0100
0000
1010
0000
1000
0010
,
1000
0000
0001
0000
0101
0000
0001
0000
0100
0000
0010
0000
1000
0100
1000
0000
,
1001
0000
0001
0000
0101
0000
1000
0000
0100
0000
0010
0000
1001
0000
0001
0100
,
0001
0000
1000
0000
1000
0010
1000
0000
0001
0000
0100
0000
0010
1000
0010
0000
,
1000
0000
0100
0000
0010
0001
0010
0001
0010
0000
0100
0000
1000
0010
0100
0000
,
0001
0000
0010
0000
0100
1000
0100
1000
0100
0000
0010
0000
0001
0100
0000
0100
,
0001
0000
1000
0000
0010
0100
0010
0100
0010
0000
1000
0000
0010
0100
0001
0000
,
1001
1000
0010
0100
0101
0100
0010
1000
,
0001
0000
0010
0000
0100
1000
0100
1000
0100
0000
0010
0000
0001
0100
0010
0000
,
1000
0000
0100
0000
0010
0001
0010
0001
0010
0000
0100
0000
1000
0010
0000
0010
,
1000
0000
0001
0000
0100
0010
0100
0010
0100
0000
0001
0000
0100
0010
1000
0000
,
1001
0001
0100
0010
1010
0010
0100
0001
,
1001
0000
0110
0011
1001
0011
0110
1100
,
2001
0000
0000
0000
3010
0000
0000
0000
0110
0000
0000
0000
0100
0000
0000
0100
,
0001
1001
0000
0000
1100
0110
0011
0110
,
0012
1003
1010
0101
,
1001
0000
0110
1100
1001
1100
0110
0011
,
1002
0000
0000
0000
0103
0000
0000
0000
0110
0000
0000
0000
0010
0000
0000
0010
,
1000
1001
0000
0000
0011
0110
1100
0110
,
2100
3001
0101
1010
,
1000
0000
0001
0000
0001
0010
0100
1000
0001
0000
0000
0000
1000
0100
0010
0001
,
1000
0000
0000
0000
0001
0100
0010
1000
0001
0000
0000
0000
1000
0010
0100
0001
,
1000
0000
0001
0000
0000
0100
1000
0100
1000
0000
0010
0000
0100
0010
0100
0010
,
0100
0001
0000
0001
1000
0010
1000
0010
,
1000
0000
0001
0000
0001
0010
0100
1000
0010
0000
0000
0000
0000
0100
0010
0001
,
0100
0000
0000
0000
0000
0100
0001
1000
0100
0000
0000
0000
0000
0000
0000
0000
,
0001
1000
0001
1000
0010
0100
0000
0100
,
0001
0010
0100
1000
0100
0010
0001
0000
,
;

//----------------dance-single - SManiac----------------
#NOTES:
     dance-single:
     FFR R2:
     SManiac:
     10:
     -1.000,-1.000,-1.000,-1.000,-1.000:
1000
0000
0000
0000
0000
0000
0001
0100
,
0010
0000
1000
0000
0100
0000
1000
0000
0000
0000
0000
0000
0010
0000
0000
1000
,
0010
0002
0000
0000
0003
0000
1000
0010
,
0100
0010
1000
0010
0100
0000
0011
0000
,
2001
0000
0000
3010
0000
0000
1000
0100
,
0010
0000
0100
0000
1000
0000
0001
0000
0011
0000
0000
0000
1000
0000
0000
0010
,
0002
0020
0000
0000
0033
0000
1000
0100
,
0001
0100
1000
0010
0101
0000
1001
0000
,
2100
0000
0000
3000
0000
0000
1000
0100
,
0001
0000
0100
0000
1000
0000
0001
0000
0010
0000
0001
0000
1000
0010
1000
0010
,
0100
0000
0001
0000
1000
0001
0010
0000
0001
0000
1000
0000
0010
0000
0001
0000
,
0010
1000
0001
1000
0101
0001
1001
1000
,
0100
1000
0100
0000
0010
0001
0010
0000
0001
1000
0001
0000
0100
0010
0100
0000
,
0010
1000
0010
0000
1000
0001
1000
0000
0001
0010
0001
0000
1000
0010
1000
0000
,
0001
0100
0001
0000
1000
0100
1000
0000
0010
0100
0010
0000
0100
0001
0100
0000
,
0001
1000
0001
0100
0010
1000
0100
1000
0001
0010
0001
0100
0010
1000
0001
0010
,
1100
0000
1000
0100
1000
0010
0100
0000
1000
1000
0010
0100
0010
0000
0010
1000
,
1010
0000
1000
0001
0010
0100
0010
0000
0001
0001
1000
0010
0100
0000
0100
0001
,
0011
0000
0001
1000
0010
0100
0001
0000
1000
1000
0010
0100
0001
0000
0001
0100
,
0110
0000
1000
0100
1000
0001
0010
0000
0001
0001
0100
0010
1000
0000
0001
0000
,
1001
1000
0010
0000
0010
0100
0010
0000
1001
0001
0100
0000
0100
0010
0100
0000
,
1010
0010
0100
0000
0100
0001
0100
0000
0110
0010
1000
0000
1000
0001
0000
0000
,
1001
0001
0100
0000
0010
0100
0010
0000
1010
1000
0000
0000
0001
0100
0001
0000
,
0011
0001
0100
0000
0100
0010
0100
0000
0101
0001
1000
0000
1000
0010
1000
0000
,
1001
0000
1000
0000
0110
0000
0010
0001
0010
0100
1000
0001
0011
0000
0001
0100
,
0001
0000
0001
0000
0110
0000
0010
1000
0010
0100
0001
0010
0110
0000
0010
0100
,
0010
0000
0010
0000
1001
0000
1000
0001
0010
0001
0100
0010
1010
0000
1000
0001
,
0010
0000
0001
0000
0110
0000
1001
0000
0110
0000
0011
0000
1010
0000
1000
0100
,
0010
0000
0001
0010
1001
0000
1000
0100
0001
0100
1000
0010
1010
0000
1000
0001
,
0100
0000
0010
1000
0110
0000
0100
1000
0100
0001
0100
1000
1001
0000
1000
0010
,
0100
0000
0100
0010
0101
0000
0001
0100
1000
0100
0001
1000
1010
0000
0010
0000
,
1010
0100
0011
0001
1001
0110
1100
0011
,
1001
0000
1000
0000
1001
0000
0001
0010
1100
0000
1000
0100
0001
0001
0100
1000
,
1100
0000
1000
0000
1001
0000
0100
0001
1010
0000
0010
1000
0100
0100
0001
0100
,
1100
0000
1000
0000
1001
0000
0100
0010
1001
0000
0010
0100
0001
0001
0100
0010
,
1010
0000
1000
0000
1100
0000
0110
0000
0011
0000
0001
0000
1001
0000
1000
0100
,
1001
0000
0010
0010
1010
0000
0010
0100
0100
0001
0001
0010
1100
0000
1000
0100
,
0011
0000
0001
0001
1001
0000
0100
0010
0010
0100
0010
0001
0101
0000
0010
0100
,
1001
0000
0001
0001
0011
0000
1000
0010
0010
0100
0001
1000
1010
0000
0100
0010
,
1001
0000
1000
0000
0100
0000
0011
0000
0000
0000
0000
0000
0000
0011
0000
1100
,
1010
0001
0100
0010
1000
0010
0100
0001
1000
0100
0010
0001
0010
0100
1000
0010
,
0100
0001
0100
0010
0100
0001
0100
0010
1000
0010
0100
0001
0100
0010
1000
0001
,
1000
0001
0100
0010
0100
0001
1000
0100
0010
0001
1000
0001
0010
0100
0010
0001
,
1000
0100
1000
0100
0010
0001
0010
0001
1000
0010
1000
0010
0100
0001
0100
0001
,
1000
0100
0001
0100
1000
0010
0100
0001
0010
0001
1000
0001
0010
0001
0100
0010
,
1000
0010
0001
0010
1000
0001
0010
0001
0100
0001
0010
0001
1000
0010
0100
0010
,
1000
0001
0100
0001
0010
0001
0100
0010
1000
0100
0001
0100
1000
0010
0100
0001
,
1000
0001
1000
0001
0100
0010
0100
0010
1000
0100
1000
0100
0010
0001
0010
0001
,
1000
0010
0001
1000
0100
0001
0100
0010
1000
0100
0001
0100
1000
0001
1000
0010
,
0001
0010
1000
0001
0100
0001
0100
0010
1000
0100
0010
1000
0010
0100
1000
0001
,
1000
0100
0001
1000
0010
0001
1000
0100
0001
0100
1000
0010
0001
0010
1000
0100
,
0010
0001
0010
0001
1000
0100
1000
0100
0010
1000
0010
1000
0010
0001
0010
0001
,
1000
0100
0001
0100
1000
0001
0100
0010
1000
0001
0010
1000
0010
0001
1000
0001
,
1000
0010
0100
1000
0100
0010
1000
0010
0001
0010
1000
0100
0010
1000
0010
0100
,
1000
0010
0001
0010
1000
0100
0001
0100
0010
0001
0010
1000
0010
0100
0001
0100
,
0010
0001
0010
0001
0100
1000
0100
1000
0100
0001
0100
0001
1000
0100
1000
0100
,
0011
0000
0001
0000
1001
0000
1000
0010
0100
0001
0010
0001
1100
0000
1001
0000
,
1000
0010
0001
0010
0000
0100
0010
0001
1000
0001
0010
0100
1001
0000
1000
0001
,
0110
0000
1100
0000
1000
0100
1000
0000
0011
0000
1100
0000
0110
0000
0011
0000
,
1001
0000
0001
0000
0010
0000
1100
0000
1001
0000
1000
0000
0110
0010
0010
0000
,
1100
0000
1000
0000
1001
0000
0001
0100
0010
1000
0100
1000
0011
0000
1001
0000
,
0001
0100
1000
0100
0000
0010
0100
1000
0001
1000
0100
0010
1001
0000
0001
1000
,
0110
0000
0011
0000
0001
0010
0001
0000
1100
0000
0011
0000
0110
0000
1100
0000
,
1001
0000
1000
0000
0100
0000
0011
0000
1001
0000
0001
0000
0110
0100
0100
0000
,
1000
0010
0100
0000
0100
0010
1000
0010
0100
0001
0010
0000
0010
0001
1000
0001
,
0100
0010
0100
0000
0100
0010
1000
0010
0100
0001
1000
0000
1000
0100
0010
0001
,
0010
0100
1000
0000
0000
0001
0010
0100
0010
0001
0100
0000
0100
0010
1000
0001
,
0010
1000
0010
1000
0010
0001
0010
0001
,
1000
0000
0001
0000
0000
0000
0000
0001
0100
0000
0010
0000
0000
0000
0100
0000
,
0010
0000
0001
0000
1000
0000
0000
0001
0100
0000
0010
0000
1000
0000
0010
0000
,
0100
0001
0010
0010
0001
1000
0100
0100
,
0010
0001
0000
0100
0010
0001
1000
0000
,
;
