#TITLE:roppongi EVOLVED;
#SUBTITLE:;
#ARTIST:TAG underground;
#TITLETRANSLIT:;
#SUBTITLETRANSLIT:;
#ARTISTTRANSLIT:;
#GENRE:;
#CREDIT:;
#BANNER:roppongi EVOLVED.png;
#BACKGROUND:roppongi EVOLVED-bg.png;
#LYRICSPATH:;
#CDTITLE:;
#MUSIC:roppongi EVOLVED.mp3;
#OFFSET:-0.335000;
#SAMPLESTART:22.950001;
#SAMPLELENGTH:12.000000;
#SELECTABLE:YES;
#DISPLAYBPM:85.000000:340.000000;
#BPMS:0.000000=170.000000
,32.000000=340.000000
,192.000000=170.000000
,260.000000=85.000000
,276.000000=170.000000
,308.000000=85.000000
,331.000000=340.000000;
#STOPS:259.500000=1.425000,
326.000000=0.725000,
459.000000=0.200000;
#BGCHANGES:;
#KEYSOUNDS:;
#ATTACKS:;

//---------------dance-single - ----------------
#NOTES:
     dance-single:
     :
     Beginner:
     5:
     :
// measure 0
0000
0000
0000
0000
,  // measure 1
0000
0000
0000
0000
,  // measure 2
0000
0000
0000
0000
,  // measure 3
0000
0000
0000
0000
,  // measure 4
0000
0000
0000
0000
,  // measure 5
0000
0000
0000
0000
,  // measure 6
0000
0000
0000
0000
,  // measure 7
0000
0000
0000
0000
,  // measure 8
0000
0000
0001
0000
,  // measure 9
0000
0000
0001
0000
,  // measure 10
0000
0000
1000
0000
,  // measure 11
0000
0000
1000
0000
,  // measure 12
0000
0000
0001
0000
,  // measure 13
0000
0000
1000
0000
,  // measure 14
0000
0000
0001
0000
,  // measure 15
0000
0000
1000
0000
,  // measure 16
1000
0000
0000
0000
,  // measure 17
0000
0000
0000
0000
,  // measure 18
0000
0000
0000
0000
,  // measure 19
0000
0000
0000
0000
,  // measure 20
0001
0000
0000
0000
,  // measure 21
1000
0000
0000
0000
,  // measure 22
0001
0000
0001
0000
,  // measure 23
1000
0000
1000
0000
,  // measure 24
0010
0000
0010
0000
,  // measure 25
0100
0000
0100
0000
,  // measure 26
0100
0000
0000
0000
,  // measure 27
0000
0000
0000
0000
,  // measure 28
0010
0000
0010
0000
,  // measure 29
0100
0000
0100
0000
,  // measure 30
0010
0000
0000
0000
,  // measure 31
0010
0000
0000
0000
,  // measure 32
1000
0000
1000
0000
,  // measure 33
0001
0000
0001
0000
,  // measure 34
0001
0000
0000
0000
,  // measure 35
0000
0000
0000
0000
,  // measure 36
0001
0000
0001
0000
,  // measure 37
1000
0000
1000
0000
,  // measure 38
0002
0000
0000
0000
,  // measure 39
0000
0000
0003
0000
,  // measure 40
1000
0000
1000
0000
,  // measure 41
0100
0000
1000
0000
,  // measure 42
0200
0000
0000
0000
,  // measure 43
0000
0000
0300
0000
,  // measure 44
0001
0000
0001
0000
,  // measure 45
0100
0000
0001
0000
,  // measure 46
0200
0000
0000
0000
,  // measure 47
0000
0000
0300
0000
,  // measure 48
1000
0000
1000
0000
,  // measure 49
0010
0000
0010
0000
,  // measure 50
0001
0000
0001
0000
,  // measure 51
0020
0000
0000
0030
,  // measure 52
0000
0000
0000
0001
,  // measure 53
0000
0000
0000
0100
,  // measure 54
0000
0000
0000
1000
,  // measure 55
0000
0000
0000
0010
,  // measure 56
0000
0001
0001
0001
,  // measure 57
0000
0100
0100
0100
,  // measure 58
0000
1000
0000
1000
,  // measure 59
0000
0010
0000
0010
,  // measure 60
0001
0001
0001
0001
,  // measure 61
0100
0100
0100
0100
,  // measure 62
1000
0000
0001
0000
,  // measure 63
1000
0001
2002
0000
,  // measure 64
0000
0000
0000
0000
0000
0000
0000
3003
,  // measure 65
0000
1000
0000
1000
,  // measure 66
0000
0001
0000
0001
,  // measure 67
0000
0100
0000
0100
,  // measure 68
0000
0010
0020
0030
,  // measure 69
0000
0010
0001
0100
,  // measure 70
0000
0001
0100
1000
,  // measure 71
0000
0100
1000
0010
,  // measure 72
0000
0001
0000
0001
,  // measure 73
0000
0010
1000
0100
,  // measure 74
0000
1000
0100
0001
,  // measure 75
0000
0100
0001
0010
,  // measure 76
2000
0000
0000
3000
,  // measure 77
1001
0000
0000
0000
,  // measure 78
0000
0000
0000
0000
,  // measure 79
0000
0000
0000
0000
,  // measure 80
0000
0000
0000
0000
,  // measure 81
0001
0000
1000
0000
2002
3003
0000
1001
,  // measure 82
0000
0000
0000
0000
,  // measure 83
0000
0001
0000
0100
,  // measure 84
0000
0001
0000
0100
,  // measure 85
0000
0100
0000
0001
,  // measure 86
0000
0100
0000
0001
,  // measure 87
0000
0100
0000
1000
,  // measure 88
0000
0100
0000
0001
,  // measure 89
0000
0100
0000
1000
,  // measure 90
0000
0100
0000
1000
,  // measure 91
0000
1000
0000
0100
,  // measure 92
0000
1000
0000
0100
,  // measure 93
0000
0100
0000
1000
,  // measure 94
0000
0100
0000
1000
,  // measure 95
0000
0100
0000
0001
,  // measure 96
0000
0100
0000
1000
,  // measure 97
0000
0100
0000
0001
,  // measure 98
0000
0100
0000
0001
,  // measure 99
0000
0010
0000
1000
,  // measure 100
0000
0100
0000
0010
,  // measure 101
0000
0001
0000
0100
,  // measure 102
0000
1000
0000
0010
,  // measure 103
0000
0010
0000
0100
,  // measure 104
0000
0100
0000
0002
,  // measure 105
0000
0003
0000
2000
,  // measure 106
0000
3000
0000
0001
,  // measure 107
0000
0100
0000
0001
,  // measure 108
0000
0100
0000
1000
,  // measure 109
0000
0100
0000
1000
,  // measure 110
0000
0100
0000
0010
,  // measure 111
0000
0010
0000
0010
,  // measure 112
0000
0010
0000
1000
,  // measure 113
0000
0001
0000
1000
,  // measure 114
0000
0001
0000
0000
,  // measure 115
1001
0000
0000
0000
;

//---------------dance-single - ----------------
#NOTES:
     dance-single:
     :
     Easy:
     7:
     :
// measure 0
0000
0000
0000
0000
,  // measure 1
0000
0000
0000
0000
,  // measure 2
0000
0000
0000
0000
,  // measure 3
0000
0000
0000
0000
,  // measure 4
0000
0000
0000
0000
,  // measure 5
0000
0000
0000
0000
,  // measure 6
1000
0010
0001
0100
,  // measure 7
1000
0000
0000
0001
0000
0000
1001
0000
,  // measure 8
0010
0000
0010
0000
,  // measure 9
1000
0000
0001
0000
,  // measure 10
0010
0000
0010
0000
,  // measure 11
0001
0000
1000
0000
,  // measure 12
0010
0000
0010
0000
,  // measure 13
1000
0000
0001
0000
,  // measure 14
0010
0000
0010
0000
,  // measure 15
0001
0000
1000
0000
,  // measure 16
0200
0000
0010
0000
,  // measure 17
0000
0000
0010
0000
,  // measure 18
0000
0000
0010
0000
,  // measure 19
0000
0000
0310
0000
,  // measure 20
0001
0000
0000
0000
,  // measure 21
1000
0000
0000
0000
,  // measure 22
0001
0000
0010
0000
,  // measure 23
1000
0000
1001
0000
,  // measure 24
0001
0000
0010
0000
,  // measure 25
1000
0000
0100
0000
,  // measure 26
0102
0000
0000
0000
,  // measure 27
0100
0000
0103
0000
,  // measure 28
1000
0000
0010
0000
,  // measure 29
0001
0000
0100
0000
,  // measure 30
2100
0000
0000
0000
,  // measure 31
0100
0000
3100
0000
,  // measure 32
0010
0000
1000
0000
,  // measure 33
0100
0000
0001
0000
,  // measure 34
1002
0000
0000
0000
,  // measure 35
1000
0000
1003
0000
,  // measure 36
0001
0000
0010
0000
,  // measure 37
1000
0000
0100
0000
,  // measure 38
0010
0000
0000
0100
,  // measure 39
0000
0000
0010
0000
,  // measure 40
0001
0010
0001
0000
,  // measure 41
1000
0000
0100
0000
,  // measure 42
2000
0000
0000
0000
,  // measure 43
0001
0000
3001
0000
,  // measure 44
0010
0100
0010
0000
,  // measure 45
1000
0000
0010
0000
,  // measure 46
0002
0000
0000
0000
,  // measure 47
0100
0000
0103
0000
,  // measure 48
1000
0010
1000
0000
,  // measure 49
0001
0010
0001
0000
,  // measure 50
0010
0100
0010
0000
,  // measure 51
2000
0000
0000
0002
3003
0000
0110
0000
,  // measure 52
0010
0010
1000
1000
,  // measure 53
0100
0100
0001
0001
,  // measure 54
0010
0010
1000
1000
,  // measure 55
0100
0100
0001
0001
,  // measure 56
2000
0100
0001
0100
,  // measure 57
3002
0100
1000
0100
,  // measure 58
2003
0100
3002
0100
,  // measure 59
2003
0100
3002
0100
,  // measure 60
0013
0010
0100
0000
1000
0000
0100
0000
,  // measure 61
0010
0010
0100
0000
0001
0000
0100
0000
,  // measure 62
0010
0000
0100
0000
,  // measure 63
0001
1000
2002
0000
,  // measure 64
0000
0000
0000
0000
0000
0000
0000
3003
,  // measure 65
1000
1000
0100
0000
0000
0001
0100
0000
,  // measure 66
0010
0010
0100
0000
0000
0001
0010
0001
,  // measure 67
1000
1000
0010
0000
0000
0100
0010
0000
,  // measure 68
0001
0000
0001
0000
1000
0000
0000
0000
0010
0000
0000
0100
0000
0000
0110
0000
,  // measure 69
2000
0010
0001
3100
,  // measure 70
0010
0100
1000
0000
0010
1000
0100
0000
,  // measure 71
0002
0010
1000
0103
,  // measure 72
0010
0100
0001
0000
0010
0001
0100
0000
,  // measure 73
0001
0200
0010
0000
1000
0000
0301
0000
,  // measure 74
1000
0200
0010
0000
0001
0000
1300
0000
,  // measure 75
0001
0020
0100
0000
0001
0000
1030
0000
,  // measure 76
0001
0000
1000
0001
0000
0100
0010
0000
,  // measure 77
2002
0000
0000
0000
0000
3003
0200
0300
,  // measure 78
0020
0000
0000
0030
0002
0000
0000
0003
,  // measure 79
0200
0000
0000
0000
0000
0300
2000
0000
,  // measure 80
0002
0000
0000
0000
0000
0000
3003
0000
0010
0000
0000
0100
0000
0000
0110
0000
,  // measure 81
0001
0000
1000
0000
0220
0330
0000
0100
,  // measure 82
0000
0100
0000
0000
0100
0000
0000
0100
0000
0100
0000
0100
0000
0000
0000
0000
,  // measure 83
0000
0001
0000
0001
,  // measure 84
0100
1000
0000
0001
,  // measure 85
0000
1000
0000
1000
,  // measure 86
0100
0001
0000
0100
,  // measure 87
0000
1000
0000
0010
,  // measure 88
0000
0001
0000
0200
,  // measure 89
0000
1000
0000
0001
,  // measure 90
0000
1300
0000
0001
,  // measure 91
0000
1000
0000
1000
,  // measure 92
0100
0001
0000
1000
,  // measure 93
0000
0001
0000
0001
,  // measure 94
0100
1000
0000
0100
,  // measure 95
0000
0001
0000
0010
,  // measure 96
0000
1000
0000
0100
,  // measure 97
0000
0000
0010
0000
,  // measure 98
0000
0110
0000
2000
,  // measure 99
0000
3100
0000
0010
,  // measure 100
0001
0010
0001
0020
,  // measure 101
0000
0000
0000
0130
,  // measure 102
0000
0100
0000
1000
,  // measure 103
0000
1100
0000
0001
,  // measure 104
0000
0101
0000
0010
,  // measure 105
0000
0010
0000
0100
,  // measure 106
0000
0100
0000
1000
,  // measure 107
1000
1000
0000
0001
,  // measure 108
0001
0001
0000
1000
,  // measure 109
0100
1000
0000
0001
,  // measure 110
0100
0001
0000
1000
,  // measure 111
0000
0100
0000
0001
,  // measure 112
0000
0010
0000
1000
,  // measure 113
0100
0001
0000
0001
,  // measure 114
0100
1000
0000
0000
,  // measure 115
1001
0000
0000
0000
;

//---------------dance-single - ----------------
#NOTES:
     dance-single:
     :
     Medium:
     13:
     :
// measure 0
0000
0000
0000
0000
,  // measure 1
0000
0000
0000
0000
,  // measure 2
0000
0000
0000
0000
,  // measure 3
0000
0000
0000
0000
,  // measure 4
0000
0000
0000
0000
,  // measure 5
0000
0000
0000
0000
,  // measure 6
0010
0001
0100
0010
1000
0100
0010
0000
,  // measure 7
1001
0000
0000
0110
0000
0000
1001
0000
,  // measure 8
0010
1000
0100
0000
,  // measure 9
0100
1000
0010
0000
,  // measure 10
0010
0001
1000
0000
,  // measure 11
1000
0001
0010
0000
,  // measure 12
0100
0010
1000
0000
,  // measure 13
1000
0010
0100
0000
,  // measure 14
0001
1000
0100
0000
,  // measure 15
0100
1000
0001
0000
,  // measure 16
0020
0000
0100
0000
,  // measure 17
0000
0000
0100
0000
,  // measure 18
0000
0000
0100
0000
,  // measure 19
0000
0000
0130
0001
,  // measure 20
1000
0000
1100
0000
,  // measure 21
0001
0000
0101
0000
,  // measure 22
1000
0100
0001
0100
,  // measure 23
1000
0010
0001
0000
,  // measure 24
1000
0100
1000
0000
,  // measure 25
0001
0010
0100
0010
,  // measure 26
0002
0000
0000
0000
,  // measure 27
1000
0000
1003
0000
,  // measure 28
0001
0100
0010
0000
,  // measure 29
0001
1000
0100
0010
,  // measure 30
2000
0000
0100
0000
,  // measure 31
0010
0000
3010
0000
,  // measure 32
0001
0100
0001
0000
,  // measure 33
1000
0010
0100
0010
,  // measure 34
2000
0000
0000
0000
,  // measure 35
0001
0000
3001
0000
,  // measure 36
1000
0100
0001
0000
,  // measure 37
0001
0100
1000
0010
,  // measure 38
0100
0000
0001
0010
,  // measure 39
0000
0001
0100
0000
,  // measure 40
0010
1000
0010
1000
,  // measure 41
0001
0100
1000
0100
,  // measure 42
0002
0000
1000
0000
,  // measure 43
0010
0000
0103
0000
,  // measure 44
1000
0100
1000
0100
,  // measure 45
0010
0100
1000
0010
,  // measure 46
0100
0000
0001
0000
,  // measure 47
1001
0000
1001
0000
,  // measure 48
0100
0100
0100
0100
,  // measure 49
0001
0001
0001
0001
,  // measure 50
0010
0010
0010
0010
,  // measure 51
2000
0000
0000
0002
3003
0000
0110
0000
,  // measure 52
1000
0000
1000
0000
0001
0100
1000
0000
,  // measure 53
0001
0000
0001
0000
1000
0100
0001
0000
,  // measure 54
1000
0000
1000
0000
0001
0100
1000
0000
,  // measure 55
0001
0000
0000
0000
0001
0000
0000
0000
1000
0000
0000
0001
0010
0000
0100
0000
,  // measure 56
1000
0010
1000
0000
1000
0100
1000
0000
,  // measure 57
0100
0001
0100
0000
0001
0010
0001
0000
,  // measure 58
0010
0000
0000
0010
0000
0000
1000
0000
0100
0000
0000
0100
0000
0000
0010
0000
,  // measure 59
0001
0000
0000
0001
0000
0000
0100
0000
0010
0000
0000
0010
0000
0000
1000
0000
,  // measure 60
0001
0010
0100
1000
0001
0010
0100
1000
,  // measure 61
0010
0100
0001
1000
0010
0100
0001
1000
,  // measure 62
0100
0000
0001
0000
0100
1000
0010
0100
,  // measure 63
1000
0000
0000
0100
0000
0000
0001
0000
0000
0000
0000
0000
0010
0000
0000
0000
0010
0000
0000
0000
0010
0000
0000
0000
,  // measure 64
0001
0000
0001
0000
0001
0000
1000
0000
0001
0000
1001
0000
,  // measure 65
0010
0000
0010
0000
0100
0000
0000
0001
0010
0100
1000
0000
0100
0000
0000
0000
,  // measure 66
0010
0000
0010
0000
0100
0000
0000
1000
0010
0100
0001
0000
0100
0000
0010
0000
,  // measure 67
0001
0000
0001
0000
1000
0000
0000
0010
0100
1000
0010
0000
0100
0000
0000
0000
,  // measure 68
1000
0000
1000
0000
0001
0000
0010
0000
0001
0000
0000
1000
0000
0000
0110
0000
,  // measure 69
0001
0010
1000
0000
0010
1000
0100
0000
,  // measure 70
1000
0100
0001
0000
0100
0001
0010
0100
,  // measure 71
1000
0010
0001
0000
0010
0001
0100
0000
,  // measure 72
0001
0100
1000
0000
0100
0100
0010
0100
,  // measure 73
0010
0001
0100
0010
1000
0100
0010
0001
,  // measure 74
0100
0010
1000
0100
0010
0001
0100
0100
,  // measure 75
0001
0010
0100
1000
0010
0100
0001
0010
,  // measure 76
1000
0000
0001
0010
0000
0001
0100
0000
,  // measure 77
2002
0000
0000
0000
0000
3000
0020
0003
,  // measure 78
0200
0000
0000
0030
2000
0000
0000
0300
,  // measure 79
0020
0000
0000
0000
0000
3000
0002
0030
,  // measure 80
2000
0000
0000
0000
0000
0000
3003
0000
0110
0000
0000
1001
0000
0000
0110
0000
,  // measure 81
0010
0000
0000
0001
0000
0000
1000
0000
0010
0000
0000
1000
0000
0000
0001
0000
0220
0000
0000
0000
0330
0000
0000
0000
0000
0000
0000
0000
1001
0000
0000
0000
,  // measure 82
0000
1001
0000
0000
0110
0000
0000
0110
0000
1001
0000
0110
0000
0000
0000
0000
,  // measure 83
0000
1000
0001
1000
,  // measure 84
0100
0001
0000
1000
,  // measure 85
0100
0001
1000
0001
,  // measure 86
0100
1000
0000
0001
,  // measure 87
0010
0100
0010
0100
,  // measure 88
0010
0001
0001
1000
,  // measure 89
0010
0100
0010
0100
,  // measure 90
0000
1001
0000
0010
,  // measure 91
0001
0100
0010
1000
,  // measure 92
0100
0010
0000
0010
,  // measure 93
0100
1000
0010
0100
,  // measure 94
0001
0010
0000
0100
,  // measure 95
0000
1000
0000
0001
,  // measure 96
0001
0100
0100
0010
,  // measure 97
0000
0100
0001
0000
,  // measure 98
1000
1000
0100
2000
,  // measure 99
0000
3001
0010
0100
,  // measure 100
1000
0010
0100
0020
,  // measure 101
0000
1000
0000
0130
,  // measure 102
0100
0001
0010
0100
,  // measure 103
1000
0100
0001
0100
,  // measure 104
1000
0100
0001
0100
,  // measure 105
0000
1000
0000
0000
0001
0000
0000
0010
,  // measure 106
0000
0001
0001
0020
,  // measure 107
0100
0100
0130
1000
,  // measure 108
1000
0001
0001
0010
,  // measure 109
0100
0010
0001
1000
,  // measure 110
0010
0100
0010
1000
,  // measure 111
0100
2200
3300
0001
,  // measure 112
0100
0202
0303
0010
,  // measure 113
0000
0010
0000
0000
0100
0000
0000
0100
,  // measure 114
0000
0001
1000
0100
,  // measure 115
1001
0000
0000
0000
;

//---------------dance-single - ----------------
#NOTES:
     dance-single:
     :
     Hard:
     16:
     :
// measure 0
0000
0000
0000
0000
,  // measure 1
0000
0000
0000
0000
,  // measure 2
0000
0000
0000
0000
,  // measure 3
0000
0000
0000
0000
,  // measure 4
0000
0000
0000
0000
,  // measure 5
0000
0000
0000
0000
,  // measure 6
0001
0000
0010
0000
1000
0000
0001
0000
0100
1000
0100
1000
0001
0000
0000
0000
,  // measure 7
1001
0000
0000
0000
0010
0000
0100
0000
0000
0000
0010
0000
1000
0000
0010
0100
,  // measure 8
0010
0000
1000
0000
,  // measure 9
0100
0000
0001
0000
,  // measure 10
0020
0000
1000
0000
,  // measure 11
0001
0000
1030
0000
,  // measure 12
0010
0000
0001
0000
,  // measure 13
0100
0000
1000
0000
,  // measure 14
0020
0000
0001
0000
,  // measure 15
1000
0000
0031
1000
,  // measure 16
0020
0000
0100
0000
,  // measure 17
0000
0000
0100
0000
,  // measure 18
0000
0000
0100
0000
,  // measure 19
0000
0000
0130
1000
,  // measure 20
0001
0000
0101
0000
,  // measure 21
1000
0000
1100
0000
,  // measure 22
0001
0100
1000
0100
,  // measure 23
0001
0010
0000
0010
0001
0000
1000
0001
,  // measure 24
0010
0001
0010
0001
,  // measure 25
1000
0100
0001
0100
,  // measure 26
2000
0000
0000
0000
,  // measure 27
0010
0000
3100
0000
,  // measure 28
0001
0100
0001
0100
,  // measure 29
0010
0100
0001
0010
,  // measure 30
0100
0000
1000
0000
,  // measure 31
1001
0000
1001
0000
,  // measure 32
0010
1000
0010
1000
,  // measure 33
0001
0100
1000
0100
,  // measure 34
0002
0000
0000
0000
,  // measure 35
0010
0000
0103
0000
,  // measure 36
0001
0100
1000
0001
,  // measure 37
1000
0100
0001
0010
,  // measure 38
0100
0000
1000
0010
,  // measure 39
0000
1000
0100
0000
,  // measure 40
0010
0000
0001
0000
0010
0001
0010
0001
,  // measure 41
0010
0000
0100
0000
0010
0001
0010
0001
,  // measure 42
1000
0000
0010
0000
0100
0010
0100
0010
,  // measure 43
0100
0001
1000
0100
,  // measure 44
0010
0000
0100
0000
1000
0010
1000
0010
,  // measure 45
1000
0000
0001
0000
0010
0100
0010
0100
,  // measure 46
0010
0000
0001
0000
1000
0010
1000
0010
,  // measure 47
0100
0001
0100
0001
1000
0100
1000
0100
,  // measure 48
0010
0010
0001
0001
,  // measure 49
0100
0100
1000
1000
,  // measure 50
0010
1000
0010
0000
0001
1000
0001
0100
,  // measure 51
2000
0000
0000
0002
3003
0000
0110
0000
,  // measure 52
0002
0010
1000
0103
,  // measure 53
0020
1000
0100
0031
,  // measure 54
2000
0100
0001
3010
,  // measure 55
0200
0000
0000
0000
0001
0000
0000
0000
0310
0000
0000
1000
0100
0000
0010
0000
,  // measure 56
0001
0100
0001
1000
0001
0010
0001
0000
,  // measure 57
0100
1000
0100
0010
0100
0001
0100
0000
,  // measure 58
0010
0000
0000
1000
0000
0000
1010
0000
0100
0000
0000
1000
0000
0000
1100
0000
,  // measure 59
0001
0000
0000
0100
0000
0000
0101
0000
0001
0000
0000
0010
0000
0000
0011
0000
,  // measure 60
1000
0000
0100
0010
0100
0000
1000
0010
1000
0000
0001
0010
0001
0000
1000
0100
,  // measure 61
1000
0000
0001
0100
0001
0000
0010
0100
0010
0001
0010
0001
1000
0001
1000
0001
,  // measure 62
0010
0000
1000
0000
0010
0001
0100
0010
,  // measure 63
0001
0000
0000
0010
0000
0000
0001
0000
0000
0010
0000
0000
1000
0000
0000
0010
0000
0000
1000
0000
0000
0010
0000
0000
0100
0000
0000
0000
0000
0000
0000
0000
0001
0000
0000
0000
0000
0000
0000
0000
1000
0000
0000
0000
0000
0000
0000
0000
,  // measure 64
0010
0000
0001
0000
1000
0000
0100
0000
0001
0000
1001
0000
,  // measure 65
1020
0000
0032
0000
1003
0000
0000
0010
0100
0001
0010
0100
1000
0000
0001
0100
,  // measure 66
0021
0000
2030
0000
3001
0000
0000
0010
0100
1000
0010
0100
0001
0000
1000
0010
,  // measure 67
0201
0000
2300
0000
3001
0000
0000
0100
0010
1000
0100
0010
0001
0000
1000
0010
,  // measure 68
1200
0000
0302
0000
1003
0010
0001
0000
1000
0000
0000
0001
0000
0000
0110
0000
,  // measure 69
0001
0000
0000
0001
1000
0000
0000
1000
0010
0000
0000
0010
0100
0000
0000
0100
,  // measure 70
0001
0000
0000
0001
0010
0000
0000
0010
0001
0000
1000
0000
0010
0000
0100
0000
,  // measure 71
1000
0000
0000
1000
0100
0000
0000
0100
0001
0000
0000
0001
1000
0000
0000
1000
,  // measure 72
0010
0000
0000
0010
0001
0000
0000
0001
0010
0000
0100
0000
0001
0000
0000
0000
,  // measure 73
0010
0000
0000
0010
0100
0000
0000
0100
0001
0000
0000
0001
1000
0000
0000
1000
,  // measure 74
0010
0000
0000
0010
0001
0000
0000
0001
1000
0000
0010
0000
0100
0000
0001
0000
,  // measure 75
0010
0000
0000
0010
0100
0000
0000
0100
0001
0000
0100
0000
1000
0000
0000
0000
,  // measure 76
0110
0000
0001
1000
0000
0100
0010
0000
,  // measure 77
2002
0000
0000
0000
0000
0003
0020
3000
,  // measure 78
0200
0000
0000
0030
0002
0000
0000
0300
,  // measure 79
0020
0000
0000
0000
0000
0003
2000
0030
,  // measure 80
0002
0000
0000
0000
0000
0000
3003
0000
0110
0000
0000
1001
0000
0000
0110
0000
,  // measure 81
1000
0010
0000
1000
0010
0000
0100
0000
0001
0010
0000
0001
0010
0000
0100
0000
2002
0000
0000
0000
3003
0000
0000
0000
0110
0000
0000
0000
1100
0000
0000
0000
,  // measure 82
0000
0110
0000
0000
0101
0000
0000
0110
0000
1001
0000
0220
0000
0000
0000
0000
,  // measure 83
0330
0000
0001
0000
1000
0010
0000
0100
,  // measure 84
0001
0010
0100
0000
1000
0000
0001
0000
,  // measure 85
0100
0001
1000
0001
0100
0010
0000
0100
,  // measure 86
0001
0010
0100
0000
1000
0000
0010
0000
,  // measure 87
1000
0100
0010
0000
0001
0100
0000
0010
,  // measure 88
1000
0001
0010
0000
0100
0000
1000
0000
,  // measure 89
0010
0100
0010
1000
0100
0010
0100
1000
,  // measure 90
0000
1000
0010
0000
1000
0000
0001
0000
,  // measure 91
0100
0001
1000
0000
0001
0010
0000
0100
,  // measure 92
1000
0010
0100
0000
0001
0000
1000
0000
,  // measure 93
0100
1000
0001
1000
0100
0010
0000
0100
,  // measure 94
1000
0010
0100
0000
0001
0000
0010
0000
,  // measure 95
0001
0100
0010
0000
1000
0100
0000
0010
,  // measure 96
0001
1000
0010
0000
0100
0000
0010
0000
,  // measure 97
0000
0100
0001
0000
,  // measure 98
1000
0100
1000
2001
,  // measure 99
0000
0000
3001
0010
0001
0010
0100
1000
,  // measure 100
0100
1000
0010
1000
0010
1000
0002
0000
,  // measure 101
0000
0000
0103
0000
0010
1000
0010
1000
,  // measure 102
0001
0100
0001
0000
0001
0000
1000
0100
,  // measure 103
0010
0100
1000
0100
0010
0100
1000
0100
,  // measure 104
0010
0100
1000
0100
0010
0100
0010
0001
,  // measure 105
0000
0001
0100
0000
0010
1000
0000
1000
,  // measure 106
0100
0100
0010
1001
,  // measure 107
0001
1000
1000
0010
,  // measure 108
0010
0100
0100
0001
,  // measure 109
0001
1000
1000
0010
,  // measure 110
0010
0100
0100
0110
,  // measure 111
0010
0100
0002
0000
0000
0000
0013
0000
,  // measure 112
0010
0100
2000
0000
0000
0000
3010
0100
,  // measure 113
0000
0010
0100
0000
0001
1000
0000
0100
,  // measure 114
0010
0000
0001
0000
1000
0000
0220
0330
,  // measure 115
1001
0000
0000
0000
;

//---------------dance-single - ----------------
#NOTES:
     dance-single:
     :
     Challenge:
     17:
     :
// measure 0
0000
0000
0000
0000
,  // measure 1
0000
0000
0000
0000
,  // measure 2
0000
0000
0000
0000
,  // measure 3
0000
0000
0000
0000
,  // measure 4
0000
0000
0000
0000
,  // measure 5
0000
0000
0000
0000
,  // measure 6
1000
0100
0010
0100
1000
0100
0010
0100
,  // measure 7
1000
0001
0100
0001
0010
0000
0001
0000
0000
0000
0100
0010
1000
0000
0001
0000
,  // measure 8
0010
0001
0010
0000
0100
0001
0100
0000
,  // measure 9
1000
0010
1000
0000
1000
0001
1000
0000
,  // measure 10
0001
0100
0001
0000
1000
0100
1000
0000
,  // measure 11
0010
0100
0010
0000
0100
0010
0100
0000
,  // measure 12
0001
0010
0100
0000
0001
1000
0001
0000
,  // measure 13
0001
0010
0100
0000
0001
1000
0100
0000
,  // measure 14
1000
0100
0010
0000
1000
0001
1000
0000
,  // measure 15
1000
0100
0010
0000
1000
0001
0010
0000
,  // measure 16
0001
0010
0100
0000
,  // measure 17
0010
0100
1000
0000
,  // measure 18
1000
0100
0010
0000
,  // measure 19
0100
0010
0001
0000
,  // measure 20
1000
0000
0000
0000
0100
0000
0000
0000
0010
0001
0100
0001
0010
0001
1000
0001
,  // measure 21
0100
0000
0000
0000
0010
0000
0000
0000
1000
0100
1000
0010
0100
0010
0100
0001
,  // measure 22
0010
0000
0000
0000
1000
0100
1000
0100
1000
0000
0000
0000
0001
0100
0001
0100
,  // measure 23
0001
0000
0000
0000
0001
0010
0001
0010
0001
0000
0000
0000
1000
0010
1000
0010
,  // measure 24
1000
0000
0001
0010
0100
0000
0010
0000
,  // measure 25
0001
1000
0010
0100
,  // measure 26
0010
0000
1000
0100
0001
0000
0001
0100
,  // measure 27
0010
0000
0100
0010
1000
0000
0010
1000
,  // measure 28
0100
0000
1000
0010
0100
0000
0010
0000
,  // measure 29
0001
0010
1000
0100
,  // measure 30
1000
0000
0001
0010
0100
0000
0010
0000
,  // measure 31
0000
0101
1001
1100
,  // measure 32
0100
0000
0010
0100
1000
0000
0001
0000
,  // measure 33
0010
0001
0100
0010
,  // measure 34
0100
0000
0001
0100
1000
0000
1000
0010
,  // measure 35
0001
0000
0001
0100
0010
0000
1000
0010
,  // measure 36
0100
0000
0010
1000
0001
0000
1000
0000
,  // measure 37
0100
1000
0010
0100
,  // measure 38
1001
0000
0001
1000
0010
0000
1010
0000
,  // measure 39
1000
0001
0010
0000
0011
0000
0001
0000
,  // measure 40
0100
0000
0010
1000
0001
0000
0100
0000
,  // measure 41
0001
0010
0100
0010
,  // measure 42
0001
0000
1000
0010
1000
0000
0100
0000
,  // measure 43
2000
0100
0010
3001
,  // measure 44
0100
0000
0010
0100
0001
0000
1000
0000
,  // measure 45
0100
1000
0001
0100
,  // measure 46
0001
0000
0010
1000
0100
0000
1000
0000
,  // measure 47
0001
0010
0100
0000
0001
0000
1000
0000
,  // measure 48
0100
1000
0100
1000
0100
1000
0100
1000
,  // measure 49
0001
0100
0001
0100
0001
0100
0001
0100
,  // measure 50
0010
1000
0010
1000
0010
1000
0010
1000
,  // measure 51
0001
0000
0010
0001
0010
0000
0001
0000
0010
0001
0010
0000
0001
0000
0010
0000
,  // measure 52
0001
0000
0000
0010
0000
0000
1000
0000
1000
0000
0000
0010
0000
0000
0100
0000
,  // measure 53
0100
0000
0000
0010
0000
0000
0001
0000
0001
0000
0000
0100
0000
0000
1000
0000
,  // measure 54
1000
0000
0000
0010
0000
0000
0100
0000
0100
0000
0000
1000
0000
0000
0010
0000
,  // measure 55
0010
0000
0000
1000
0000
0000
0001
0000
0001
0000
0000
0100
0000
0000
0010
0000
,  // measure 56
0010
0000
0000
0100
0000
0000
1000
0000
1000
0000
0000
0010
0000
0000
0100
0000
,  // measure 57
0100
0000
0000
0010
0000
0000
0001
0000
0001
0000
0000
0100
0000
0000
0010
0000
,  // measure 58
0010
0000
0000
1000
0000
0000
0001
0000
0010
0000
0000
1000
0000
0000
0001
0000
,  // measure 59
0100
0000
0000
1000
0000
0000
0001
0000
0100
0000
0000
1000
0000
0000
0001
0000
,  // measure 60
0010
0000
0001
0010
0100
0000
0010
0100
1000
0000
0100
1000
0010
0000
1000
0010
,  // measure 61
0100
0000
0010
0100
0001
0000
0100
0001
1000
0000
0001
1000
0010
0000
1000
0010
,  // measure 62
0001
0000
0100
0010
0000
0100
0010
0000
1000
0000
0010
0100
0000
0001
0010
0000
,  // measure 63
0001
0000
0000
0000
0000
0000
0010
0000
0000
0100
0000
0000
0000
0000
0000
1000
0000
0000
0100
0000
0000
0000
0000
0000
1100
0000
0000
0000
0000
0000
0000
0000
0110
0000
0000
0000
0000
0000
0000
0000
0011
0000
0000
0000
0000
0000
0000
0000
,  // measure 64
0101
0000
1001
0000
1010
0000
1001
0000
0110
0000
1001
0000
,  // measure 65
1000
0000
0010
0000
1000
0000
0100
0000
0010
0000
0001
0000
0100
0000
0001
0000
0010
0000
0100
0000
0010
0000
0001
0000
1000
0000
0100
1000
0000
0001
0010
0100
,  // measure 66
1000
0000
0010
0000
0100
0000
0001
0000
0001
0000
0010
0000
0100
0000
1000
0000
0001
0000
0100
0000
0010
0000
0100
0000
0001
0000
0010
0001
0000
1000
0001
0100
,  // measure 67
0010
0000
1000
0000
0100
0000
1000
0000
0001
0000
0100
0000
1000
0000
0100
0000
0001
0000
0010
0000
0001
0000
1000
0000
0100
0000
1000
0100
0000
0010
0100
0010
,  // measure 68
0001
1000
0100
1000
0010
0001
0010
1000
1010
0000
0001
1001
0000
0010
0011
0001
,  // measure 69
0100
0000
0010
0000
1000
0100
0000
0100
0010
0000
0010
0100
0000
0100
1000
0000
,  // measure 70
0001
0000
0010
0001
0000
1000
0001
0000
1000
0010
0100
0000
0100
0001
0000
0001
,  // measure 71
0010
0000
0100
0000
0001
0010
0000
0001
0100
0000
0001
1000
0000
0100
0010
0000
,  // measure 72
0100
0000
0010
0001
0000
0001
1000
0000
0010
0100
0001
0000
0001
0010
0000
1000
,  // measure 73
0100
0000
0100
0000
1000
0010
0000
0010
0100
0000
0100
0001
0000
0001
0010
0000
,  // measure 74
0100
0000
1000
0100
0000
0010
0100
0000
0001
0010
0100
0000
1000
0100
0000
0100
,  // measure 75
1000
0000
0010
0000
1000
0010
0000
0100
0010
0000
0001
0010
0000
0010
0100
0000
,  // measure 76
1001
0000
0000
0000
1000
0000
1100
0000
0000
0000
0101
0000
0001
0010
0000
0100
,  // measure 77
1000
0000
0100
1000
0001
0000
0001
0000
0010
0100
0000
0010
0100
0000
1000
0000
0010
0000
0100
0001
0100
0000
0010
0000
1000
0001
0000
1000
0010
0000
0100
0000
,  // measure 78
0001
0000
1000
0100
0001
0000
0100
0000
0010
0100
0000
0010
1000
0000
0001
0000
0100
0000
0010
0100
0001
0000
0001
0000
0100
1000
0000
0100
0010
0000
0100
0000
,  // measure 79
0001
0000
1000
0010
1000
0000
0100
0000
1000
0010
0000
0100
0001
0000
0010
0000
0001
0000
0100
0010
1000
0000
0100
0000
1000
0001
0000
0001
1000
0000
0010
0000
,  // measure 80
0100
0000
1000
0001
1000
0000
0010
0000
0100
0001
0000
0001
1000
0000
0100
0000
0010
0000
1000
0100
1000
0000
0001
0000
1000
0010
0000
1000
0010
0000
1000
0000
,  // measure 81
0001
0100
0000
0001
0100
0000
0001
0000
1000
0100
0000
1000
0100
0000
1000
0000
0000
0001
0000
0001
0010
0000
0100
0000
0000
0000
0000
0000
1100
0000
0000
0000
,  // measure 82
0000
0110
0000
0000
0011
0000
0000
0101
0000
1001
0000
1010
0001
0000
0000
0000
,  // measure 83
0100
0001
1000
0000
1000
0000
0010
0100
,  // measure 84
0000
0010
0100
0000
0001
0000
0010
0000
,  // measure 85
0100
1000
0100
0000
0010
0000
0001
1000
,  // measure 86
0000
0001
0010
0000
0100
0000
1000
0000
,  // measure 87
0001
0100
1000
0000
0100
0000
0010
0100
,  // measure 88
0000
0010
0001
0000
1000
0000
0100
0000
,  // measure 89
0010
0100
1000
0000
1000
0000
0100
0001
,  // measure 90
0000
0100
0010
0000
0100
0000
1000
0000
,  // measure 91
0001
0010
0001
0000
0100
0000
0001
0010
,  // measure 92
0000
0100
1000
0000
0010
0000
1000
0000
,  // measure 93
0100
0010
0001
0000
0100
0000
0001
1000
,  // measure 94
0000
1000
0001
0000
0010
0000
0100
0000
,  // measure 95
0001
1000
0001
0000
0010
0000
0100
1000
,  // measure 96
0000
1000
0001
0000
0100
0000
0010
0000
,  // measure 97
0001
0100
0001
0000
1000
0000
0001
0010
,  // measure 98
0001
0100
0001
1000
0010
2000
0002
0000
,  // measure 99
3000
0103
0010
1000
0100
0010
0100
1000
,  // measure 100
0001
1000
0010
0001
0010
0200
0020
0000
,  // measure 101
0000
0000
0000
0300
0130
1000
0001
0100
,  // measure 102
0010
0001
1000
0001
0010
0100
1000
0010
,  // measure 103
0001
0010
1000
0010
0001
0010
0100
1000
,  // measure 104
0100
0001
0100
1000
0100
0010
0001
0100
,  // measure 105
0000
0010
1000
0000
1000
0100
0000
0010
,  // measure 106
0001
0000
0110
0000
1001
0000
1000
0010
,  // measure 107
0100
0010
0001
0010
0100
0010
1000
0100
,  // measure 108
0010
0001
1000
0001
0100
0001
0010
0001
,  // measure 109
1000
0010
0100
1000
0001
0100
0010
0001
,  // measure 110
0100
1000
0010
0001
1000
0100
0001
1000
,  // measure 111
0100
1000
0001
0100
0010
0001
1000
0100
,  // measure 112
0010
0001
1000
0100
0010
0001
0100
1000
,  // measure 113
0000
0100
0001
0000
0010
0001
0000
0010
,  // measure 114
1000
0100
0010
0001
,  // measure 115
0110
0000
0000
0000
;
