#TITLE:oddloop;
#SUBTITLE:;
#ARTIST:frederic;
#TITLETRANSLIT:;
#SUBTITLETRANSLIT:;
#ARTISTTRANSLIT:;
#CREDIT:;
#BANNER:oddloop.png;
#BACKGROUND:oddloop-bg.png;
#JACKET:oddloop-jacket.png;
#LYRICSPATH:;
#CDTITLE:;
#MUSIC:oddloop.mp3;
#OFFSET:-0.266;
#SAMPLESTART:33.226;
#SAMPLELENGTH:15.000;
#DISPLAYBPM:172.000;
#BPMS:0.000=171.970;
#STOPS:;
#BGCHANGES:;

//---------------dance-single - ----------------
#NOTES:
     dance-single:
     :
     Beginner:
     3:
     :
0000
0000
0000
0000
,
0000
0000
0000
0000
,
0000
0000
0000
0000
,
0000
0000
0000
0000
,
0000
0000
0000
0000
,
0000
0000
0000
0000
,
0000
0000
0000
0000
,
0000
0000
0000
0000
,
0001
0000
0100
0000
,
0001
0000
0000
0000
,
1000
0000
0100
0000
,
1000
0000
0000
0000
,
0001
0000
0010
0000
,
0001
0000
0000
0000
,
1000
0000
0010
0000
,
1000
0000
0000
0000
,
0000
0010
0000
0100
,
0000
0010
0000
0100
,
0220
0000
0000
0000
,
0000
0000
0330
0000
,
1000
0000
0001
0000
,
1000
0000
0001
0000
,
1000
0000
0001
0000
,
1000
0000
0001
0000
,
0002
0000
0000
0000
,
0103
0000
0000
0000
,
0002
0000
0000
0000
,
0103
0000
0000
0000
,
2000
0000
0000
0000
,
3010
0000
0000
0000
,
2000
0000
0000
0000
,
3010
0000
0000
0000
,
0002
0000
0000
0000
,
0013
0000
0000
0000
,
0002
0000
0000
0000
,
0013
0000
0000
0000
,
2000
0000
0000
0000
,
3100
0000
0000
0000
,
2000
0000
0000
0000
,
3100
0000
0000
0000
,
0000
0000
0000
0001
,
0002
0000
0003
0000
,
0000
0001
0010
0100
,
2000
0000
3000
0000
,
0020
0000
0030
0000
,
0200
0000
0300
0000
,
0000
0001
1000
0000
,
0020
0000
0030
0000
,
1000
0000
1000
0000
,
0200
0000
0300
0000
,
0001
0000
0001
0000
,
0020
0000
0030
0000
,
1000
0000
0100
0000
,
0001
0000
0100
0000
,
1000
0000
0010
0000
,
0001
0000
0010
0000
,
1000
0000
0001
0000
,
1000
0000
0001
0000
,
0020
0000
0000
0000
,
0000
0000
0000
0000
,
0032
0000
0000
0000
,
0000
0000
0000
0000
,
2003
0000
0000
0000
,
0000
0000
0000
0000
,
3200
0000
0000
0000
,
0000
0000
0000
0000
,
2300
0000
0000
0000
,
0000
0000
0000
0000
,
3020
0000
0000
0000
,
0000
0000
0000
0000
,
0230
0000
0000
0000
,
0000
0000
0000
0000
,
0302
0000
0000
0000
,
0000
0000
0000
0000
,
2003
0000
0000
0000
,
3010
0000
0000
0000
,
0002
0000
0000
0000
,
0013
0000
0000
0000
,
2000
0000
0000
0000
,
3100
0000
0000
0000
,
0002
0000
0000
0000
,
0103
0000
0000
0000
,
0020
0000
0000
0000
,
0130
0000
0000
0000
,
2000
0000
0000
0000
,
3001
0000
0000
0000
,
0200
0000
0000
0000
,
0310
0000
0000
0000
,
0002
0000
0000
0000
,
1003
0000
0000
0000
,
0010
0000
0000
0000
,
0100
0000
0000
0000
,
0001
0000
0000
0000
,
0010
0000
0000
0000
,
0100
0000
0000
0000
,
1000
0000
0000
0000
,
2002
0000
0000
0000
,
0000
0000
0000
0000
,
3003
0000
0000
0000
;

//---------------dance-single - ----------------
#NOTES:
     dance-single:
     :
     Easy:
     6:
     :
0000
0000
0000
0000
,
0000
0000
0000
0000
,
0000
0000
0000
0000
,
0000
0000
0000
0000
,
0000
0000
0000
0000
,
0000
0000
0000
0000
,
0000
0000
0000
0000
,
0000
0000
0000
0000
,
0001
0100
0001
1000
,
0001
0010
0000
0010
,
0100
1000
0100
0001
,
0100
1000
0000
0000
,
1000
0010
1000
0001
,
1000
0100
0000
0100
,
0010
0001
1000
0001
,
0010
0100
0000
0000
,
1000
0001
0010
0001
,
0100
0000
0001
0000
0000
1000
1000
0000
,
0010
0000
0000
0100
0000
0000
0010
0000
,
1000
0100
0000
0000
,
1000
1000
0001
0001
,
1000
1000
0001
0001
,
1000
1000
0001
0001
,
0100
0010
0110
0000
,
0102
0100
0100
0100
,
0103
0100
0000
0000
,
2100
0100
0100
0100
,
3100
0100
0100
0000
,
0012
0010
0010
0010
,
0013
0010
0000
0000
,
2010
0010
0010
0010
,
3010
0100
0001
0100
,
0020
0000
0000
0000
,
1030
0100
0010
0001
,
0200
0000
0320
0000
,
1030
1000
0000
0000
,
2001
0001
0001
0001
,
3001
0100
1000
0100
,
0001
0010
1000
0010
,
0001
0100
0010
0000
,
1000
0100
0010
0001
,
0001
0010
0100
1000
,
1000
0010
0100
0001
,
0001
0100
0010
1000
,
0100
0010
1000
0001
,
0001
1000
0010
0100
,
0100
0001
1000
0010
,
0010
1000
0001
0100
,
0010
1000
0100
1000
,
0010
0001
0100
0001
,
1000
0100
0001
0010
,
0100
1000
0010
0001
,
0100
1000
0100
0001
,
0010
1000
0010
0001
,
1000
0100
1000
0100
,
0010
0001
0010
0001
,
0100
0010
0100
0010
,
1000
0001
1000
0001
,
0010
0010
0010
0010
,
0010
0100
0010
0001
,
1000
0001
0100
0001
,
0010
0100
1000
0100
,
0010
0001
0100
0010
,
1000
1000
0100
0001
,
0001
0100
0010
0100
,
0001
1000
0110
1001
,
0000
0100
0001
0010
,
0001
0001
0001
0001
,
0100
0001
0100
0010
,
1000
1000
0100
0010
,
0001
0100
1000
0010
,
0001
0100
0010
1000
,
0010
0010
1000
1000
,
0100
0100
0100
0100
,
0012
0010
1000
1000
,
0103
0010
0000
0000
,
2010
0010
0100
0100
,
3001
0010
0001
0000
,
0102
0100
0010
0010
,
1003
0001
0000
0000
,
2100
0100
0010
0010
,
3001
0010
0100
1000
,
2002
0000
0000
3003
,
1000
0100
0010
0001
,
0100
0010
1000
0010
,
0001
0010
0000
0000
,
0120
0100
0100
0130
,
0001
1000
0010
1000
,
0220
0000
0000
0000
,
0000
0000
0000
0330
,
1000
1000
0100
0010
,
0010
0100
0000
0000
,
0001
0100
0010
0100
,
1000
0100
0001
0000
,
0100
0000
0010
0000
,
1000
0001
0000
0000
,
2000
0000
0000
0000
,
0002
0000
0000
0000
,
3003
0000
0000
0000
;

//---------------dance-single - ----------------
#NOTES:
     dance-single:
     :
     Medium:
     10:
     :
0000
0000
0000
0000
,
0000
0000
0000
0000
,
0000
0000
0000
0000
,
0000
0000
0000
0000
,
0000
0000
0000
0000
,
0000
0000
0000
0000
,
0000
0000
0000
0000
,
0000
0000
0000
0000
0000
0000
0000
1000
,
0010
0000
0000
0110
0000
0000
0100
0000
,
0001
0010
0100
1000
,
0001
0000
0000
1001
0000
0000
1000
0000
,
0010
0100
0010
0000
0010
0000
1000
0000
,
0001
0000
0000
0110
0000
0000
1000
0000
,
0001
0000
0010
0000
0100
0000
1000
0001
,
0100
0000
0000
1001
0000
0000
0010
0000
,
0001
0010
0100
0000
0010
0000
0001
0000
,
1000
0100
1000
0001
,
1000
0000
0010
0000
0000
0100
0010
0100
,
0001
0000
0000
1100
0000
0101
0000
0000
,
1010
0011
0010
0100
,
1000
0010
0001
0010
,
1000
0100
0001
0100
,
1000
0010
0001
0010
,
1000
0000
0100
0000
0001
0000
0000
0100
,
0102
0010
0100
0013
,
0001
0010
0100
0000
0000
0000
0000
0100
,
2100
0010
0001
3010
,
0100
0010
0001
0010
0100
0000
0000
0010
,
0012
1000
0010
1003
,
0010
0001
1000
0000
0000
0000
0000
0010
,
2010
0001
0100
3001
,
0001
0010
0100
1000
,
0100
1000
0010
0100
,
0001
0010
0100
1000
,
0001
0100
0001
1000
,
0100
0010
0001
0000
0000
0000
0000
0100
,
0210
0010
0010
0310
,
0001
1000
0010
0000
0100
0000
0110
0000
,
0001
0000
1000
0100
1000
0000
0001
0100
,
0001
0000
1000
0001
1000
0000
1001
0000
,
0100
0001
0010
0000
0100
1000
0001
1000
,
0010
0000
0100
0001
0000
1000
0100
1000
,
0000
1001
0000
0010
0001
0000
1000
0010
,
0100
0000
0001
0010
0000
0100
1000
0010
,
1000
0000
0001
0100
0000
0100
0010
1000
,
0010
0000
0001
0010
0000
0100
1000
0100
,
0000
0010
0001
0100
0001
0010
0100
1000
,
0001
0000
1000
0010
0000
1000
0100
0010
,
0001
1000
0001
0000
0100
0001
0010
0001
,
0001
0000
1000
0010
0000
0010
0100
0000
,
0000
0110
0000
0010
1000
0000
0001
0010
,
0001
0100
0100
0001
0000
1000
0100
0001
,
0000
0100
1000
0001
0100
0000
0100
0000
,
0001
0010
1000
0000
1000
0010
0001
0000
,
0001
0010
0000
0100
1100
0000
0000
0000
,
1000
0010
0000
0100
0101
0000
0000
0000
,
0001
0000
0100
0010
1000
0100
0010
0001
,
0010
0000
0100
1000
0000
1000
0001
0000
,
0010
0001
0100
0010
,
1000
0001
0000
0001
1000
0000
0010
0000
,
0100
0000
0010
0000
0100
0001
0000
0011
,
0000
1010
0000
0100
0001
0000
0100
0010
,
0000
0110
0000
0100
0010
0000
0010
1000
,
0000
0001
0100
1000
0010
1000
0000
0001
,
0100
1000
0001
0100
,
0010
0000
1000
0010
0100
0000
2002
0000
,
3003
0000
0100
1000
0010
0000
0001
0010
,
0000
0010
0010
0000
0010
0000
0010
0000
,
0010
0100
1000
0000
1000
0001
0000
0001
,
0010
0000
0010
0001
0000
0001
0200
0000
,
0000
0310
2000
0000
0000
3010
0100
0002
,
0000
0000
1003
0000
0100
0010
1000
0010
,
0000
0001
0000
0100
0010
0000
1000
0100
,
0000
1000
0001
0000
0100
0000
0010
0100
,
2010
0000
0001
0002
0000
0003
0100
0000
,
3010
0100
0001
0000
1000
0000
0010
1000
,
0012
0000
0010
0020
0000
0030
0100
0000
,
1003
0100
1000
0010
0100
0000
0001
1000
,
2100
0000
0010
0020
0000
0030
0001
0000
,
3001
0100
0010
0000
1000
0000
0010
0100
,
0102
0000
0010
2000
0000
3000
0100
0000
,
1003
0100
0010
0001
,
2002
0000
0000
3003
,
0001
0010
0100
1000
,
0010
0000
0001
0100
1000
0000
1000
0010
,
0100
0001
0010
0000
0100
0000
1000
0010
,
0120
0000
0100
0200
0000
0300
0130
0000
,
1000
0100
0010
0100
1000
0000
1001
0000
,
0010
0100
0010
0000
0000
1010
0000
0011
,
0000
0001
1000
0100
0000
1000
0010
1000
,
0001
0000
0001
0100
0000
0100
0001
0000
,
1000
0100
2000
0000
0000
0000
0000
3010
,
0100
0000
0010
1000
0000
0001
0100
0000
,
0001
1000
0001
1000
0002
0000
0000
0000
,
0013
0100
0010
0001
,
1000
0010
0200
0000
0000
0000
0000
0000
,
0302
0000
0000
0000
,
2000
0000
0000
0000
,
3003
0000
0000
0000
;

//---------------dance-single - ----------------
#NOTES:
     dance-single:
     :
     Hard:
     15:
     :
0000
0000
0000
0000
,
0000
0000
0000
0000
,
0000
0000
0000
0000
,
0000
0000
0000
0000
0000
0000
0000
0000
0000
0000
0000
0000
0000
0000
1000
0100
,
1000
0000
0010
0000
1000
0000
0100
0001
,
0000
0000
1010
0000
0000
0000
0010
0000
0100
0000
1000
0000
0000
0000
0001
0010
,
0001
0000
0010
0000
1000
0000
0100
1000
,
0000
0000
0011
0000
0000
0000
0010
0000
0100
0000
0010
0000
0000
0000
0001
0100
,
0010
0000
0010
1000
0000
0001
0100
0010
,
1000
0100
0001
0000
1000
0100
1000
0001
,
0010
0000
1000
0011
0000
0101
1000
0010
,
0100
0001
0010
0000
0011
0001
1010
0010
,
0001
0100
0001
1000
0000
0010
1000
0001
,
0001
0100
0010
0000
0100
0010
1000
0001
,
0100
0001
1000
0100
0000
1001
0000
0010
,
0001
0100
0001
0000
0011
0010
1010
1000
,
0010
1000
0100
0000
1000
0100
0001
0100
,
1000
0000
0001
0000
0010
0000
0000
0000
0000
0000
0010
0100
0001
0000
1000
0000
,
0010
0000
0000
0000
0010
0000
0100
0000
0000
0000
0101
0000
0000
0000
0100
0010
,
0100
0000
1100
0000
0010
0001
0100
0010
,
1000
0000
0001
0010
0000
0001
0010
0100
,
1000
0100
0001
0100
1000
0010
0001
0010
,
1000
0100
0001
0010
1000
0001
0010
1000
,
0100
0010
0001
0000
0010
0000
0100
0000
1000
0000
0000
0000
0000
0000
0001
0000
,
0012
0000
0010
1000
0000
1000
0103
0010
,
0001
1000
0010
0000
0100
0000
0000
0000
1000
0000
0000
0000
0010
0000
1000
0000
,
2010
0000
0100
0001
0000
0001
3010
0100
,
1000
0100
0010
0000
0100
0000
1000
0000
0010
0000
0000
0000
0100
0000
0001
0000
,
0102
0000
0100
0010
0000
0010
1003
0100
,
0010
0001
1000
0000
0001
0000
0000
0000
0001
0000
0000
0000
0100
0000
0010
0000
,
2100
0000
0001
0010
0000
0100
3001
0010
,
0001
0001
0010
0010
0100
0100
1000
1000
,
0100
0000
1000
0100
0010
0000
0001
0000
0100
0000
0001
0000
1000
0000
0100
0000
,
0010
0010
0001
0001
1000
1000
0100
0100
,
0010
0000
0000
0000
0001
0000
0100
0000
0001
0000
0010
0000
0100
0010
0001
0000
,
1000
0100
0010
0000
0001
0010
0100
0010
,
1002
0000
0100
0010
0000
1000
0013
1000
,
0001
0100
0010
0000
1000
0000
0100
0000
0010
0000
0000
0000
1001
0000
0000
0000
,
0110
0000
0000
0000
0001
0100
0010
0000
0100
0000
0000
0000
1000
0010
0100
0000
,
0010
0000
0000
0000
0001
1000
0010
0000
0100
0000
0000
0000
1000
0000
0100
0000
,
1000
0000
0001
0100
0010
0000
0100
0010
0100
0000
0001
0000
1000
0000
0001
0000
,
0010
0000
0010
0000
0100
0000
0001
0000
1000
0000
0001
0010
0100
0000
1000
0100
,
0010
0000
0100
0000
0100
0000
0010
0000
0001
0000
0100
0001
1000
0000
1000
0000
,
0100
0000
0001
0000
0100
0000
0010
0000
0000
0000
1000
0001
1000
0000
0010
0000
,
1000
0000
0100
0000
0001
0000
0100
0000
0000
0000
0010
0100
0010
0000
1000
0000
,
0010
0000
1000
0000
0001
0000
0010
0000
0000
0000
1000
0100
1000
0000
0001
0100
,
0001
0010
0010
0100
0001
0100
1000
0100
,
0010
0000
0001
0000
1000
0000
0010
0000
0000
0000
1000
0010
0100
0000
0010
0100
,
0001
0000
1000
0100
0001
0000
0001
0100
1000
0000
0001
0000
0010
0000
0001
0000
,
0100
0000
0100
0000
0010
0000
1000
0000
0100
0000
0001
0010
1000
0000
0010
0001
,
0100
0010
1000
0010
0100
0100
0001
0010
,
1000
0000
0010
0000
0100
0000
0001
0000
0000
0000
0001
0010
0001
0000
1000
0010
,
1000
0100
1000
0001
0100
0010
0100
1000
,
0001
0010
0001
1000
0001
0010
0100
0010
,
0001
0000
0001
0000
0001
0000
0001
0000
0101
0000
0001
0010
0001
0000
1000
0100
,
1000
0000
1000
0000
1000
0000
1000
0000
1100
0000
1000
0010
1000
0000
0001
0100
,
0001
0010
0100
0001
1000
0100
0010
1000
,
0001
0000
0010
0000
0100
0000
1000
0000
0100
0000
0010
0000
0001
0000
1000
0100
,
1000
0000
0001
0010
0001
0000
1000
0001
1000
0000
0010
1000
0010
0000
0100
0001
,
0100
0010
1000
0100
1000
0000
0010
0001
,
0001
0000
0010
0000
0100
1000
0100
0000
0010
0000
0100
0000
0000
0000
0001
0000
,
0100
0010
0001
0000
0000
0000
0100
0000
1100
0000
0000
0000
0100
0000
0101
0000
,
0000
0000
1001
0000
0000
0000
0100
0000
0001
0100
0010
0000
1000
0000
0001
0000
,
0000
0100
0010
0001
1000
0001
0000
1000
,
0100
0010
0001
0000
0010
0100
1000
0000
0100
0000
0001
0000
0010
0000
0001
0000
,
0100
0010
1000
0100
0001
0000
1001
0000
,
0000
0000
0100
0010
0100
0000
0001
0000
0100
0000
1000
0000
0010
0000
0100
0000
,
0000
0000
0001
0000
0001
0000
0001
0000
0010
0000
0100
0000
1000
0010
0100
0000
,
0010
1000
0001
0010
0001
0100
0000
0001
,
1010
0000
1000
0011
0000
0100
0110
0010
,
0000
0001
2000
0000
0000
3001
0100
0010
,
0010
0010
1000
0000
0010
0001
1000
0001
,
0000
0000
1000
0100
1000
0000
0010
0000
0100
0010
0100
0000
0001
0000
0010
0001
,
0010
0000
0001
0000
1000
0001
1000
0000
0010
0000
0000
0000
0110
0000
0001
0010
,
0001
0001
0100
0010
0000
0001
1000
0001
,
0100
0010
0001
0000
1000
0000
0000
0000
0001
0000
0000
0000
0010
0000
1000
0100
,
1000
1000
1000
0010
0000
0001
1000
1000
,
0001
1000
0001
0000
0100
0010
0100
0000
0001
0000
0000
0000
0100
0000
0010
1000
,
0010
1000
1000
0100
0000
0001
0010
0100
,
0001
0100
0010
0000
1000
0000
0000
0000
0001
0000
0000
0000
0010
0000
0001
0100
,
0001
0001
0100
1000
0000
1000
0100
0001
,
0010
0010
0001
0001
1000
1000
0100
0100
,
0001
0000
0010
0100
1000
0000
0100
0000
0010
0000
1000
0001
0100
0000
0001
0000
,
1000
1000
0100
0100
0010
0010
0001
0001
,
0100
0000
0010
1000
0100
0000
1000
0000
0001
0000
0100
0000
0001
0000
0010
0000
,
0001
1000
0001
0000
0010
0000
0000
0000
0100
0000
0010
0000
0001
0000
1000
0001
,
1000
0000
0100
0001
0000
0010
0100
1000
,
0010
1000
0100
0000
0010
0000
0100
0000
0010
0000
0000
0000
0110
0000
0000
0000
,
1000
0010
0010
0100
0000
0101
0000
1100
,
0000
0000
1000
0000
0100
0000
0001
0000
0000
0000
0100
0010
0100
0000
0001
1000
,
0001
0000
0100
0001
0000
1000
0100
1000
,
0010
0000
0100
0000
0001
0000
0000
0000
1000
0000
0000
0000
0010
0000
0100
0010
,
0100
0000
0001
0100
0000
0001
0010
1000
,
0100
1000
0001
0010
0100
0000
0110
0000
,
0010
0000
0001
1000
0000
0001
0010
0100
,
1000
0100
0010
0000
0001
0000
1000
0000
,
2002
0000
0000
0000
,
0000
0000
0000
0000
,
3003
0000
0000
0000
;
